osu file format v9

[General]
AudioFilename: DJ Spyne - Deep In My Soul (Nightcore Mix).mp3
AudioLeadIn: 0
PreviewTime: 39781
Countdown: 0
SampleSet: Soft
StackLeniency: 0.3
Mode: 0
LetterboxInBreaks: 0

[Editor]
Bookmarks: 90673
DistanceSpacing: 1
BeatDivisor: 4
GridSize: 8

[Metadata]
Title:Deep In My Soul (Nightcore Mix)
Artist:DJ Spyne & Pippo Palmieri
Creator:osuplayer111
Version:Insane
Source:
Tags:Trance Samah

[Difficulty]
HPDrainRate:7
CircleSize:5
OverallDifficulty:7
ApproachRate:8
SliderMultiplier:1.8
SliderTickRate:1

[Events]
//Background and Video events
0,0,"Moe.jpg"
//Break Periods
2,65477,75638
2,154365,164527
//Storyboard Layer 0 (Background)
//Storyboard Layer 1 (Fail)
//Storyboard Layer 2 (Pass)
//Storyboard Layer 3 (Foreground)
//Storyboard Sound Samples
//Background Colour Transformations
3,100,128,128,255

[TimingPoints]
1785,396.825396825397,4,2,1,80,1,0
1785,-200,4,2,1,80,0,0
14483,-100,4,2,1,80,0,0
27181,-100,4,2,1,50,0,0
27281,-100,4,2,1,80,0,0
38292,-100,4,1,1,50,0,0
39880,-100,4,2,1,80,0,1
39979,-100,4,2,1,100,0,1
52479,-100,4,2,1,100,0,0
52578,-100,4,2,1,80,0,1
52677,-100,4,2,1,100,0,1
63689,-100,4,2,1,80,0,1
63788,-100,4,2,1,100,0,1
65277,-100,4,2,1,80,0,0
78173,-100,4,2,1,100,0,0
89086,-100,4,2,1,80,0,0
89185,-100,4,2,1,100,0,0
90673,-200,4,1,1,50,0,0
90773,-200,4,2,1,50,0,0
103372,-100,4,2,1,50,0,0
103471,-100,4,2,1,80,0,0
116070,-100,4,2,1,50,0,0
116169,-100,4,2,1,80,0,0
127181,-100,4,1,1,50,0,0
128769,-100,4,2,1,80,0,1
128868,-100,4,2,1,100,0,1
141368,-100,4,2,1,100,0,0
141467,-100,4,2,1,80,0,1
141566,-100,4,2,1,100,0,1
152578,-100,4,2,1,80,0,1
152677,-100,4,2,1,100,0,1
154165,-100,4,2,1,80,0,0
167062,-100,4,2,1,100,0,0
177975,-100,4,2,1,80,0,0
178074,-100,4,2,1,100,0,0
179562,-100,4,1,1,50,0,0
179661,-100,4,2,1,80,0,0
191864,-95.2380952380952,4,2,1,80,0,0

[Colours]
Combo1 : 47,187,255
Combo2 : 160,66,255
Combo3 : 255,89,255
Combo4 : 72,72,255
SliderBorder : 200,200,200

[HitObjects]
104,48,1785,2,0,B|168:136|256:152|344:136|408:48,1,360,2|2
408,47,3769,1,0
408,336,4959,6,0,B|344:248|256:232|168:248|104:336,1,360,2|2
103,336,6943,1,0
48,192,8134,6,0,B|137:192|137:192|179:112|179:112|269:112|269:112|312:32,1,360,2|2
311,32,10118,1,0
464,192,11308,6,0,B|375:192|375:192|333:272|333:272|243:272|243:272|200:352,1,360,2|2
200,351,13292,1,0
256,48,14483,5,2
184,96,14681,1,0
184,96,14781,1,0
184,96,14880,2,0,B|136:96|104:56,2,90
212,176,15475,1,0
300,176,15673,1,0
328,96,15872,1,0
328,96,15972,1,0
328,96,16071,2,0,B|376:96|408:56,2,90,2|0|0
408,160,16665,6,0,B|440:192|440:192|440:240,1,90
376,344,17062,2,0,B|344:312|344:312|344:264,1,90
256,296,17459,1,0
232,312,17558,1,0
208,328,17658,2,0,B|160:328|128:288,1,90,2|0
32,152,18054,6,0,B|80:152|112:192,2,90
32,64,18650,1,0
120,64,18848,1,0
176,136,19046,1,0
200,120,19146,1,0
224,104,19245,2,0,B|272:104|272:104|304:72,1,90,2|0
464,104,19642,6,0,B|416:104|416:104|384:72,1,90
432,192,20038,1,0
464,280,20237,2,0,B|416:280|416:280|384:312,1,90
320,248,20634,2,0,B|288:216,2,45,0|0|2
256,312,21031,6,0,B|208:312|176:272,1,90
40,304,21427,2,0,B|88:304|120:344,1,90,0|0
177,274,21824,1,0
104,224,22023,2,0,B|135:187|183:187,1,90
182,186,22320,1,0
182,186,22419,1,2
224,104,22618,6,0,B|256:72|256:72|304:72,1,90
224,280,23015,2,0,B|256:312|256:312|304:312,1,90
480,192,23411,2,0,B|392:192,1,90
296,192,23808,1,0
272,192,23908,1,0
248,192,24007,2,0,B|200:192|200:192|168:224,1,90,2|0
40,152,24404,6,0,B|88:152|88:152|120:120,1,90
168,48,24800,1,0
256,72,24999,2,0,B|304:72|304:72|333:101,1,90
416,64,25396,1,0
416,64,25495,1,0
416,64,25594,2,0,B|464:64|496:104,1,90,2|0
416,320,25991,6,0,B|464:320|496:280,2,90
328,320,26586,1,0
328,232,26785,1,0
250,277,26983,1,0
250,277,27082,1,0
250,277,27181,6,0,B|229:320|176:320,1,90,4|0
96,272,27578,2,0,B|55:192|55:192|96:112,1,180,8|0
176,64,28173,1,0
256,112,28372,2,0,B|320:112|320:112|360:144|360:144|424:144,1,180,8|0
480,216,28967,1,0
432,288,29165,2,0,B|384:288|360:336,1,90,8|0
272,336,29562,6,0,B|192:296|192:296|152:336|104:304,2,180,0|8|0
320,256,30554,1,0
256,192,30753,1,8
192,128,30951,1,0
192,128,31150,2,0,B|96:128|56:232,2,180,0|8|0
256,64,32142,1,0
320,128,32340,2,0,B|416:128|456:232,1,180,8|0
396,296,32935,1,0
320,248,33134,6,0,B|303:296|255:304|255:304|207:296|191:248,1,180,8|0
256,192,33729,1,0
191,135,33927,2,0,B|207:87|255:79|255:79|303:87|320:136,2,180,8|0|8
56,127,35118,6,0,B|104:143|112:191|112:191|104:239|56:256,2,180,0|8|0
104,48,36110,1,0
176,104,36308,1,8
200,192,36507,1,0
176,280,36705,2,0,B|256:320|256:320|336:280,1,180,0|8
336,104,37499,1,0
312,192,37697,1,0
336,280,37896,1,8
256,48,38292,1,4
256,336,39880,6,0,B|256:248,1,90,4|0
256,152,40277,1,8
192,88,40475,2,0,B|216:28|256:22|296:28|320:88,1,180
344,176,41070,1,8
304,256,41269,1,0
256,336,41467,6,0,B|184:336|184:336|136:296,2,135,0|8|0
208,256,42261,1,0
168,176,42459,1,0
256,176,42658,1,8
208,96,42856,1,0
304,96,43054,6,0,B|256:48|256:48|208:96,1,135
208,96,43451,2,0,B|168:176,1,90,8|0
304,288,43848,2,0,B|344:208,1,90
144,256,44245,2,0,B|224:296,1,90,8|0
368,128,44642,2,0,B|368:56|304:16,1,135
304,16,45038,1,8
144,128,45237,2,0,B|144:56|208:16,2,135,0|0|8
256,84,46031,1,0
216,160,46229,6,0,B|224:200|257:210|257:210|288:200|296:160,2,135,0|8|0
144,208,47023,2,0,B|160:256|208:272,1,90
368,208,47419,2,0,B|352:256|304:272,1,90,8|0
200,352,47816,2,0,B|256:390|256:390|312:353,2,135,0|8|0
152,280,48610,1,0
256,192,48908,1,8
360,280,49205,1,0
256,280,49404,5,0
160,192,49701,1,8
256,104,49999,1,0
352,192,50296,1,0
336,56,50594,1,8
256,16,50792,1,0
176,56,50991,6,0,B|96:56|72:128,1,135,0|8
176,328,51586,2,0,B|96:328|72:256,1,135
146,192,52082,2,0,B|194:192,1,45,0|8
256,256,52380,1,0
320,320,52578,6,0,B|376:320|392:280|392:280|440:280,2,135,4|8|0
256,256,53372,1,0
192,192,53570,1,0
320,192,53769,1,8
256,128,53967,1,0
320,64,54165,2,0,B|376:64|392:104|392:104|440:104,2,135,0|8|0
256,128,54959,6,0,B|208:112|208:56,1,90
256,256,55356,2,0,B|208:272|208:328,1,90,8|0
188,192,55753,2,0,B|52:192,2,135,0|8|0
324,192,56546,1,0
324,192,56646,2,0,B|420:192,1,90
414,192,56943,1,8
504,192,57142,1,0
464,272,57340,6,0,B|416:272|416:272|392:304|392:304|344:304,1,135,0|8
464,112,57935,2,0,B|416:112|416:112|392:80|392:80|344:80,1,135,0|0
320,168,58431,2,0,B|272:168,1,45,0|8
196,208,58729,1,0
144,136,58927,6,0,B|64:136|40:64,2,135,0|8|0
128,48,59721,1,0
216,48,59919,2,0,B|264:48|296:88,1,90,0|8
344,160,60316,1,0
328,248,60515,2,0,B|408:248|432:176,2,135,0|8|0
256,304,61308,2,0,B|192:304|192:304|152:336|152:336|88:336,1,180,0|8
40,256,61904,1,0
88,176,62102,6,0,B|136:176|136:176|160:200|160:200|216:200,1,135,0|8
424,176,62697,2,0,B|376:176|376:176|352:200|352:200|296:200,1,135
256,120,63193,2,0,B|256:72,1,45,0|8
168,48,63491,5,0
168,136,63689,2,0,B|92:136|92:248|168:248,1,180,4|8
256,248,64285,1,0
343,248,64483,2,0,B|420:248|420:136|344:136,1,180,0|8
344,48,65078,1,0
256,75,65277,1,4
256,192,76388,12,4,77975
208,72,78173,5,0
192,96,78273,1,0
176,120,78372,1,8
128,192,78570,1,0
256,248,78868,1,0
384,192,79165,1,8
336,120,79364,1,0
320,96,79463,1,0
304,72,79562,6,0,B|256:24|256:24|208:72,2,135,0|8|0
256,192,80455,1,0
208,312,80753,1,8
152,240,80951,1,0
152,240,81050,1,0
152,240,81150,2,0,B|104:192|104:192|152:144,2,135,0|8|0
24,192,82042,1,0
96,72,82340,1,8
152,144,82538,5,0
152,144,82638,1,0
152,144,82737,2,0,B|208:136|208:88|208:88|176:48,1,135
178,50,83134,1,8
360,144,83332,2,0,B|304:136|304:88|304:88|336:48,2,135,0|0|8
256,192,84126,1,0
184,248,84324,6,0,B|184:328|120:360,1,135
121,359,84721,1,8
88,272,84919,2,0,B|88:168|176:120,1,180
264,120,85515,2,0,B|344:176,1,90,8|0
424,184,85911,6,0,B|352:184|320:256,1,135
321,256,86308,2,0,B|226:256,1,90,8|0
184,336,86705,2,0,B|279:336,2,90,0|0|8
96,336,87300,1,0
56,256,87499,6,0,B|120:224|120:144,1,135
119,145,87896,1,8
184,80,88094,2,0,B|257:27|257:27|328:80,1,180
392,145,88689,1,8
328,80,88888,1,0
256,136,89086,6,0,B|256:272,1,135,4|0
256,271,89483,1,8
184,328,89681,2,0,B|208:376|256:384|304:376|328:328,1,180
376,256,90277,1,8
408,336,90475,1,0
408,336,90673,6,0,B|344:248|256:232|168:248|104:336,1,360,4|2
103,336,92658,1,0
104,48,93847,6,0,B|168:136|256:152|344:136|408:48,1,360,2|2
408,47,95832,1,0
464,192,97022,6,0,B|375:192|375:192|333:272|333:272|243:272|243:272|200:352,1,360,2|2
201,352,99006,1,0
48,192,100196,6,0,B|137:192|137:192|179:112|179:112|269:112|269:112|312:32,1,360,2|2
312,33,102180,1,0
256,336,103371,5,4
328,288,103569,1,0
328,288,103669,1,0
328,288,103768,2,0,B|376:288|408:328,2,90
256,232,104363,1,0
256,232,104561,1,0
184,288,104760,1,0
184,288,104860,1,0
184,288,104959,2,0,B|136:288|104:328,2,90,2|0|0
104,224,105553,6,0,B|72:192|72:192|72:144,1,90
136,40,105950,2,0,B|168:72|168:72|168:120,1,90
256,88,106347,1,0
280,72,106446,1,0
304,56,106546,2,0,B|352:56|384:96,1,90,2|0
480,232,106942,6,0,B|432:232|400:192,2,90
480,320,107538,1,0
392,320,107736,1,0
336,248,107934,1,0
312,264,108034,1,0
288,280,108133,2,0,B|240:280|240:280|208:312,1,90,2|0
48,280,108530,6,0,B|96:280|96:280|128:312,1,90
80,192,108926,1,0
48,104,109125,2,0,B|96:104|96:104|128:72,1,90
192,136,109522,2,0,B|224:168,2,45,0|0|2
256,72,109919,6,0,B|304:72|336:112,1,90
472,80,110315,2,0,B|424:80|392:40,1,90,0|0
335,110,110712,1,0
408,160,110911,2,0,B|377:197|329:197,1,90
330,198,111208,1,0
330,198,111307,1,2
288,280,111506,6,0,B|256:312|256:312|208:312,1,90
288,104,111903,2,0,B|256:72|256:72|208:72,1,90
32,192,112299,2,0,B|120:192,1,90
216,192,112696,1,0
240,192,112796,1,0
264,192,112895,2,0,B|312:192|312:192|344:160,1,90,2|0
472,232,113292,6,0,B|424:232|424:232|392:264,1,90
344,336,113688,1,0
256,312,113887,2,0,B|208:312|208:312|179:283,1,90
96,320,114284,1,0
96,320,114383,1,0
96,320,114482,2,0,B|48:320|16:280,1,90,2|0
96,64,114879,6,0,B|48:64|16:104,2,90
184,64,115474,1,0
184,152,115673,1,0
262,107,115871,1,0
262,107,115970,1,0
262,107,116069,6,0,B|283:64|336:64,1,90,4|0
424,64,116466,2,0,B|465:144|465:144|424:224,1,180,8|0
368,296,117061,1,0
280,296,117260,2,0,B|216:296|216:296|176:264|176:264|112:264,1,180,8|0
56,192,117855,1,0
112,120,118053,2,0,B|160:120|184:72,1,90,8|0
256,24,118450,6,0,B|336:64|336:64|376:24|424:56,2,180,0|8|0
256,112,119442,1,0
212,192,119641,1,8
300,192,119839,1,0
328,280,120038,2,0,B|424:280|464:176,2,180,0|8|0
256,328,121030,1,0
184,280,121228,2,0,B|88:280|48:176,1,180,8|0
48,88,121823,1,0
48,88,122022,6,0,B|65:40|113:32|113:32|161:40|177:88,1,180,8|0
256,136,122617,1,0
334,88,122816,2,0,B|351:40|399:32|399:32|447:40|464:88,2,180,8|0|8
344,320,124006,6,0,B|392:304|400:256|400:256|392:208|344:191,2,180,0|8|0
256,344,124998,1,0
256,256,125196,1,8
256,168,125395,1,0
168,190,125594,2,0,B|120:208|112:256|112:256|120:304|168:320,2,180,0|8|0
184,104,126585,1,0
184,104,126785,2,0,B|256:51|256:51|328:104,1,180,8|4
256,48,128768,6,0,B|256:136,1,90,4|0
256,232,129165,1,8
320,296,129363,2,0,B|296:356|256:362|216:356|192:296,1,180
176,208,129958,1,8
256,138,130157,1,0
336,208,130355,6,0,B|408:208|408:208|456:248,2,135,0|8|0
336,120,131149,1,0
300,36,131347,1,0
212,36,131546,1,8
176,120,131744,1,0
208,200,131942,6,0,B|256:248|256:248|304:200,1,135
303,200,132340,2,0,B|384:272,1,90,8|0
208,200,132737,2,0,B|128:272,1,90
256,128,133133,2,0,B|256:40,1,90,8|0
142,260,133530,2,0,B|142:332|206:372,1,135
205,371,133927,1,8
370,260,134126,2,0,B|370:332|306:372,2,135,0|0|8
256,300,134919,1,0
296,224,135117,6,0,B|288:184|255:174|255:174|224:184|216:224,2,135,0|8|0
368,176,135911,2,0,B|352:128|304:112,1,90
144,176,136307,2,0,B|160:128|208:112,1,90,8|0
312,32,136705,2,0,B|280:64|256:29|256:29|240:64|200:32,2,135,0|8|0
360,104,137498,1,0
256,192,137796,1,8
152,104,138093,1,0
256,104,138292,5,0
352,192,138589,1,8
256,280,138887,1,0
160,192,139184,1,0
176,328,139482,1,8
256,368,139680,1,0
336,328,139879,6,0,B|416:328|440:256,1,135,0|0
439,257,140277,1,8
336,56,140474,2,0,B|416:56|440:128,1,135
366,192,140970,2,0,B|318:192,1,45,0|8
256,128,141268,1,0
192,64,141466,6,0,B|136:64|120:104|120:104|72:104,2,135,4|8|0
256,128,142260,1,0
320,192,142458,1,0
192,192,142657,1,8
256,256,142855,1,0
192,320,143053,2,0,B|136:320|120:280|120:280|72:280,2,135,0|8|0
256,256,143847,6,0,B|304:272|304:328,1,90
256,128,144244,2,0,B|304:112|304:56,1,90,8|0
464,192,144642,2,0,B|328:192,1,135
329,192,145038,1,8
256,128,145237,1,0
188,192,145435,1,0
188,192,145534,2,0,B|92:192,1,90
98,192,145831,1,8
8,192,146030,1,0
48,112,146228,6,0,B|96:112|96:112|120:80|120:80|168:80,1,135,0|0
167,80,146626,1,8
48,272,146823,2,0,B|96:272|96:272|120:304|120:304|168:304,1,135,0|0
192,216,147319,2,0,B|240:216,1,45,0|8
316,176,147617,1,0
368,248,147815,6,0,B|448:248|472:320,2,135,0|8|0
384,336,148609,1,0
296,336,148807,2,0,B|248:336|216:296,1,90,0|8
168,224,149204,1,0
184,136,149403,2,0,B|104:136|80:208,2,135,0|8|0
256,80,150196,2,0,B|320:80|320:80|360:48|360:48|424:48,1,180,0|8
472,128,150792,1,0
424,208,150990,6,0,B|376:208|376:208|352:184|352:184|296:184,1,135,0|0
298,184,151388,1,8
88,208,151585,2,0,B|136:208|136:208|160:184|160:184|216:184,1,135
256,264,152081,2,0,B|256:312,1,45,0|8
344,336,152379,5,0
344,248,152577,2,0,B|420:248|420:136|344:136,1,180,4|8
256,136,153173,1,0
169,136,153371,2,0,B|92:136|92:248|168:248,1,180,0|8
168,336,153966,1,0
256,309,154165,1,4
256,192,165277,12,4,166864
304,312,167062,5,0
320,288,167162,1,0
336,264,167261,1,8
384,192,167459,1,0
256,136,167757,1,0
128,192,168054,1,8
176,264,168253,1,0
192,288,168352,1,0
208,312,168451,6,0,B|256:360|256:360|304:312,2,135,0|8|0
256,192,169344,1,0
304,72,169642,1,8
392,96,169840,1,0
408,120,169939,1,0
424,144,170039,2,0,B|472:192|472:192|424:240,2,135,0|8|0
336,240,170931,1,0
256,352,171229,1,8
200,280,171427,5,0
176,264,171527,1,0
152,248,171626,2,0,B|96:256|96:304|96:304|128:344,1,135
125,341,172023,1,8
152,136,172221,2,0,B|96:128|96:80|96:80|128:40,2,135,0|0|8
240,136,173015,1,0
328,136,173213,6,0,B|328:56|392:24,1,135
391,25,173610,1,8
424,112,173808,2,0,B|424:216|336:264,1,180
248,264,174404,2,0,B|168:208,1,90,8|0
88,200,174800,6,0,B|160:200|192:128,1,135
191,128,175197,2,0,B|286:128,1,90,8|0
328,48,175594,2,0,B|233:48,2,90,0|0|8
416,48,176189,1,0
456,128,176388,6,0,B|392:160|392:240,1,135
393,239,176785,1,8
328,304,176983,2,0,B|255:357|255:357|184:304,1,180
120,239,177578,1,8
184,304,177777,1,0
256,248,177975,6,0,B|256:112,1,135,4|0
256,113,178372,1,8
328,56,178570,2,0,B|304:8|256:0|208:8|184:56,1,180
136,128,179166,1,8
96,48,179364,1,0
40,112,179562,6,0,B|40:184|40:184|80:232,1,135,4|0
472,112,180158,2,0,B|472:184|472:184|432:232,1,135,2|0
328,320,180753,1,2
256,264,180951,1,0
184,320,181150,2,0,B|112:320|72:256,1,135,2|0
328,64,181745,2,0,B|400:64|440:128,2,135,2|0|2
344,152,182538,1,0
256,152,182737,6,0,B|192:152|192:152|176:120|128:120,1,135,2|0
256,232,183332,2,0,B|320:232|320:232|336:264|384:264,2,135,2|0|2
256,320,184126,1,0
176,280,184324,2,0,B|128:280|128:280|104:312|104:312|56:312,1,135,2|0
336,104,184919,2,0,B|384:104|384:104|408:72|408:72|456:72,2,135,2|0|2
256,64,185713,1,0
176,104,185911,6,0,B|120:104|112:152|112:152|128:200,1,135,2|0
336,280,186507,2,0,B|392:280|400:232|400:232|384:184,2,135,2|0|2
256,232,187300,1,0
176,280,187499,2,0,B|128:328|128:328|56:328,1,135,2|0
336,104,188094,2,0,B|384:56|384:56|456:56,2,135,2|0|2
256,144,188888,1,0
176,104,189086,6,0,B|160:48|120:48|120:48|72:48,1,135,2|0
336,280,189681,2,0,B|352:336|392:336|392:336|440:336,2,135,2|0|2
256,240,190475,1,0
256,328,190673,2,0,B|120:328,1,135,2|0
256,56,191269,2,0,B|392:56,1,135,2|0
256,144,191864,2,0,B|256:240,1,94.4999997183681,2|0
