osu file format v9

[General]
AudioFilename: DJ Spyne - Deep In My Soul (Nightcore Mix).mp3
AudioLeadIn: 0
PreviewTime: 39781
Countdown: 0
SampleSet: Soft
StackLeniency: 0.6
Mode: 0
LetterboxInBreaks: 0

[Editor]
Bookmarks: 90673
DistanceSpacing: 0.8
BeatDivisor: 2
GridSize: 8

[Metadata]
Title:Deep In My Soul (Nightcore Mix)
Artist:DJ Spyne & Pippo Palmieri
Creator:osuplayer111
Version:Easy
Source:
Tags:Trance Samah

[Difficulty]
HPDrainRate:2
CircleSize:3
OverallDifficulty:2
ApproachRate:3
SliderMultiplier:1.4
SliderTickRate:1

[Events]
//Background and Video events
0,0,"Moe.jpg"
//Break Periods
2,65476,74948
2,154364,163837
//Storyboard Layer 0 (Background)
//Storyboard Layer 1 (Fail)
//Storyboard Layer 2 (Pass)
//Storyboard Layer 3 (Foreground)
//Storyboard Sound Samples
//Background Colour Transformations
3,100,128,128,255

[TimingPoints]
1785,396.825396825397,4,2,1,80,1,0
1785,-200,4,2,1,80,0,0
14483,-100,4,2,1,80,0,0
27181,-100,4,2,1,50,0,0
27281,-100,4,2,1,80,0,0
38292,-100,4,1,1,50,0,0
39880,-100,4,2,1,80,0,1
39979,-100,4,2,1,100,0,1
52479,-100,4,2,1,100,0,0
52578,-100,4,2,1,80,0,1
52677,-100,4,2,1,100,0,1
63689,-100,4,2,1,80,0,1
63788,-100,4,2,1,100,0,1
65277,-100,4,2,1,80,0,0
78173,-100,4,2,1,100,0,0
89086,-100,4,2,1,80,0,0
89185,-100,4,2,1,100,0,0
90673,-200,4,1,1,50,0,0
90773,-200,4,2,1,50,0,0
103372,-100,4,2,1,50,0,0
103471,-100,4,2,1,80,0,0
116070,-100,4,2,1,50,0,0
116169,-100,4,2,1,80,0,0
127181,-100,4,1,1,50,0,0
128769,-100,4,2,1,80,0,1
128868,-100,4,2,1,100,0,1
141368,-100,4,2,1,100,0,0
141467,-100,4,2,1,80,0,1
141566,-100,4,2,1,100,0,1
152578,-100,4,2,1,80,0,1
152677,-100,4,2,1,100,0,1
154165,-100,4,2,1,80,0,0
167062,-100,4,2,1,100,0,0
177975,-100,4,2,1,80,0,0
178074,-100,4,2,1,100,0,0
179562,-100,4,1,1,50,0,0
179661,-100,4,2,1,80,0,0

[Colours]
Combo1 : 47,187,255
Combo2 : 160,66,255
Combo3 : 255,89,255
Combo4 : 72,72,255
SliderBorder : 200,200,200

[HitObjects]
152,48,1785,2,0,B|176:128|256:152|336:128|360:48,1,280,2|2
359,48,3769,1,0
359,335,4959,6,0,B|336:256|256:232|176:256|152:336,1,280,2|2
152,335,6943,1,0
48,192,8134,6,0,B|188:192|188:192|256:66,1,280,2|2
254,68,10118,1,0
464,192,11308,6,0,B|324:192|324:192|256:318,1,280,2|2
257,315,13292,1,0
256,68,14483,6,0,B|176:68|144:136,1,140,2|0
48,192,15277,1,0
143,247,15673,2,0,B|176:316|256:316,1,140,0|2
368,312,16467,2,0,B|448:352|488:280|488:280|488:136,1,280
416,56,17658,6,0,B|344:56|344:56|312:120,1,140,2|0
256,216,18451,1,0
198,116,18848,2,0,B|168:56|168:56|96:56,1,140,0|2
24,141,19642,2,0,B|168:192|168:360,1,280
280,360,20832,6,0,B|360:360|400:296,1,140,2|0
416,184,21626,2,0,B|336:184|296:248,2,140,0|0|2
416,72,22816,2,0,B|312:72|312:72|256:120|256:120|152:120,1,280
40,120,24007,6,0,B|40:192|104:240,1,140,2|0
176,320,24800,1,0
256,240,25197,1,0
336,320,25594,1,2
409,239,25991,2,0,B|472:192|472:120,2,140
360,136,27181,5,4
256,88,27578,2,8,B|116:88|116:88|24:193,1,280
24,304,28769,1,0
136,304,29165,6,8,B|216:336|256:264|256:264|400:264,1,280
480,192,30356,1,0
395,120,30753,2,8,B|256:120|256:120|216:48|136:80,1,280
56,160,31943,6,0,B|128:160|168:232,1,140,0|8
256,304,32737,1,0
344,231,33134,2,0,B|384:160|456:160,1,140,8|0
456,48,33927,1,8
256,152,34721,1,8
56,48,35515,1,8
167,239,36308,6,8,B|168:152|256:120|344:152|344:240,2,280
256,312,38292,1,4
256,72,39880,5,4
368,72,40277,2,8,B|497:193|368:312,1,280
256,312,41467,1,0
143,311,41864,2,8,B|15:193|144:72,1,280
256,72,43054,5,0
368,72,43451,2,8,B|440:192|440:192|368:312,1,280
256,312,44642,1,0
144,312,45038,2,8,B|72:192|72:192|144:72,1,280
256,72,46229,6,0,B|328:72|328:72|376:120,1,140,0|8
464,192,47023,1,0
376,263,47419,2,0,B|328:312|328:312|256:312,1,140,8|0
144,312,48213,6,8,B|144:240|83:193|83:193|144:152|144:72,2,280
256,312,50197,1,0
344,248,50594,1,8
344,136,50991,1,0
256,72,51388,1,8
64,192,52181,1,8
160,136,52578,5,4
160,248,52975,2,8,B|256:349|256:349|352:248,1,280
352,136,54165,1,0
256,80,54562,6,0,B|256:224,1,140,8|0
168,288,55356,1,8
256,352,55753,1,0
344,288,56150,2,8,B|424:288|451:192|424:96|344:96,1,280
256,32,57340,1,0
168,95,57737,2,8,B|88:96|61:192|88:288|168:288,1,280
256,352,58927,6,0,B|320:312|320:232,1,140,0|8
304,128,59721,1,0
256,32,60118,2,0,B|192:72|192:152,2,140,8|0|8
368,32,61308,2,0,B|424:80|424:80|424:152,1,140,0|8
424,256,62102,1,0
336,320,62499,6,8,B|256:204|256:204|178:317,1,280
80,272,63689,2,0,B|160:152,1,140,4|8
256,96,64483,1,0
354,155,64880,2,0,B|432:272,1,140,8|4
256,192,76388,12,4,77975
132,247,78372,6,8,B|256:248|256:136|380:135,1,280
480,192,79562,1,0
379,249,79959,2,8,B|256:248|256:136|132:137,1,280
32,192,81150,2,0,B|32:264|104:304,1,140,0|8
256,192,82340,6,0,B|400:192,1,140,8|0
416,80,83134,2,8,B|500:192|500:192|416:304,1,280
304,304,84324,2,0,B|232:304|184:368,1,140,0|8
161,254,85118,2,0,B|113:191|41:191,1,140,0|8
41,191,85911,6,0,B|113:191|161:129,1,140,0|8
184,17,86705,2,0,B|232:80|304:80,1,140,0|8
416,80,87499,1,0
344,168,87896,2,8,B|272:208|257:272|257:272|240:208|168:168,2,280
456,360,90277,1,8
360,336,90673,6,0,B|336:256|256:232|176:256|152:336,1,280,4|2
153,336,92657,1,0
153,49,93847,6,0,B|176:128|256:152|336:128|360:48,1,280,2|2
360,49,95831,1,0
464,192,97022,6,0,B|324:192|324:192|256:318,1,280,2|2
258,316,99006,1,0
48,192,100196,6,0,B|188:192|188:192|256:66,1,280,2|2
255,69,102180,1,0
256,316,103372,6,0,B|336:316|368:248,1,140,4|0
464,192,104165,1,0
369,137,104561,2,0,B|336:68|256:68,1,140,0|2
144,72,105355,2,0,B|64:32|24:104|24:104|24:248,1,280
96,328,106546,6,0,B|168:328|168:328|200:264,1,140,2|0
256,168,107339,1,0
314,268,107736,2,0,B|344:328|344:328|416:328,1,140,0|2
488,243,108530,2,0,B|344:192|344:24,1,280
232,24,109720,6,0,B|152:24|112:88,1,140,2|0
96,200,110514,2,0,B|176:200|216:136,2,140,0|0|2
96,312,111704,2,0,B|200:312|200:312|256:264|256:264|360:264,1,280
472,264,112895,6,0,B|472:192|408:144,1,140,2|0
336,64,113688,1,0
256,144,114085,1,0
176,64,114482,1,2
103,145,114879,2,0,B|40:192|40:264,2,140
152,248,116069,5,4
256,296,116466,2,8,B|396:296|396:296|488:191,1,280
488,80,117657,1,0
376,80,118053,6,8,B|296:48|256:120|256:120|112:120,1,280
32,192,119244,1,0
117,264,119641,2,8,B|256:264|256:264|296:336|376:304,1,280
456,224,120831,6,0,B|384:224|344:152,1,140,0|8
256,80,121625,1,0
168,153,122022,2,0,B|128:224|56:224,1,140,8|0
56,336,122815,1,8
256,232,123609,1,8
456,336,124403,1,8
345,145,125197,6,8,B|344:232|256:264|168:232|168:144,2,280
256,72,127181,1,4
256,312,128768,5,4
144,312,129165,2,8,B|15:191|144:72,1,280
256,72,130355,1,0
369,73,130752,2,8,B|497:191|368:312,1,280
256,312,131942,5,0
144,312,132339,2,8,B|72:192|72:192|144:72,1,280
256,72,133530,1,0
368,72,133926,2,8,B|440:192|440:192|368:312,1,280
256,312,135117,6,0,B|184:312|184:312|136:264,1,140,0|8
48,192,135911,1,0
136,121,136307,2,0,B|184:72|184:72|256:72,1,140,8|0
368,72,137101,6,8,B|368:144|429:191|429:191|368:232|368:312,2,280
256,72,139085,1,0
168,136,139482,1,8
168,248,139879,1,0
256,312,140276,1,8
448,192,141069,1,8
352,248,141466,5,4
352,136,141863,2,8,B|256:35|256:35|160:136,1,280
160,248,143053,1,0
256,304,143450,6,0,B|256:160,1,140,8|0
344,96,144244,1,8
256,32,144641,1,0
168,96,145038,2,8,B|88:96|61:192|88:288|168:288,1,280
256,352,146228,1,0
344,289,146625,2,8,B|424:288|451:192|424:96|344:96,1,280
256,32,147815,6,0,B|192:72|192:152,1,140,0|8
208,256,148609,1,0
256,352,149006,2,0,B|320:312|320:232,2,140,8|0|8
144,352,150196,2,0,B|88:304|88:304|88:232,1,140,0|8
88,128,150990,1,0
176,64,151387,6,8,B|256:180|256:180|334:67,1,280
432,112,152577,2,0,B|352:232,1,140,4|8
256,288,153371,1,0
158,229,153768,2,0,B|80:112,1,140,8|4
256,192,165277,12,4,166864
380,137,167261,6,8,B|256:136|256:248|132:249,1,280
32,192,168451,1,0
132,134,168848,2,8,B|256:136|256:248|380:247,1,280
480,192,170038,2,0,B|480:120|408:80,1,140,0|8
256,192,171229,6,0,B|112:192,1,140,8|0
96,304,172023,2,8,B|12:192|12:192|96:80,1,280
208,80,173213,2,0,B|280:80|328:16,1,140,0|8
351,130,174007,2,0,B|399:193|471:193,1,140,0|8
471,193,174800,6,0,B|399:193|351:255,1,140,0|8
328,367,175594,2,0,B|280:304|208:304,1,140,0|8
96,304,176388,1,0
168,216,176785,2,8,B|240:176|255:112|255:112|272:176|344:216,2,280
368,112,179165,1,8
448,192,179562,5,4
64,192,181150,1,2
448,328,182737,5,2
256,56,184324,1,2
64,328,185911,1,2
448,104,187499,6,0,B|392:192|392:192|448:280,2,210,2|0|0
512,192,189086,2,0,B|304:192,1,210,2|0
136,192,190277,1,0
72,280,190673,6,0,B|16:192|16:192|72:104,1,210,2|0
220,66,191864,2,0,B|292:66,1,70,2|0
