osu file format v6

[General]
AudioFilename: DJ Splash - Flying High.mp3
AudioLeadIn: 0
PreviewTime: -1
Countdown: 1
SampleSet: Normal
StackLeniency: 0.7
Mode: 0
LetterboxInBreaks: 1

[Editor]
DistanceSpacing: 0.800000011920929
BeatDivisor: 4
GridSize: 16

[Metadata]
Title:Flying high (speed)
Artist:DJ Splash
Creator:Inozuma
Version:Insane
Source:
Tags:

[Difficulty]
HPDrainRate:7
CircleSize:5
OverallDifficulty:8
SliderMultiplier:1.4
SliderTickRate:1

[Events]
//Background and Video events
0,0,"angel_anime.jpg"
//Break Periods
//Storyboard Layer 0 (Background)
//Storyboard Layer 1 (Fail)
//Storyboard Layer 2 (Pass)
//Storyboard Layer 3 (Foreground)
//Storyboard Sound Samples
//Background Colour Transformations
3,100,163,162,255

[TimingPoints]
2045,340.754202635166,4,1,0,100,1,0
2385,-100,4,2,0,100,0,0
7497,-100,4,1,0,50,0,0
8519,-100,4,2,0,80,0,0
8860,-100,4,1,0,50,0,0
9882,-100,4,2,0,100,0,0
10223,-100,4,1,0,60,0,0
11245,-100,4,2,0,100,0,0
11586,-100,4,1,0,60,0,0
12097,-100,4,2,0,100,0,0
25216,-100,4,1,0,70,0,0
35605,-100,4,2,0,100,0,0
36116,-100,4,1,0,70,0,0
45491,-100,4,2,0,100,0,0
45661,-100,4,1,0,100,0,0
46002,-100,4,2,0,100,0,0
46343,-200,4,2,0,100,0,0
47024,-100,4,1,0,100,0,0
47194,-100,4,2,0,60,0,0
52476,-100,4,1,0,40,0,0
55032,-100,4,1,0,50,0,0
55713,-100,4,1,0,60,0,0
57928,-100,4,1,0,100,0,0
63551,-100,4,1,0,50,0,0
64743,-100,4,1,0,100,0,0
64914,-100,4,1,0,50,0,0
66106,-100,4,1,0,100,0,0
69855,-100,4,1,0,70,0,0
70195,-100,4,1,0,70,0,1
80418,-100,4,1,0,80,0,0
81099,-100,4,1,0,70,0,1
101715,-100,4,2,0,100,0,0
102908,-100,4,1,0,40,0,0
108360,-200,4,2,0,60,0,0
113812,-100,4,2,0,100,0,0
123353,-100,4,1,0,40,0,0
124035,-100,4,1,0,60,0,0
124716,-100,4,1,0,80,0,0
134257,-100,4,2,0,80,0,0
134598,-100,4,2,0,60,0,0
134939,-100,4,2,0,40,0,0
135109,-100,4,1,0,60,0,0
135620,-100,4,1,0,100,0,1
144821,-100,4,1,0,100,0,0
146524,-100,4,1,0,100,0,1
168333,-100,4,1,0,0,0,0

[Colours]
Combo1 : 255,128,0
Combo2 : 128,255,128
Combo3 : 0,128,192
Combo4 : 128,0,0

[HitObjects]
96,96,2044,1,4
416,96,2726,1,2
256,192,3237,1,0
192,256,3408,2,2,B|256:309|320:256,2,140
128,320,4430,5,0
384,320,4771,1,2
112,64,5452,5,0
400,64,5793,1,0
256,320,6134,1,2
256,112,6474,1,0
176,224,6645,1,0
336,224,6815,1,2
256,112,7156,1,0
448,320,7497,5,0
416,320,7582,1,0
384,320,7667,1,0
320,320,7837,1,8
256,320,8008,1,0
192,320,8178,1,0
128,320,8348,1,0
64,320,8519,1,4
64,64,8860,5,0
96,64,8945,1,0
160,64,9115,1,0
192,64,9200,1,8
256,64,9371,1,0
320,64,9541,1,0
384,64,9711,1,0
448,64,9882,1,4
256,336,10223,5,0
256,336,10308,1,0
256,336,10393,1,0
352,320,10563,1,8
400,240,10734,1,0
400,144,10904,1,0
352,64,11074,1,0
256,48,11245,1,4
256,336,11586,5,0
256,336,11671,1,0
160,320,11841,1,0
160,320,11926,1,8
112,240,12097,1,0
112,144,12267,1,2
160,64,12438,1,2
256,48,12608,1,4
256,48,12778,1,0
352,64,12949,6,0,B|352:144,1,70,8|0
352,320,13289,2,0,B|352:240,1,70,2|0
240,144,13630,2,0,B|304:176,1,70,8|0
464,240,13971,2,0,B|400:208,1,70,2|0
160,64,14312,6,0,B|160:144,1,70,8|0
160,320,14652,2,0,B|160:240,1,70,2|0
272,144,14993,2,2,B|208:176,3,70,8|8|8|8
288,80,15675,6,0,B|336:96|352:144|336:192|288:208,1,140,0|8
272,240,16186,1,0
224,192,16356,1,0
176,240,16527,1,0
128,192,16697,1,8
176,144,16867,1,0
224,96,17038,5,4
288,288,17378,5,8
224,288,17719,5,2
288,96,18060,5,2
224,96,18401,5,4
64,192,18571,2,0,B|128:160,1,70,0|8
112,240,18912,2,2,B|176:208,3,70,0|2|0|8
160,288,19593,1,0
288,96,19764,5,4
448,192,19934,2,2,B|384:160,1,70,0|8
400,240,20275,2,2,B|336:208,3,70,0|2|0|8
352,288,20956,1,0
256,320,21127,5,2
256,256,21297,1,2
256,192,21467,1,8
256,128,21638,1,2
256,64,21808,5,2
256,320,21979,1,2
256,64,22149,1,8
256,320,22319,1,2
256,64,22490,5,4
256,80,22575,1,0
256,96,22660,1,0
256,112,22745,1,0
256,128,22831,1,4
256,144,22916,1,0
256,160,23001,1,0
256,176,23086,1,0
256,192,23171,1,4
256,208,23256,1,0
256,224,23342,1,0
256,240,23427,1,0
256,256,23512,1,4
256,320,23682,1,2
256,320,23853,1,0
256,208,23938,12,4,25216
256,48,25557,5,8
64,192,25897,1,0
256,320,26238,1,8
448,192,26579,1,0
384,192,26749,1,0
320,192,26920,1,8
256,192,27090,1,0
192,192,27260,2,0,L|160:192|139:224|160:256|192:256,1,140,0|8
256,256,27771,1,0
320,192,27942,2,0,L|352:192|373:224|352:256|320:256,1,140,0|8
256,192,28453,1,0
256,320,28623,2,0,L|336:320,1,70
256,320,28964,2,0,L|176:320,1,70,8|0
320,192,29305,5,0
192,192,29646,1,8
320,256,29816,1,0
320,128,29986,1,0
192,64,30157,1,0
320,192,30327,5,8
192,256,30497,1,0
192,128,30668,1,0
320,64,30838,1,0
256,240,31009,5,4
256,144,31349,1,0
192,224,31690,1,4
320,160,32031,1,0
128,208,32372,1,4
384,176,32712,1,0
64,192,33053,1,4
448,192,33394,1,0
64,192,33735,6,0,B|48:240|64:288|112:304|160:288,1,140,4|0
128,224,34246,2,0,B|192:192,1,70,8|0
384,224,34587,2,0,B|320:192,1,70,8|0
176,272,34927,2,0,B|240:240,1,70,8|0
336,272,35268,2,0,B|272:240,1,70,8|0
256,304,35609,1,2
256,240,35779,1,2
256,176,35950,1,2
256,112,36120,1,4
64,192,36461,5,8
256,304,36801,1,0
448,192,37142,1,8
256,80,37483,2,0,L|176:80,1,70,0|8
256,304,37824,2,0,L|336:304,1,70,0|8
320,80,38164,2,0,L|304:160,1,70,0|8
192,304,38505,2,0,L|208:224,1,70,0|8
160,144,38846,2,0,L|240:144,1,70,0|8
320,208,39187,2,0,L|288:144,1,70,0|8
192,208,39527,2,0,L|217:272,1,70,0|8
352,272,39868,6,0,L|282:272,2,70,0|8|0
160,272,40550,2,0,B|240:272,2,70,0|8|0
288,320,41061,2,0,B|352:352,1,70,8|0
224,320,41402,2,8,B|160:352,1,70,8|4
256,256,41742,2,8,B|256:176,2,70
256,320,42253,5,8
288,320,42339,1,0
320,320,42424,1,8
384,320,42594,2,8,B|432:304|448:256|432:208|384:192,1,140
368,256,43105,2,0,B|336:192,1,70,8|0
272,80,43446,2,0,B|304:144,1,70,8|0
256,256,43787,1,8
256,224,43872,1,0
256,192,43957,1,8
144,256,44128,2,0,B|176:192,1,70,8|0
240,80,44468,2,0,B|208:144,1,70,8|0
256,256,44809,5,8
256,224,44894,1,0
256,192,44980,1,8
256,64,45150,1,8
256,96,45235,1,0
256,128,45320,1,8
320,160,45491,5,0
192,160,45661,5,4
256,320,46002,5,2
256,320,46172,1,2
256,320,46343,2,0,B|256:176,1,140,2|4
192,288,47194,6,2,B|128:320,5,70
320,96,48387,6,2,B|384:64,7,70
384,128,49750,2,0,L|394:192|336:240,1,140
304,160,50261,1,0
224,128,50432,2,0,L|214:192|272:240,2,140,0|0|4
256,208,51454,12,4,52476
96,128,52646,5,0
96,192,52817,1,8
160,192,52987,1,0
176,192,53072,1,0
192,192,53158,1,0
256,192,53328,1,0
256,256,53498,1,8
416,64,53839,5,0
416,128,54010,1,0
416,192,54180,1,8
352,192,54350,1,0
336,192,54435,1,0
320,192,54521,1,0
256,192,54691,1,0
256,256,54861,1,8
256,320,55032,5,0
240,320,55117,1,0
224,320,55202,1,0
160,320,55373,1,0
96,320,55543,1,8
96,256,55713,5,0
112,256,55798,1,0
128,256,55884,1,0
192,256,56054,1,0
256,256,56224,1,8
208,192,56395,5,0
192,192,56480,1,0
176,192,56565,1,8
256,144,56736,1,0
256,128,56821,1,0
256,112,56906,1,8
304,192,57076,1,0
320,192,57161,1,0
336,192,57247,1,8
256,240,57417,1,0
256,256,57502,1,0
256,272,57587,1,8
256,288,57673,1,0
256,304,57758,1,8
256,320,57843,1,0
256,336,57928,1,4
448,192,58269,5,8
464,256,58439,1,0
448,320,58610,2,0,B|400:336|352:320|336:272|352:224,1,140,0|8
448,64,59291,2,0,B|400:48|352:64|336:112|352:160,1,140,0|8
416,128,59802,1,0
384,192,59973,2,0,B|432:208|480:192|496:144|480:96,1,140,0|8
416,128,60484,1,0
448,64,60654,6,0,B|400:48|352:64|336:112|352:160,3,140,0|8|0|8
352,192,61847,1,0
368,256,62017,2,0,B|384:304|368:352|320:368|272:352,1,140,0|8
304,288,62528,1,0
256,240,62699,1,0
208,288,62869,1,0
184,264,62954,1,0
160,240,63040,1,8
112,288,63210,1,0
64,240,63380,5,4
208,336,63721,1,0
208,144,64062,1,0
48,48,64403,1,0
448,48,64743,5,4
304,144,65084,1,0
304,336,65425,1,0
448,240,65766,1,0
64,144,66106,5,4
448,144,66788,1,4
80,224,67469,5,4
432,224,67810,1,4
96,304,68151,5,4
416,304,68492,1,0
416,304,68662,1,0
256,208,69173,12,0,69855
256,48,70195,5,8
192,64,70366,1,0
128,96,70536,1,8
96,160,70706,1,0
96,192,70792,1,0
96,224,70877,1,8
128,288,71047,1,0
192,320,71218,1,8
256,336,71388,1,0
320,320,71558,6,0,B|384:288,1,70,8|0
304,240,71899,2,0,B|368:208,2,70,8|0|8
208,240,72410,2,0,B|144:208,2,70,0|8|0
256,288,72921,5,8
384,64,73262,5,8
128,64,73603,5,8
256,288,73944,6,8,B|256:368,2,70
256,96,74625,2,8,B|256:16,2,70
256,160,75136,1,8
256,192,75221,1,8
256,224,75307,1,8
256,288,75477,1,0
256,352,75647,5,8
320,320,75818,1,0
384,288,75988,1,8
448,256,76159,1,0
448,224,76244,1,0
448,192,76329,1,8
448,160,76414,1,0
448,128,76499,1,0
384,96,76670,1,8
320,64,76840,1,0
256,32,77010,5,8
192,64,77181,1,0
256,96,77351,2,0,B|192:128,2,70,8|8|8
320,128,77862,1,0
256,160,78033,1,8
256,192,78118,1,0
256,224,78203,1,0
256,288,78373,5,8
416,64,78714,5,8
96,64,79055,5,8
256,288,79396,5,8
416,64,79566,1,0
96,64,79736,1,8
96,64,80077,5,8
416,64,80248,1,0
256,288,80418,1,8
256,96,80588,1,8
336,192,80759,1,8
176,192,80929,1,8
256,288,81099,5,12
320,304,81270,1,0
384,288,81440,1,8
384,224,81611,1,0
384,192,81696,1,0
384,160,81781,1,8
384,96,81951,5,0
320,80,82122,1,8
256,96,82292,1,0
192,80,82462,2,0,L|160:80|139:112|160:144|192:144,1,140,8|8
256,160,82974,1,0
320,144,83144,2,0,L|352:144|373:176|352:208|320:208,1,140,8|8
256,224,83655,2,0,B|192:256,1,70,0|8
256,224,83996,2,0,B|320:256,1,70,0|8
256,288,84337,2,0,B|192:320,2,70,0|8|0
256,352,84848,2,0,B|318:320,2,70,8|0|8
256,352,85359,1,0
256,288,85529,5,8
256,224,85700,1,8
256,160,85870,1,8
304,112,86040,1,8
336,112,86126,1,8
368,112,86211,1,8
208,112,86381,1,8
176,112,86466,1,8
144,112,86552,1,8
224,192,86722,6,0,B|160:224,1,70,0|8
288,192,87063,2,0,B|352:224,1,70,0|8
256,240,87403,2,4,B|256:320,3,70,0|8|0|8
256,144,88085,2,0,B|256:64,1,70,0|8
304,192,88426,2,0,B|384:192,1,70,0|12
208,192,88766,2,0,B|128:192,1,70,0|8
304,192,89107,2,0,B|384:192,1,70,0|8
208,192,89448,2,0,B|128:192,2,70,0|8|0
304,192,89959,6,8,B|320:144|304:96|256:80|208:96,1,140
240,160,90470,1,0
176,128,90641,2,8,B|160:176|176:224|224:240|272:224,1,140
240,160,91152,2,0,B|304:128,1,70,0|8
304,64,91492,2,0,B|368:96,1,70,0|8
368,160,91833,2,0,B|432:128,1,70,0|8
432,64,92174,2,0,B|496:96,2,70,0|8|0
368,64,92685,6,8,B|320:48|272:64|256:112|272:160,1,140
144,320,93367,2,8,B|192:336|240:320|256:272|240:224,1,140,8|8
176,256,93878,1,0
112,240,94048,1,8
64,192,94219,1,0
48,128,94389,1,8
64,64,94559,1,0
112,112,94730,2,0,B|192:112,1,70,8|0
400,112,95070,2,0,B|320:112,1,70,8|0
160,192,95411,6,0,B|224:160,1,70,8|0
352,192,95752,2,0,B|288:160,2,70,8|0|8
256,224,96263,2,0,B|256:304,1,70,0|8
320,304,96604,1,8
384,288,96774,1,8
432,240,96945,1,8
440,208,97030,1,8
448,176,97115,1,8
432,112,97285,1,0
384,64,97456,2,0,B|320:96,1,70,8|0
320,160,97796,1,8
288,144,97882,1,0
256,128,97967,1,0
256,64,98137,6,0,B|192:96,1,70,8|0
192,160,98478,1,8
160,144,98563,1,0
128,128,98648,1,0
64,96,98819,2,8,B|48:144|64:192|112:208|160:192,1,140
128,128,99330,1,0
192,160,99500,2,8,B|208:112|192:64|144:48|96:64,1,140
128,128,100011,1,0
64,96,100182,2,8,B|48:144|64:192|112:208|160:192,1,140
448,288,100863,6,8,B|464:240|448:192|400:176|352:192,1,140
384,256,101374,1,0
128,256,101545,1,8
128,256,101885,5,0
384,256,102056,1,0
256,96,102226,1,2
256,288,102397,1,2
336,176,102567,1,2
176,176,102737,1,2
256,288,102908,5,2
320,256,103078,1,0
336,320,103248,1,2
400,288,103419,1,0
464,256,103589,2,0,B|496:192,1,70,2|0
432,192,103930,2,0,B|400:128,2,70,2|0|2
48,256,104612,6,0,B|16:192,1,70,2|0
80,192,104952,2,0,B|112:128,2,70,2|0|2
224,336,105634,6,0,B|256:272,1,70,2|0
320,304,105975,2,2,B|336:256|320:208|272:192|224:208,1,140
192,208,106486,2,0,B|128:176,1,70,0|2
208,144,106826,2,0,B|144:112,1,70,0|2
224,80,107167,2,0,B|160:48,1,70,0|2
304,112,107593,5,0
288,144,107678,1,0
304,176,107763,1,0
288,208,107849,1,0
304,240,107934,1,0
288,272,108019,1,0
304,304,108104,1,0
304,304,108275,1,0
304,304,108360,5,2
368,320,108530,1,0
432,304,108701,1,4
208,80,109041,5,2
144,64,109212,1,0
80,80,109382,1,4
48,144,109552,1,0
80,208,109723,1,2
144,224,109893,1,0
208,208,110064,1,4
304,304,110404,5,2
368,320,110575,1,0
432,304,110745,1,4
464,240,110915,1,0
432,176,111086,1,2
368,160,111256,1,0
304,176,111427,1,4
256,224,111597,1,0
192,240,111767,1,2
128,224,111938,1,0
80,176,112108,1,4
64,112,112278,1,0
80,48,112449,1,2
256,48,112790,6,0,B|256:128,1,70,4|2
256,320,113471,5,0
256,192,113642,1,0
256,48,113812,5,8
224,64,113982,1,2
224,96,114153,1,0
192,112,114323,1,2
192,144,114493,1,8
160,160,114664,1,2
160,192,114834,1,0
128,208,115005,1,2
256,192,115175,5,4
256,192,115345,1,2
320,192,115516,1,0
320,192,115686,1,2
384,192,115856,1,0
384,192,116027,1,2
448,192,116197,1,0
448,192,116368,1,2
256,336,116538,5,8
288,320,116708,1,2
288,288,116879,1,0
320,272,117049,1,2
320,240,117219,1,8
352,224,117390,1,2
352,192,117560,1,0
384,176,117731,1,2
256,192,117901,5,4
256,192,118071,1,2
192,192,118242,1,0
192,192,118412,1,2
128,192,118582,1,0
128,192,118753,1,2
64,192,118923,1,0
64,192,119094,1,2
96,112,119264,5,4
96,112,119434,1,2
416,48,119605,1,0
416,48,119775,1,2
96,48,119945,1,4
96,48,120116,1,2
416,112,120286,1,0
416,112,120457,1,2
96,272,120627,5,8
96,272,120797,1,2
416,336,120968,1,0
416,336,121138,1,2
96,336,121308,1,8
96,336,121479,1,2
416,272,121649,1,0
416,272,121820,1,2
160,64,121990,5,4
160,64,122160,1,2
352,320,122331,1,0
352,320,122501,1,2
160,320,122671,1,4
160,320,122842,1,2
352,64,123012,1,0
352,64,123183,1,2
256,192,123353,6,0,B|256:224,32,17.5,0|0|0|0|0|0|0|0|0|0|0|0|0|0|0|0|0|0|0|0|0|0|0|0|0|0|0|0|0|0|0|0|0
224,128,124886,5,0
160,112,125057,1,0
96,128,125227,1,0
64,192,125398,1,0
96,256,125568,1,0
160,272,125738,1,0
224,256,125909,1,0
256,192,126079,5,0
288,128,126249,1,0
352,112,126420,1,0
416,128,126590,1,0
448,192,126761,1,0
416,256,126931,1,0
352,272,127101,1,0
288,256,127272,1,0
256,192,127442,2,8,B|176:192,2,70
256,192,127953,1,8
256,192,128124,5,8
256,64,128464,5,0
256,320,128805,5,4
256,64,129146,5,0
256,320,129487,5,0
256,320,129572,1,0
256,320,129657,1,0
256,256,129827,1,0
256,256,129998,1,0
224,192,130168,6,0,B|176:192|160:224,2,70,8|0|4
256,128,130679,1,0
288,192,130850,2,0,B|336:192|352:160,2,70,8|0|4
256,128,131361,1,0
256,320,131531,5,8
192,304,131701,1,0
144,256,131872,1,4
128,192,132042,1,0
256,256,132213,1,8
320,240,132383,1,0
368,192,132553,1,4
384,128,132724,1,0
256,192,132894,5,8
256,160,132979,1,8
256,128,133064,1,8
192,160,133235,1,4
320,224,133405,1,0
192,224,133576,1,0
320,160,133746,1,0
192,288,133916,1,4
320,96,134087,1,0
432,192,134257,6,2,B|480:192,2,35
352,272,134598,6,2,B|384:288,2,35
256,320,134939,6,2,B|272:352,2,35,2|2|8
64,64,135279,5,8
448,64,135450,1,8
256,320,135620,1,4
192,336,135791,5,0
128,320,135961,1,8
80,272,136131,1,0
80,240,136216,1,0
80,208,136302,1,0
128,160,136472,1,0
192,144,136642,1,8
256,160,136813,1,0
256,64,136983,5,4
320,48,137154,1,0
384,64,137324,1,8
432,112,137494,1,0
432,144,137579,1,0
432,176,137665,1,0
384,224,137835,1,0
320,240,138005,1,8
256,224,138176,1,0
256,320,138346,5,4
416,64,138687,5,8
96,64,139028,5,8
416,288,139368,5,8
96,288,139539,1,0
256,96,139709,1,8
256,96,140050,5,8
96,288,140220,1,8
416,288,140391,1,8
256,96,140561,1,8
256,112,140646,1,8
256,128,140731,1,8
256,192,140902,1,0
256,320,141072,5,4
192,320,141243,1,0
192,256,141413,1,8
256,256,141583,1,0
256,192,141754,1,0
192,192,141924,1,0
192,128,142094,1,8
192,128,142265,1,0
256,128,142435,6,0,L|304:128|320:160|384:160,1,140,4|8
256,192,142946,1,0
256,256,143117,2,8,L|208:256|192:224|128:224,1,140,0|8
256,192,143628,1,0
304,144,143798,2,0,L|339:159|339:224|304:240,1,140,4|8
256,192,144309,1,0
208,144,144480,2,0,L|173:159|173:224|208:240,1,140,0|8
256,288,144991,5,0
256,96,145161,5,0
448,192,145502,5,8
64,192,145672,1,0
256,320,145843,1,8
256,128,146013,1,8
160,256,146184,1,8
352,256,146354,1,8
256,128,146524,5,12
256,64,146695,1,0
192,64,146865,1,8
128,64,147035,1,0
128,96,147121,1,0
128,128,147206,1,8
128,192,147376,1,0
128,256,147547,1,8
128,320,147717,1,0
192,320,147887,6,0,L|192:272,2,35,8|0|0
256,320,148228,1,8
320,320,148398,1,0
384,320,148569,2,0,B|384:176,1,140,8|8
384,180,149080,1,0
128,64,149250,2,0,B|128:208,1,140,8|8
128,204,149761,1,0
384,320,149932,2,0,L|384:176,1,140,8|8
384,112,150443,1,0
320,144,150613,2,0,L|256:173|192:144,1,140,8|8
256,96,151124,5,0
256,96,151210,1,0
256,96,151295,1,8
256,288,151465,5,0
256,288,151550,1,0
256,288,151636,1,8
256,192,151806,5,0
256,192,151976,6,0,L|160:192,1,70,4|0
256,192,152317,2,0,L|352:192,1,70,8|0
384,192,152658,1,0
384,224,152743,1,0
384,256,152828,1,0
320,256,152999,1,8
256,256,153169,1,0
256,192,153339,1,4
256,192,153425,1,0
256,192,153510,1,0
256,128,153680,1,8
192,128,153850,1,0
128,128,154021,1,0
128,160,154106,1,0
128,192,154191,1,0
128,256,154362,5,8
256,256,154532,1,0
384,256,154702,5,8
256,256,154873,1,0
128,256,155043,5,8
256,256,155214,1,0
256,128,155384,5,8
256,256,155554,1,0
384,256,155725,5,8
128,256,155895,1,0
256,128,156065,1,8
256,128,156151,1,0
256,128,156236,1,8
256,128,156406,5,8
384,256,156577,1,0
128,256,156747,1,8
320,192,156917,1,8
192,192,157088,1,8
256,128,157258,1,8
256,128,157428,6,0,L|256:208,1,70,8|0
256,272,157769,1,8
256,272,157854,1,0
256,272,157940,1,0
320,256,158110,2,8,L|349:192|320:128,1,140
256,112,158621,1,0
191,128,158791,2,8,L|163:192|192:256,1,140
256,272,159303,1,0
256,272,159473,2,0,L|224:208,1,70,8|0
256,112,159814,2,0,L|288:176,2,70,8|0|8
256,48,160325,6,0,L|176:48,1,70,0|8
256,336,160666,2,0,L|336:336,1,70,0|8
64,192,161006,2,0,L|64:272,2,70,0|8|0
448,192,161517,2,0,L|448:112,2,70,8|0|8
448,256,162029,5,0
384,256,162199,1,8
352,256,162284,1,0
320,256,162369,1,8
128,256,162540,1,8
160,256,162625,1,8
192,256,162710,1,8
256,332,162880,2,0,L|256:192,1,140,4|8
256,192,163392,1,0
320,144,163562,6,0,L|256:115|192:144,1,140,8|8
256,192,164073,1,0
256,256,164244,1,4
256,288,164329,1,0
256,320,164414,1,0
256,192,164584,1,8
256,192,164755,1,0
256,128,164925,1,8
256,96,165010,1,0
256,64,165095,1,0
256,192,165266,1,8
256,192,165436,1,0
192,160,165607,6,0,L|128:128,1,70,8|0
320,224,165947,2,0,L|384:256,1,70,8|0
320,160,166288,2,0,L|384:128,1,70,8|0
192,224,166629,2,8,L|128:256,2,70
192,224,167310,5,8
320,160,167481,1,0
192,160,167651,1,8
320,224,167821,1,0
256,112,167992,1,0
256,272,168162,1,0
256,112,168333,5,0
