osu file format v12

[General]
AudioFilename: Dj Splash - Flying High.mp3
AudioLeadIn: 0
PreviewTime: -1
Countdown: 1
SampleSet: Normal
StackLeniency: 1
Mode: 0
LetterboxInBreaks: 1

[Editor]
Bookmarks: -19,2196,4192,5386,7688,9307,10841,13057,13824,14591,15699,16381,18171,19023,20983,21622,22560,25074,28568,30870,33938,57716,68796
DistanceSpacing: 0.7
BeatDivisor: 4
GridSize: 16

[Metadata]
Title:Flying High
TitleUnicode:Flying High
Artist:DJ Splash
ArtistUnicode:DJ Splash
Creator:Xiipher
Version:Insane
Source:
Tags:
BeatmapID:264592
BeatmapSetID:99486

[Difficulty]
HPDrainRate:7
CircleSize:4
OverallDifficulty:6
ApproachRate:8
SliderMultiplier:1.7
SliderTickRate:4

[Events]
//Background and Video events
0,0,"000.jpg",0,0
//Break Periods
//Storyboard Layer 0 (Background)
//Storyboard Layer 1 (Fail)
//Storyboard Layer 2 (Pass)
//Storyboard Layer 3 (Foreground)
//Storyboard Sound Samples
//Background Colour Transformations
3,100,163,162,255

[TimingPoints]
870,340.909090909091,4,1,0,80,1,0

[Colours]
Combo1 : 255,128,64
Combo2 : 0,255,255
Combo3 : 170,170,255
Combo4 : 255,128,255

[HitObjects]
256,192,870,12,0,2233,0:0:0:0:
416,304,2915,6,0,B|336:272|336:272|336:176,1,170,0|0,0:0|0:0,0:0:0:0:
256,192,3426,1,2,0:0:0:0:
96,304,3597,2,0,B|176:272|176:272|176:176,1,170,0|4,0:0|0:0,0:0:0:0:
208,48,4279,6,0,L|328:48,1,85
288,128,4620,2,0,L|176:128,1,85
160,208,4960,2,0,L|344:208,1,170,0|4,0:0|0:0,0:0:0:0:
400,64,5642,6,0,B|352:64|352:64|320:112,1,85,0|0,0:0|0:0,0:0:0:0:
256,176,5983,1,4,0:0:0:0:
256,176,6154,1,4,0:0:0:0:
112,288,6324,2,0,B|160:288|160:288|192:240,1,85
256,176,6665,1,4,0:0:0:0:
256,176,6836,1,4,0:0:0:0:
368,240,7006,6,0,L|368:144,1,85
144,240,7347,2,0,L|144:128,1,85
256,240,7688,1,4,0:0:0:0:
96,176,8370,6,0,B|128:96|128:96|224:96,1,170
256,192,8881,1,0,0:0:0:0:
416,176,9052,2,0,B|384:96|384:96|288:96,1,170,0|4,0:0|0:0,0:0:0:0:
208,256,9734,6,0,L|328:256,1,85,0|4,0:0|0:0,0:0:0:0:
304,96,10075,2,0,L|192:96,1,85,0|4,0:0|0:0,0:0:0:0:
160,176,10415,2,0,L|344:176,1,170,0|4,0:0|0:0,0:0:0:0:
112,304,11097,6,0,B|160:304|160:304|192:256,1,85,0|0,0:0|0:0,0:0:0:0:
256,208,11438,1,4,0:0:0:0:
256,208,11608,1,4,0:0:0:0:
400,304,11779,2,0,B|352:304|352:304|320:256,1,85
256,208,12120,1,4,0:0:0:0:
256,208,12290,1,4,0:0:0:0:
384,128,12461,6,0,L|288:128,1,85
128,272,12802,2,0,L|224:272,1,85
160,80,13142,6,0,B|112:80|112:80|80:112,1,85
80,192,13483,1,4,0:0:0:0:
160,192,13654,1,4,0:0:0:0:
240,192,13824,2,0,B|288:192|288:192|320:224,1,85
320,288,14165,1,4,0:0:0:0:
240,288,14335,1,4,0:0:0:0:
272,144,14506,6,0,B|320:144|320:144|352:208,1,85,0|0,0:0|0:0,0:0:0:0:
240,288,14847,2,0,B|192:288|192:288|160:224,1,85,0|0,0:0|0:0,0:0:0:0:
128,176,15188,5,4,0:0:0:0:
224,176,15358,1,4,0:0:0:0:
320,176,15529,1,4,0:0:0:0:
416,176,15699,1,4,0:0:0:0:
336,96,15870,6,0,B|240:96|240:96|144:96,1,170
256,192,16381,1,0,0:0:0:0:
176,288,16551,2,0,B|272:288|272:288|384:288,1,170
256,192,17233,1,0,0:0:0:0:
128,96,17489,5,0,0:0:0:0:
128,96,17574,1,0,0:0:0:0:
208,96,17915,2,4,L|320:96,3,85,0|0|0|0,0:0|0:0|0:0|0:0,0:0:0:0:
96,256,18597,6,0,L|192:288,1,85,0|0,0:0|0:0,0:0:0:0:
256,288,18938,1,0,0:0:0:0:
336,288,19108,1,0,0:0:0:0:
416,176,19279,6,0,L|320:176,1,85
256,176,19620,1,0,0:0:0:0:
176,176,19790,1,0,0:0:0:0:
160,96,19960,6,0,L|272:96,1,85
320,96,20301,1,0,0:0:0:0:
400,96,20472,1,0,0:0:0:0:
400,192,20642,6,0,L|400:288,1,85
288,272,20983,2,0,L|288:160,1,85
288,112,21324,1,0,0:0:0:0:
112,176,21665,6,0,L|208:176,1,85
272,176,22006,2,0,L|384:176,1,85
112,256,22347,2,0,L|224:256,1,85
272,256,22688,1,0,0:0:0:0:
272,96,23029,2,0,L|304:96,23,21.25,0|0|0|0|0|0|0|0|0|0|0|0|0|0|0|0|0|0|0|0|0|0|0|0,0:0|0:0|0:0|0:0|0:0|0:0|0:0|0:0|0:0|0:0|0:0|0:0|0:0|0:0|0:0|0:0|0:0|0:0|0:0|0:0|0:0|0:0|0:0|0:0,0:0:0:0:
256,192,24051,12,0,25415,0:0:0:0:
416,304,26097,6,0,B|336:272|336:272|336:176,1,170,0|0,0:0|0:0,0:0:0:0:
256,192,26608,1,2,0:0:0:0:
96,304,26779,2,0,B|176:272|176:272|176:176,1,170,0|4,0:0|0:0,0:0:0:0:
208,48,27461,6,0,L|328:48,1,85
288,128,27802,2,0,L|176:128,1,85
160,208,28142,2,0,L|344:208,1,170,0|4,0:0|0:0,0:0:0:0:
400,64,28824,6,0,B|352:64|352:64|320:112,1,85,0|0,0:0|0:0,0:0:0:0:
256,176,29165,1,4,0:0:0:0:
256,176,29336,1,4,0:0:0:0:
112,288,29506,2,0,B|160:288|160:288|192:240,1,85
256,176,29847,1,4,0:0:0:0:
256,176,30018,1,4,0:0:0:0:
368,240,30188,6,0,L|368:144,1,85
144,240,30529,2,0,L|144:128,1,85
256,240,30870,1,4,0:0:0:0:
96,176,31552,6,0,B|128:96|128:96|224:96,1,170
256,192,32063,1,0,0:0:0:0:
416,176,32234,2,0,B|384:96|384:96|288:96,1,170,0|4,0:0|0:0,0:0:0:0:
208,256,32916,6,0,L|328:256,1,85,0|4,0:0|0:0,0:0:0:0:
304,96,33257,2,0,L|192:96,1,85,0|4,0:0|0:0,0:0:0:0:
160,176,33597,2,0,L|344:176,1,170,0|4,0:0|0:0,0:0:0:0:
112,304,34279,6,0,B|160:304|160:304|192:256,1,85,0|0,0:0|0:0,0:0:0:0:
256,208,34620,1,4,0:0:0:0:
256,208,34790,1,4,0:0:0:0:
400,304,34961,2,0,B|352:304|352:304|320:256,1,85
256,208,35302,1,4,0:0:0:0:
256,208,35472,1,4,0:0:0:0:
384,128,35643,6,0,L|288:128,1,85
128,272,35984,2,0,L|224:272,1,85
160,80,36324,6,0,B|112:80|112:80|80:112,1,85
80,192,36665,1,4,0:0:0:0:
160,192,36836,1,4,0:0:0:0:
240,192,37006,2,0,B|288:192|288:192|320:224,1,85
320,288,37347,1,4,0:0:0:0:
240,288,37517,1,4,0:0:0:0:
272,144,37688,6,0,B|320:144|320:144|352:208,1,85,0|0,0:0|0:0,0:0:0:0:
240,288,38029,2,0,B|192:288|192:288|160:224,1,85,0|0,0:0|0:0,0:0:0:0:
128,176,38370,5,4,0:0:0:0:
224,176,38540,1,4,0:0:0:0:
320,176,38711,1,4,0:0:0:0:
416,176,38881,1,4,0:0:0:0:
336,96,39052,6,0,B|240:96|240:96|144:96,1,170
256,192,39563,1,0,0:0:0:0:
176,288,39733,2,0,B|272:288|272:288|384:288,1,170
256,192,40415,1,0,0:0:0:0:
128,96,40671,5,0,0:0:0:0:
128,96,40756,1,0,0:0:0:0:
208,96,41097,2,4,L|320:96,3,85,0|0|0|0,0:0|0:0|0:0|0:0,0:0:0:0:
96,256,41779,6,0,L|192:288,1,85,0|0,0:0|0:0,0:0:0:0:
256,288,42120,1,0,0:0:0:0:
336,288,42290,1,0,0:0:0:0:
416,176,42461,6,0,L|320:176,1,85
256,176,42802,1,0,0:0:0:0:
176,176,42972,1,0,0:0:0:0:
160,96,43142,6,0,L|272:96,1,85
320,96,43483,1,0,0:0:0:0:
400,96,43654,1,0,0:0:0:0:
400,192,43824,6,0,L|400:288,1,85
288,272,44165,2,0,L|288:160,1,85
288,112,44506,1,0,0:0:0:0:
112,176,44847,6,0,L|208:176,1,85
272,176,45188,2,0,L|384:176,1,85
112,256,45529,2,0,L|224:256,1,85
272,256,45870,1,0,0:0:0:0:
272,96,46211,2,0,L|304:96,20,21.25
160,80,47233,6,0,B|112:80|112:80|80:112,1,85
80,192,47574,1,4,0:0:0:0:
160,192,47745,1,4,0:0:0:0:
240,192,47915,2,0,B|288:192|288:192|320:224,1,85
320,288,48256,1,4,0:0:0:0:
240,288,48426,1,4,0:0:0:0:
272,144,48597,6,0,B|320:144|320:144|352:208,1,85,0|0,0:0|0:0,0:0:0:0:
240,288,48938,2,0,B|192:288|192:288|160:224,1,85,0|0,0:0|0:0,0:0:0:0:
128,176,49279,5,4,0:0:0:0:
224,176,49449,1,4,0:0:0:0:
320,176,49620,1,4,0:0:0:0:
416,176,49790,1,4,0:0:0:0:
336,96,49961,6,0,B|240:96|240:96|144:96,1,170
256,192,50472,1,0,0:0:0:0:
176,288,50642,2,0,B|272:288|272:288|384:288,1,170
256,192,51324,1,0,0:0:0:0:
128,96,51580,5,0,0:0:0:0:
128,96,51665,1,0,0:0:0:0:
208,96,52006,2,4,L|320:96,3,85,0|0|0|0,0:0|0:0|0:0|0:0,0:0:0:0:
96,256,52688,6,0,L|192:288,1,85,0|0,0:0|0:0,0:0:0:0:
256,288,53029,1,0,0:0:0:0:
336,288,53199,1,0,0:0:0:0:
416,176,53370,6,0,L|320:176,1,85
256,176,53711,1,0,0:0:0:0:
176,176,53881,1,0,0:0:0:0:
160,96,54051,6,0,L|272:96,1,85
320,96,54392,1,0,0:0:0:0:
400,96,54563,1,0,0:0:0:0:
400,192,54733,6,0,L|400:288,1,85
288,272,55074,2,0,L|288:160,1,85
288,112,55415,1,0,0:0:0:0:
112,176,55756,6,0,L|208:176,1,85
272,176,56097,2,0,L|384:176,1,85
112,256,56438,2,0,L|224:256,1,85
272,256,56779,1,0,0:0:0:0:
272,96,57120,2,0,L|304:96,20,21.25
160,80,58142,6,0,B|112:80|112:80|80:112,1,85
80,192,58483,1,4,0:0:0:0:
160,192,58654,1,4,0:0:0:0:
240,192,58824,2,0,B|288:192|288:192|320:224,1,85
320,288,59165,1,4,0:0:0:0:
240,288,59335,1,4,0:0:0:0:
272,144,59506,6,0,B|320:144|320:144|352:208,1,85,0|0,0:0|0:0,0:0:0:0:
240,288,59847,2,0,B|192:288|192:288|160:224,1,85,0|0,0:0|0:0,0:0:0:0:
128,176,60188,5,4,0:0:0:0:
224,176,60358,1,4,0:0:0:0:
320,176,60529,1,4,0:0:0:0:
416,176,60699,1,4,0:0:0:0:
336,96,60870,6,0,B|240:96|240:96|144:96,1,170
256,192,61381,1,0,0:0:0:0:
176,288,61551,2,0,B|272:288|272:288|384:288,1,170
256,192,62233,1,0,0:0:0:0:
128,96,62489,5,0,0:0:0:0:
128,96,62574,1,0,0:0:0:0:
208,96,62915,2,4,L|320:96,3,85,0|0|0|0,0:0|0:0|0:0|0:0,0:0:0:0:
96,256,63597,6,0,L|192:288,1,85,0|0,0:0|0:0,0:0:0:0:
256,288,63938,1,0,0:0:0:0:
336,288,64108,1,0,0:0:0:0:
416,176,64279,6,0,L|320:176,1,85
256,176,64620,1,0,0:0:0:0:
176,176,64790,1,0,0:0:0:0:
160,96,64960,6,0,L|272:96,1,85
320,96,65301,1,0,0:0:0:0:
400,96,65472,1,0,0:0:0:0:
400,192,65642,6,0,L|400:288,1,85
288,272,65983,2,0,L|288:160,1,85
288,112,66324,1,0,0:0:0:0:
112,176,66665,6,0,L|208:176,1,85
272,176,67006,2,0,L|384:176,1,85
112,256,67347,2,0,L|224:256,1,85
272,256,67688,1,0,0:0:0:0:
272,96,68029,2,0,L|304:96,23,21.25,0|0|0|0|0|0|0|0|0|0|0|0|0|0|0|0|0|0|0|0|0|0|0|0,0:0|0:0|0:0|0:0|0:0|0:0|0:0|0:0|0:0|0:0|0:0|0:0|0:0|0:0|0:0|0:0|0:0|0:0|0:0|0:0|0:0|0:0|0:0|0:0,0:0:0:0:
256,192,69051,12,0,70074,0:0:0:0:
160,80,70415,6,0,B|112:80|112:80|80:112,1,85
80,192,70756,1,4,0:0:0:0:
160,192,70927,1,4,0:0:0:0:
240,192,71097,2,0,B|288:192|288:192|320:224,1,85
320,288,71438,1,4,0:0:0:0:
240,288,71608,1,4,0:0:0:0:
272,144,71779,6,0,B|320:144|320:144|352:208,1,85,0|0,0:0|0:0,0:0:0:0:
240,288,72120,2,0,B|192:288|192:288|160:224,1,85,0|0,0:0|0:0,0:0:0:0:
128,176,72461,5,4,0:0:0:0:
224,176,72631,1,4,0:0:0:0:
320,176,72802,1,4,0:0:0:0:
416,176,72972,1,4,0:0:0:0:
336,96,73143,6,0,B|240:96|240:96|144:96,1,170
256,192,73654,1,0,0:0:0:0:
176,288,73824,2,0,B|272:288|272:288|384:288,1,170
256,192,74506,1,0,0:0:0:0:
128,96,74762,5,0,0:0:0:0:
128,96,74847,1,0,0:0:0:0:
208,96,75188,2,4,L|320:96,3,85,0|0|0|0,0:0|0:0|0:0|0:0,0:0:0:0:
96,256,75870,6,0,L|192:288,1,85,0|0,0:0|0:0,0:0:0:0:
256,288,76211,1,0,0:0:0:0:
336,288,76381,1,0,0:0:0:0:
416,176,76552,6,0,L|320:176,1,85
256,176,76893,1,0,0:0:0:0:
176,176,77063,1,0,0:0:0:0:
160,96,77233,6,0,L|272:96,1,85
320,96,77574,1,0,0:0:0:0:
400,96,77745,1,0,0:0:0:0:
400,192,77915,6,0,L|400:288,1,85
288,272,78256,2,0,L|288:160,1,85
288,112,78597,1,0,0:0:0:0:
112,176,78938,6,0,L|208:176,1,85
272,176,79279,2,0,L|384:176,1,85
112,256,79620,2,0,L|224:256,1,85
272,256,79961,1,0,0:0:0:0:
272,96,80302,2,0,L|304:96,20,21.25
416,304,81324,6,0,B|336:272|336:272|336:176,1,170,0|0,0:0|0:0,0:0:0:0:
256,192,81835,1,2,0:0:0:0:
96,304,82006,2,0,B|176:272|176:272|176:176,1,170,0|4,0:0|0:0,0:0:0:0:
208,48,82688,6,0,L|328:48,1,85
288,128,83029,2,0,L|176:128,1,85
160,208,83369,2,0,L|344:208,1,170,0|4,0:0|0:0,0:0:0:0:
400,64,84051,6,0,B|352:64|352:64|320:112,1,85,0|0,0:0|0:0,0:0:0:0:
256,176,84392,1,4,0:0:0:0:
256,176,84563,1,4,0:0:0:0:
112,288,84733,2,0,B|160:288|160:288|192:240,1,85
256,176,85074,1,4,0:0:0:0:
256,176,85245,1,4,0:0:0:0:
368,240,85415,6,0,L|368:144,1,85
144,240,85756,2,0,L|144:128,1,85
256,240,86097,1,4,0:0:0:0:
96,176,86779,6,0,B|128:96|128:96|224:96,1,170
256,192,87290,1,0,0:0:0:0:
416,176,87461,2,0,B|384:96|384:96|288:96,1,170,0|4,0:0|0:0,0:0:0:0:
208,256,88143,6,0,L|328:256,1,85,0|4,0:0|0:0,0:0:0:0:
304,96,88484,2,0,L|192:96,1,85,0|4,0:0|0:0,0:0:0:0:
160,176,88824,2,0,L|344:176,1,170,0|4,0:0|0:0,0:0:0:0:
112,304,89506,6,0,B|160:304|160:304|192:256,1,85,0|0,0:0|0:0,0:0:0:0:
256,208,89847,1,4,0:0:0:0:
256,208,90017,1,4,0:0:0:0:
400,304,90188,2,0,B|352:304|352:304|320:256,1,85
256,208,90529,1,4,0:0:0:0:
256,208,90699,1,4,0:0:0:0:
384,128,90870,6,0,L|288:128,1,85
128,272,91211,2,0,L|224:272,1,85
160,80,91551,6,0,B|112:80|112:80|80:112,1,85
80,192,91892,1,4,0:0:0:0:
160,192,92063,1,4,0:0:0:0:
240,192,92233,2,0,B|288:192|288:192|320:224,1,85
320,288,92574,1,4,0:0:0:0:
240,288,92744,1,4,0:0:0:0:
272,144,92915,6,0,B|320:144|320:144|352:208,1,85,0|0,0:0|0:0,0:0:0:0:
240,288,93256,2,0,B|192:288|192:288|160:224,1,85,0|0,0:0|0:0,0:0:0:0:
128,176,93597,5,4,0:0:0:0:
224,176,93767,1,4,0:0:0:0:
320,176,93938,1,4,0:0:0:0:
416,176,94108,1,4,0:0:0:0:
336,96,94279,6,0,B|240:96|240:96|144:96,1,170
256,192,94790,1,0,0:0:0:0:
176,288,94960,2,0,B|272:288|272:288|384:288,1,170
256,192,95642,1,0,0:0:0:0:
128,96,95898,5,0,0:0:0:0:
128,96,95983,1,0,0:0:0:0:
208,96,96324,2,4,L|320:96,3,85,0|0|0|0,0:0|0:0|0:0|0:0,0:0:0:0:
96,256,97006,6,0,L|192:288,1,85,0|0,0:0|0:0,0:0:0:0:
256,288,97347,1,0,0:0:0:0:
336,288,97517,1,0,0:0:0:0:
416,176,97688,6,0,L|320:176,1,85
256,176,98029,1,0,0:0:0:0:
176,176,98199,1,0,0:0:0:0:
160,96,98369,6,0,L|272:96,1,85
320,96,98710,1,0,0:0:0:0:
400,96,98881,1,0,0:0:0:0:
400,192,99051,6,0,L|400:288,1,85
288,272,99392,2,0,L|288:160,1,85
288,112,99733,1,0,0:0:0:0:
112,176,100074,6,0,L|208:176,1,85
272,176,100415,2,0,L|384:176,1,85
112,256,100756,2,0,L|224:256,1,85
272,256,101097,1,0,0:0:0:0:
272,96,101438,2,0,L|304:96,23,21.25,0|0|0|0|0|0|0|0|0|0|0|0|0|0|0|0|0|0|0|0|0|0|0|0,0:0|0:0|0:0|0:0|0:0|0:0|0:0|0:0|0:0|0:0|0:0|0:0|0:0|0:0|0:0|0:0|0:0|0:0|0:0|0:0|0:0|0:0|0:0|0:0,0:0:0:0:
