osu file format v14

[General]
AudioFilename: DJ Siesta - Another Day (cut ver.).mp3
AudioLeadIn: 0
PreviewTime: 43478
Countdown: 0
SampleSet: Normal
StackLeniency: 0.7
Mode: 0
LetterboxInBreaks: 0
WidescreenStoryboard: 0

[Editor]
Bookmarks: 24389,63176,82570
DistanceSpacing: 1.9
BeatDivisor: 4
GridSize: 4
TimelineZoom: 3.099999

[Metadata]
Title:Another Day
TitleUnicode:Another Day
Artist:DJ Siesta
ArtistUnicode:DJ Siesta
Creator:Streliteela
Version:Another
Source:
Tags:Dulcet Series Summer Special Collection 2nd Lost Time and Memory GMO夏日特辑2 Mei DreaM117er m1223961117 sheela901 appleeaterx Squirrel Instrumental Piano Chord cut version
BeatmapID:791390
BeatmapSetID:354179

[Difficulty]
HPDrainRate:7
CircleSize:4.5
OverallDifficulty:8
ApproachRate:9
SliderMultiplier:2.2
SliderTickRate:1

[Events]
//Background and Video events
0,0,"BG.jpg",0,0
//Break Periods
//Storyboard Layer 0 (Background)
//Storyboard Layer 1 (Fail)
//Storyboard Layer 2 (Pass)
//Storyboard Layer 3 (Foreground)
//Storyboard Sound Samples

[TimingPoints]
2569,606.060606060606,4,2,1,80,1,0
11659,-200,4,2,1,80,0,0
12265,-100,4,2,1,80,0,0
13477,-200,4,2,1,80,0,0
14083,-100,4,2,1,80,0,0
18628,-200,4,2,1,80,0,0
18931,-100,4,2,1,80,0,0
21962,-100,4,2,1,5,0,0
23781,-100,4,2,1,80,0,0
33174,-200,4,1,1,60,0,0
33477,-100,4,1,1,60,0,0
42871,-200,4,1,1,60,0,0
43174,-100,4,1,1,60,0,0
60143,-200,4,1,1,60,0,0
60598,-100,4,1,1,60,0,0
63175,-100,4,1,1,60,0,1
79538,-133.333333333333,4,1,1,60,0,1
80144,-100,4,1,1,60,0,1
82569,-100,4,2,1,90,0,0
89235,-166.666666666667,4,2,1,80,0,0
89841,-100,4,2,1,80,0,0
91053,-200,4,2,1,80,0,0
91659,-100,4,2,1,40,0,0
91962,-100,4,2,1,80,0,0
96205,-200,4,2,1,80,0,0
96508,-100,4,2,1,80,0,0
97114,631.578947368421,4,2,1,70,1,0
97745,666.666666666667,4,2,1,70,1,0
98411,705.882352941176,4,2,1,60,1,0
99116,774.193548387097,4,2,1,60,1,0
99890,845.070422535211,4,2,1,50,1,0
100735,923.076923076923,4,2,1,50,1,0

[Colours]
Combo1 : 204,83,234
Combo2 : 145,149,236
Combo3 : 252,152,222
Combo4 : 240,240,98

[HitObjects]
102,82,4690,5,0,0:0:0:0:
102,82,4841,1,0,0:0:0:0:
102,82,4993,2,0,P|162:83|192:118,1,110,8|0,0:0|0:0,0:0:0:0:
232,194,5447,1,0,0:0:0:0:
232,194,5599,2,0,L|358:187,1,110,8|0,0:0|0:0,0:0:0:0:
466,244,6205,5,8,0:0:0:0:
454,76,6508,1,0,0:0:0:0:
466,244,6811,1,8,0:0:0:0:
460,159,6962,1,0,0:0:0:0:
454,76,7114,1,0,0:0:0:0:
246,38,7417,6,0,P|232:108|236:179,1,110,8|0,0:0|0:0,0:0:0:0:
298,223,7872,1,0,0:0:0:0:
231,146,8023,2,0,B|174:134|174:134|122:145,1,110,8|0,0:0|0:0,0:0:0:0:
214,257,8629,1,8,0:0:0:0:
246,38,8932,2,0,B|300:49|300:49|359:38,1,110,0|8,0:0|0:0,0:0:0:0:
495,96,9538,2,0,P|466:82|431:77,1,55,0|0,0:0|0:0,0:0:0:0:
368,139,9841,6,0,P|362:188|367:255,1,110,8|0,0:0|0:0,0:0:0:0:
429,295,10296,1,0,0:0:0:0:
429,295,10447,2,0,P|375:284|317:315,1,110,8|0,0:0|0:0,0:0:0:0:
133,238,11053,2,0,P|186:264|243:251,1,110,8|0,0:0|0:0,0:0:0:0:
189,71,11659,6,0,P|195:127|193:181,1,110,8|8,0:0|0:0,0:0:0:0:
285,222,12569,1,0,0:0:0:0:
352,147,12872,1,8,0:0:0:0:
305,56,13175,1,0,0:0:0:0:
189,71,13478,6,0,P|132:80|75:80,1,110,8|8,0:0|0:0,0:0:0:0:
145,194,14387,1,0,0:0:0:0:
145,194,14538,1,0,0:0:0:0:
145,194,14690,6,0,B|171:245|171:245|144:299|157:360,1,165,8|0,0:0|0:0,0:0:0:0:
197,285,15296,2,0,P|145:274|92:305,1,110,8|0,0:0|0:0,0:0:0:0:
350,333,15902,2,0,L|484:322,1,110,8|0,0:0|0:0,0:0:0:0:
350,333,16508,1,8,0:0:0:0:
322,249,16659,1,0,0:0:0:0:
334,162,16811,1,0,0:0:0:0:
393,93,16962,1,0,0:0:0:0:
475,59,17114,5,8,0:0:0:0:
474,113,17417,2,0,L|474:58,1,55
469,196,17720,1,8,0:0:0:0:
406,243,17872,1,0,0:0:0:0:
322,249,18023,1,0,0:0:0:0:
240,223,18175,1,0,0:0:0:0:
191,146,18326,1,8,0:0:0:0:
188,91,18629,6,0,L|191:159,1,55,0|8,0:0|0:0,0:0:0:0:
322,249,19235,2,0,L|326:191,1,55
446,88,19538,6,0,L|452:217,1,110,8|0,0:0|0:0,0:0:0:0:
509,245,19993,1,0,0:0:0:0:
509,245,20144,2,0,P|464:272|404:255,1,110,8|0,0:0|0:0,0:0:0:0:
147,174,20750,6,0,P|193:146|250:159,1,110,8|0,0:0|0:0,0:0:0:0:
207,226,21205,1,0,0:0:0:0:
207,226,21356,2,0,L|212:335,1,110,8|0,0:0|0:0,0:0:0:0:
256,192,21962,12,10,23781,0:0:0:0:
476,30,24387,6,0,P|430:59|372:48,1,110,8|2,0:0|0:0,0:0:0:0:
319,121,24841,1,0,0:0:0:0:
319,121,24993,2,0,L|195:117,1,110,8|2,0:0|0:0,0:0:0:0:
359,205,25599,2,0,P|373:250|362:315,1,110,8|2,0:0|0:0,0:0:0:0:
363,311,26205,5,8,0:0:0:0:
445,248,26356,1,0,0:0:0:0:
499,337,26508,1,2,0:0:0:0:
349,310,26811,6,0,P|292:306|225:304,1,110,8|2,0:0|0:0,0:0:0:0:
161,367,27265,1,0,0:0:0:0:
100,198,27417,2,0,P|157:194|224:192,1,110,8|2,0:0|0:0,0:0:0:0:
349,310,28023,1,8,0:0:0:0:
483,93,28326,2,0,P|428:92|376:111,1,110,2|8,0:0|0:0,0:0:0:0:
256,43,28932,2,0,P|298:48|326:62,1,55,2|0,0:0|0:0,0:0:0:0:
377,112,29235,6,0,P|326:139|274:134,1,110,8|2,0:0|0:0,0:0:0:0:
186,101,29690,1,0,0:0:0:0:
186,101,29841,2,0,P|132:105|76:112,1,110,8|2,0:0|0:0,0:0:0:0:
25,250,30447,2,0,P|83:245|127:282,1,110,8|2,0:0|0:0,0:0:0:0:
159,348,30902,1,0,0:0:0:0:
159,348,31053,2,0,L|282:338,1,110,8|2,0:0|0:0,0:0:0:0:
369,231,31659,5,8,0:0:0:0:
509,307,31962,1,2,0:0:0:0:
351,328,32265,1,8,0:0:0:0:
468,217,32568,1,2,0:0:0:0:
439,378,32872,1,8,0:0:0:0:
435,324,33175,6,0,L|440:386,1,55,2|8,0:0|0:0,0:0:0:0:
283,259,33781,2,0,L|288:189,1,55,2|0,2:0|2:0,0:0:0:0:
367,27,34084,6,0,P|383:86|369:147,1,110,2|2,0:0|2:0,0:0:0:0:
361,150,34538,1,0,0:0:0:0:
344,164,34690,2,0,P|295:156|219:163,1,110,8|2,0:0|2:0,0:0:0:0:
59,134,35296,2,0,P|111:134|159:94,1,110,2|2,2:0|0:0,0:0:0:0:
82,8,35902,2,0,L|91:69,1,55,8|0,0:0|0:0,0:0:0:0:
236,144,36205,2,0,L|236:73,1,55,2|0,2:0|0:0,0:0:0:0:
38,127,36508,6,0,L|56:270,1,110,2|2,0:0|2:0,0:0:0:0:
133,342,36962,1,0,0:0:0:0:
133,342,37114,2,0,P|167:343|218:330,1,55,8|0,0:0|0:0,0:0:0:0:
313,230,37417,2,0,P|269:225|238:226,1,55,2|0,2:0|0:0,0:0:0:0:
360,347,37720,1,2,2:0:0:0:
442,147,38023,2,0,P|452:205|448:264,1,110,2|8,0:0|0:0,0:0:0:0:
307,67,38629,2,0,P|305:27|307:-4,1,55,2|0,2:0|0:0,0:0:0:0:
377,112,38932,6,0,P|329:145|268:140,1,110,2|2,0:0|2:0,0:0:0:0:
222,79,39387,1,0,0:0:0:0:
222,79,39538,2,0,P|156:82|74:91,1,110,8|2,0:0|2:0,0:0:0:0:
44,248,40144,2,0,P|98:252|153:255,1,110,2|2,2:0|0:0,0:0:0:0:
206,325,40599,1,0,0:0:0:0:
205,325,40750,2,0,P|252:297|307:299,1,110,8|2,0:0|2:0,0:0:0:0:
472,358,41356,5,2,0:0:0:0:
453,182,41659,1,2,2:0:0:0:
398,349,41962,1,8,0:0:0:0:
374,174,42265,1,2,2:0:0:0:
322,342,42569,1,2,2:0:0:0:
299,167,42872,6,0,L|221:178,1,55,2|8,0:0|0:0,0:0:0:0:
137,282,43478,1,2,2:0:0:0:
75,124,43781,5,2,0:0:0:0:
40,204,43932,1,0,0:0:0:0:
107,112,44084,1,2,2:0:0:0:
115,199,44235,1,0,0:0:0:0:
131,87,44387,1,8,0:0:0:0:
181,158,44538,1,0,0:0:0:0:
140,56,44690,1,2,2:0:0:0:
220,91,44841,1,0,0:0:0:0:
59,26,44993,5,2,2:0:0:0:
231,219,45296,2,0,L|342:208,1,110,2|8,0:0|0:0,0:0:0:0:
468,336,45902,1,2,2:0:0:0:
511,172,46205,5,2,0:0:0:0:
462,244,46356,1,0,0:0:0:0:
436,163,46508,1,2,2:0:0:0:
429,250,46659,1,0,0:0:0:0:
364,192,46811,1,8,0:0:0:0:
401,271,46962,1,0,0:0:0:0:
314,252,47114,1,2,2:0:0:0:
386,300,47265,1,0,0:0:0:0:
294,335,47417,5,2,2:0:0:0:
221,169,47720,2,0,L|215:296,1,110,2|8,0:0|0:0,0:0:0:0:
135,358,48175,1,0,0:0:0:0:
135,358,48326,2,0,L|131:295,1,55,2|0,2:0|0:0,0:0:0:0:
26,176,48629,5,2,0:0:0:0:
95,229,48781,1,0,0:0:0:0:
94,143,48932,1,2,2:0:0:0:
129,224,49084,1,0,0:0:0:0:
171,147,49235,1,8,0:0:0:0:
162,234,49387,1,0,0:0:0:0:
239,187,49538,1,2,2:0:0:0:
185,255,49690,1,0,0:0:0:0:
288,257,49841,5,2,2:0:0:0:
368,84,50144,2,0,L|366:206,1,110,2|8,0:0|0:0,0:0:0:0:
461,355,50750,2,0,P|459:319|461:288,1,55,2|0,2:0|0:0,0:0:0:0:
508,255,51053,6,0,P|451:267|383:266,1,110,2|2,0:0|2:0,0:0:0:0:
336,183,51508,1,0,0:0:0:0:
336,183,51659,2,0,P|277:178|223:188,1,110,8|2,0:0|2:0,0:0:0:0:
54,116,52265,6,0,P|122:111|165:66,1,110,2|2,2:0|0:0,0:0:0:0:
88,46,52720,1,0,0:0:0:0:
136,112,52872,1,8,0:0:0:0:
214,137,53023,1,2,2:0:0:0:
296,132,53175,1,2,2:0:0:0:
369,95,53326,1,8,0:0:0:0:
410,23,53478,5,2,0:0:0:0:
296,132,53629,1,0,0:0:0:0:
369,95,53781,1,2,2:0:0:0:
214,137,53932,1,0,0:0:0:0:
296,132,54084,1,8,0:0:0:0:
136,112,54235,1,0,0:0:0:0:
214,137,54387,1,2,2:0:0:0:
88,46,54538,1,0,0:0:0:0:
220,13,54690,5,2,2:0:0:0:
282,66,54841,1,0,0:0:0:0:
309,143,54993,1,2,0:0:0:0:
307,225,55144,1,0,0:0:0:0:
254,289,55296,1,8,0:0:0:0:
283,211,55447,1,0,0:0:0:0:
352,166,55599,1,2,2:0:0:0:
434,160,55750,1,0,0:0:0:0:
512,185,55902,5,2,0:0:0:0:
352,166,56053,1,0,0:0:0:0:
434,160,56205,1,2,2:0:0:0:
283,211,56356,1,0,0:0:0:0:
352,166,56508,1,8,0:0:0:0:
254,289,56659,1,0,0:0:0:0:
283,211,56811,1,2,2:0:0:0:
261,375,56962,1,0,0:0:0:0:
361,246,57114,5,2,2:0:0:0:
283,211,57265,1,0,0:0:0:0:
200,210,57417,1,2,0:0:0:0:
129,245,57568,1,0,0:0:0:0:
85,314,57720,1,8,0:0:0:0:
129,245,57872,1,0,0:0:0:0:
143,167,58023,1,2,2:0:0:0:
122,86,58175,1,0,0:0:0:0:
69,22,58326,5,2,0:0:0:0:
143,167,58478,1,0,0:0:0:0:
122,86,58629,1,2,2:0:0:0:
129,245,58781,1,0,0:0:0:0:
143,167,58932,1,8,0:0:0:0:
85,314,59084,1,0,0:0:0:0:
129,245,59235,1,2,2:0:0:0:
16,351,59387,1,0,0:0:0:0:
166,316,59538,5,2,2:0:0:0:
22,266,59690,1,0,0:0:0:0:
236,280,59841,1,2,0:0:0:0:
85,314,59993,1,0,0:0:0:0:
280,210,60144,6,0,L|274:124,1,82.5,8|0,0:0|0:0,0:0:0:0:
275,113,60750,5,2,0:0:0:0:
210,50,60902,1,0,0:0:0:0:
138,100,61053,2,0,L|129:165,1,55,2|0,2:0|0:0,0:0:0:0:
97,300,61356,5,8,0:0:0:0:
182,275,61508,1,0,0:0:0:0:
175,186,61659,2,0,L|121:145,1,55,2|0,2:0|0:0,0:0:0:0:
21,52,61962,5,2,2:0:0:0:
0,137,62114,1,0,0:0:0:0:
80,176,62265,2,0,L|141:149,1,55,2|0,0:0|0:0,0:0:0:0:
208,126,62568,5,8,0:0:0:0:
271,168,62720,1,0,0:0:0:0:
302,238,62872,1,2,2:0:0:0:
302,317,63023,1,0,0:0:0:0:
250,374,63175,6,0,P|197:354|141:353,1,110,2|2,0:0|2:0,0:0:0:0:
64,373,63629,1,0,0:0:0:0:
14,306,63781,2,0,L|15:238,1,55,8|0,0:0|0:0,0:0:0:0:
88,144,64084,2,0,L|91:223,1,55,2|0,2:0|0:0,0:0:0:0:
22,90,64387,2,0,P|64:61|129:68,1,110,2|2,2:0|0:0,0:0:0:0:
191,121,64841,1,0,0:0:0:0:
191,121,64993,2,0,B|279:109|279:109|265:137,1,110,8|2,0:0|2:0,0:0:0:0:
120,64,65599,6,0,L|124:2,1,55,2|0,0:0|0:0,0:0:0:0:
275,30,65902,2,0,L|282:92,1,55,2|0,2:0|0:0,0:0:0:0:
188,175,66205,2,0,L|191:113,1,55,8|0,0:0|0:0,0:0:0:0:
347,143,66508,2,0,L|356:203,1,55,2|0,2:0|0:0,0:0:0:0:
388,351,66811,1,2,2:0:0:0:
415,226,67114,2,0,B|354:210|304:256,1,110,2|8,0:0|0:0,0:0:0:0:
270,320,67569,1,0,0:0:0:0:
270,320,67720,2,0,L|188:311,1,55,2|0,2:0|0:0,0:0:0:0:
43,282,68023,6,0,P|97:283|147:251,1,110,2|2,0:0|2:0,0:0:0:0:
75,86,68478,1,0,0:0:0:0:
75,86,68629,2,0,P|65:148|72:212,1,110,8|2,0:0|2:0,0:0:0:0:
143,254,69084,1,0,0:0:0:0:
303,210,69235,1,2,2:0:0:0:
243,384,69538,2,0,P|237:324|235:256,1,110,2|8,0:0|0:0,0:0:0:0:
303,155,70144,2,0,L|303:213,1,55,2|0,2:0|0:0,0:0:0:0:
140,358,70447,6,0,P|127:301|154:239,1,110,2|2,0:0|2:0,0:0:0:0:
211,204,70902,1,0,0:0:0:0:
211,204,71053,2,0,L|202:80,1,110,8|2,0:0|2:0,0:0:0:0:
148,34,71659,2,0,P|196:59|264:54,1,110,2|2,2:0|0:0,0:0:0:0:
332,44,72114,1,0,0:0:0:0:
407,75,72265,1,8,0:0:0:0:
448,146,72417,1,2,2:0:0:0:
442,231,72569,1,2,2:0:0:0:
404,304,72720,1,8,0:0:0:0:
330,341,72872,6,0,L|322:269,1,55,2|0,0:0|0:0,0:0:0:0:
200,192,73175,2,0,L|200:264,1,55,2|0,2:0|0:0,0:0:0:0:
349,203,73478,2,0,P|322:205|265:215,1,55,8|0,0:0|0:0,0:0:0:0:
182,325,73781,2,0,P|209:327|266:337,1,55,2|0,2:0|0:0,0:0:0:0:
287,114,74084,5,2,2:0:0:0:
205,102,74235,1,0,0:0:0:0:
124,129,74387,1,2,0:0:0:0:
76,196,74538,1,0,0:0:0:0:
230,260,74690,5,8,0:0:0:0:
237,178,74841,1,0,0:0:0:0:
205,102,74993,1,2,2:0:0:0:
139,53,75144,1,0,0:0:0:0:
44,36,75296,6,0,L|44:108,1,55,2|0,0:0|0:0,0:0:0:0:
174,185,75599,2,0,L|166:113,1,55,2|0,2:0|0:0,0:0:0:0:
26,169,75902,2,0,P|53:171|110:181,1,55,8|0,0:0|0:0,0:0:0:0:
193,47,76205,2,0,P|166:49|109:59,1,55,2|0,2:0|0:0,0:0:0:0:
72,239,76508,5,2,2:0:0:0:
144,277,76659,1,0,0:0:0:0:
226,276,76811,1,2,0:0:0:0:
296,233,76962,1,0,0:0:0:0:
214,358,77114,5,8,0:0:0:0:
226,276,77265,1,0,0:0:0:0:
287,215,77417,1,2,2:0:0:0:
364,186,77569,1,0,0:0:0:0:
446,193,77720,5,2,0:0:0:0:
425,276,77872,1,0,0:0:0:0:
356,105,78023,1,2,2:0:0:0:
364,186,78175,1,0,0:0:0:0:
242,67,78326,5,8,0:0:0:0:
277,141,78478,1,0,0:0:0:0:
123,70,78629,1,2,2:0:0:0:
181,126,78781,1,0,0:0:0:0:
266,314,78932,5,2,2:0:0:0:
283,229,79084,1,0,0:0:0:0:
140,343,79235,1,2,0:0:0:0:
186,271,79387,1,0,0:0:0:0:
42,159,79538,6,0,P|65:210|74:279,1,123.750004720688,8|0,0:0|0:0,0:0:0:0:
74,276,80144,5,2,0:0:0:0:
112,193,80296,1,0,0:0:0:0:
107,110,80447,1,2,2:0:0:0:
72,35,80599,1,0,0:0:0:0:
42,159,80750,5,8,0:0:0:0:
112,193,80902,1,0,0:0:0:0:
193,190,81053,1,2,2:0:0:0:
270,158,81205,1,0,0:0:0:0:
187,352,81356,5,2,2:0:0:0:
173,271,81508,1,0,0:0:0:0:
193,190,81659,1,2,0:0:0:0:
251,132,81811,1,0,0:0:0:0:
390,53,81962,5,8,0:0:0:0:
331,111,82114,1,0,0:0:0:0:
251,132,82265,1,2,2:0:0:0:
170,116,82417,1,0,0:0:0:0:
95,80,82569,5,8,0:0:0:0:
230,12,82872,1,2,0:0:0:0:
230,12,83023,1,0,0:0:0:0:
230,12,83175,2,0,P|254:63|250:139,1,110,8|2,0:0|0:0,0:0:0:0:
150,353,83781,2,0,L|137:231,1,110,8|2,0:0|0:0,0:0:0:0:
150,353,84387,1,8,0:0:0:0:
159,265,84538,1,0,0:0:0:0:
169,176,84690,1,2,0:0:0:0:
288,62,84993,6,0,P|235:70|183:30,1,110,8|2,0:0|0:0,0:0:0:0:
169,176,85447,1,0,0:0:0:0:
5,109,85599,2,0,L|117:103,1,110,8|2,0:0|0:0,0:0:0:0:
159,265,86205,1,8,0:0:0:0:
288,62,86508,2,0,P|303:109|305:171,1,110,2|8,0:0|0:0,0:0:0:0:
218,371,87114,2,0,B|211:340|210:304,1,55,2|0,0:0|0:0,0:0:0:0:
159,265,87417,6,0,P|217:280|283:273,1,110,8|2,0:0|0:0,0:0:0:0:
343,343,87872,1,0,0:0:0:0:
343,343,88023,2,0,P|402:320|465:329,1,110,8|2,0:0|0:0,0:0:0:0:
420,169,88629,1,8,0:0:0:0:
447,323,88932,1,2,0:0:0:0:
462,96,89235,6,0,P|411:87|346:128,1,131.99999597168,8|8,0:0|0:0,0:0:0:0:
434,243,90144,1,2,0:0:0:0:
462,96,90447,1,8,0:0:0:0:
317,34,90750,1,2,0:0:0:0:
232,144,91053,6,0,P|232:200|242:256,1,110,8|2,0:0|0:0,0:0:0:0:
330,362,91962,2,0,P|334:323|332:296,1,55,2|0,0:0|0:0,0:0:0:0:
136,211,92265,6,0,P|128:280|131:329,1,110,8|2,0:0|0:0,0:0:0:0:
196,349,92720,1,0,0:0:0:0:
196,349,92872,2,0,P|139:342|81:374,1,110,8|2,0:0|0:0,0:0:0:0:
12,184,93478,2,0,P|64:210|128:208,1,110,8|2,0:0|0:0,0:0:0:0:
196,349,94084,5,8,0:0:0:0:
135,291,94235,1,0,0:0:0:0:
114,211,94387,1,2,0:0:0:0:
132,131,94538,1,0,0:0:0:0:
187,69,94690,1,8,0:0:0:0:
288,164,94993,6,0,L|285:227,1,55,2|0,0:0|0:0,0:0:0:0:
288,164,95296,1,8,0:0:0:0:
214,127,95447,1,0,0:0:0:0:
132,131,95599,1,2,0:0:0:0:
60,172,95750,1,0,0:0:0:0:
20,246,95902,1,8,0:0:0:0:
189,287,96205,6,0,L|125:291,1,55,2|8,0:0|0:0,0:0:0:0:
286,353,96811,2,0,L|345:349,1,55,2|0,0:0|0:0,0:0:0:0:
469,239,97114,6,0,P|418:245|361:216,1,110,8|2,0:0|0:0,0:0:0:0:
439,60,97587,1,0,0:0:0:0:
439,60,97745,2,0,P|435:124|427:190,1,110,8|2,0:0|0:0,0:0:0:0:
220,104,98411,6,0,P|169:97|112:126,1,110,8|2,0:0|0:0,0:0:0:0:
189,287,98940,1,0,0:0:0:0:
189,287,99116,2,0,P|186:226|177:156,1,110,8|2,0:0|0:0,0:0:0:0:
283,330,99890,5,8,0:0:0:0:
376,168,100312,1,0,0:0:0:0:
251,29,100735,1,8,0:0:0:0:
80,105,101196,1,0,0:0:0:0:
100,291,101658,5,8,0:0:0:0:
