osu file format v12

[General]
AudioFilename: We Luv Lama.ogg
AudioLeadIn: 0
PreviewTime: 133810
Countdown: 0
SampleSet: Soft
StackLeniency: 0.7
Mode: 3
LetterboxInBreaks: 0
SpecialStyle: 0
WidescreenStoryboard: 0

[Editor]
DistanceSpacing: 0.8
BeatDivisor: 1
GridSize: 8

[Metadata]
Title:We Luv Lama
TitleUnicode:We Luv Lama
Artist:DJ Sharpnel
ArtistUnicode:DJ Sharpnel
Creator:sergioperez
Version:LV18
Source:Based on Darqs design
Tags:sharpnel,lama,luv,stream,norandom
BeatmapID:356979
BeatmapSetID:143513

[Difficulty]
HPDrainRate:6
CircleSize:4
OverallDifficulty:5
ApproachRate:5
SliderMultiplier:1.4
SliderTickRate:1

[Events]
//Background and Video events
0,0,"we luv bg.png",0,0
//Break Periods
2,111588,125688
//Storyboard Layer 0 (Background)
//Storyboard Layer 1 (Fail)
//Storyboard Layer 2 (Pass)
//Storyboard Layer 3 (Foreground)
//Storyboard Sound Samples
//Background Colour Transformations
3,100,163,162,255

[TimingPoints]
540,285.714285714286,4,2,0,1,1,0

[HitObjects]
64,192,602,1,0,0:0:0:0:
448,192,602,1,0,0:0:0:0:
448,192,888,1,0,0:0:0:0:
192,192,1174,1,0,0:0:0:0:
448,192,1460,1,0,0:0:0:0:
64,192,1602,1,0,0:0:0:0:
320,192,1745,1,0,0:0:0:0:
64,192,1888,1,0,0:0:0:0:
448,192,2031,1,0,0:0:0:0:
192,192,2317,1,0,0:0:0:0:
320,192,2602,1,0,0:0:0:0:
192,192,2745,1,0,0:0:0:0:
448,192,2888,1,0,0:0:0:0:
64,192,3031,1,0,0:0:0:0:
448,192,3102,1,0,0:0:0:0:
64,192,3174,1,0,0:0:0:0:
192,192,3460,1,0,0:0:0:0:
64,192,3745,1,0,0:0:0:0:
448,192,3888,1,0,0:0:0:0:
192,192,4031,1,0,0:0:0:0:
320,192,4317,1,0,0:0:0:0:
64,192,4602,1,0,0:0:0:0:
320,192,4745,1,0,0:0:0:0:
64,192,4793,1,0,0:0:0:0:
320,192,4840,1,0,0:0:0:0:
64,192,4888,1,0,0:0:0:0:
448,192,5031,1,0,0:0:0:0:
64,192,5174,1,0,0:0:0:0:
448,192,5174,1,0,0:0:0:0:
64,192,5459,1,0,0:0:0:0:
448,192,5602,1,0,0:0:0:0:
192,192,5745,1,0,0:0:0:0:
320,192,6031,1,0,0:0:0:0:
192,192,6317,1,0,0:0:0:0:
448,192,6459,1,0,0:0:0:0:
64,192,6602,1,0,0:0:0:0:
448,192,6888,1,0,0:0:0:0:
64,192,7174,1,0,0:0:0:0:
192,192,7317,1,0,0:0:0:0:
320,192,7459,1,0,0:0:0:0:
448,192,7745,1,0,0:0:0:0:
64,192,7888,1,0,0:0:0:0:
192,192,8031,1,0,0:0:0:0:
320,192,8317,1,0,0:0:0:0:
448,192,8602,1,0,0:0:0:0:
64,192,8817,1,0,0:0:0:0:
320,192,9031,1,0,0:0:0:0:
192,192,9174,1,0,0:0:0:0:
320,192,9174,1,0,0:0:0:0:
192,192,9459,1,0,0:0:0:0:
320,192,9459,1,0,0:0:0:0:
320,192,9745,1,0,0:0:0:0:
64,192,9817,1,0,0:0:0:0:
320,192,9888,1,0,0:0:0:0:
192,192,10031,1,0,0:0:0:0:
448,192,10174,1,0,0:0:0:0:
192,192,10245,1,0,0:0:0:0:
448,192,10317,1,0,0:0:0:0:
192,192,10388,1,0,0:0:0:0:
448,192,10459,1,0,0:0:0:0:
64,192,10602,1,0,0:0:0:0:
192,192,10745,1,0,0:0:0:0:
320,192,10817,1,0,0:0:0:0:
192,192,10888,1,0,0:0:0:0:
320,192,10959,1,0,0:0:0:0:
192,192,11031,1,0,0:0:0:0:
320,192,11174,1,0,0:0:0:0:
448,192,11317,1,0,0:0:0:0:
64,192,11388,1,0,0:0:0:0:
448,192,11459,1,0,0:0:0:0:
64,192,11531,1,0,0:0:0:0:
448,192,11602,1,0,0:0:0:0:
192,192,11745,1,0,0:0:0:0:
320,192,11888,1,0,0:0:0:0:
64,192,11959,1,0,0:0:0:0:
320,192,12031,1,0,0:0:0:0:
64,192,12102,1,0,0:0:0:0:
320,192,12174,1,0,0:0:0:0:
192,192,12317,1,0,0:0:0:0:
448,192,12459,1,0,0:0:0:0:
192,192,12531,1,0,0:0:0:0:
448,192,12602,1,0,0:0:0:0:
192,192,12674,1,0,0:0:0:0:
448,192,12745,1,0,0:0:0:0:
64,192,12888,1,0,0:0:0:0:
192,192,13031,1,0,0:0:0:0:
320,192,13102,1,0,0:0:0:0:
192,192,13174,1,0,0:0:0:0:
320,192,13245,1,0,0:0:0:0:
192,192,13317,1,0,0:0:0:0:
320,192,13459,1,0,0:0:0:0:
448,192,13602,1,0,0:0:0:0:
64,192,13674,1,0,0:0:0:0:
448,192,13745,1,0,0:0:0:0:
64,192,13817,1,0,0:0:0:0:
448,192,13888,1,0,0:0:0:0:
192,192,13959,1,0,0:0:0:0:
320,192,14031,1,0,0:0:0:0:
64,192,14174,1,0,0:0:0:0:
448,192,14317,1,0,0:0:0:0:
64,192,14388,1,0,0:0:0:0:
192,192,14459,1,0,0:0:0:0:
320,192,14602,1,0,0:0:0:0:
448,192,14745,1,0,0:0:0:0:
320,192,14817,1,0,0:0:0:0:
448,192,14888,1,0,0:0:0:0:
320,192,14959,1,0,0:0:0:0:
448,192,15031,1,0,0:0:0:0:
64,192,15174,1,0,0:0:0:0:
448,192,15317,1,0,0:0:0:0:
192,192,15388,1,0,0:0:0:0:
448,192,15459,1,0,0:0:0:0:
192,192,15531,1,0,0:0:0:0:
448,192,15602,1,0,0:0:0:0:
64,192,15745,1,0,0:0:0:0:
192,192,15888,1,0,0:0:0:0:
320,192,15959,1,0,0:0:0:0:
192,192,16031,1,0,0:0:0:0:
320,192,16102,1,0,0:0:0:0:
192,192,16174,1,0,0:0:0:0:
64,192,16317,1,0,0:0:0:0:
320,192,16459,1,0,0:0:0:0:
192,192,16531,1,0,0:0:0:0:
320,192,16602,1,0,0:0:0:0:
192,192,16674,1,0,0:0:0:0:
320,192,16745,1,0,0:0:0:0:
192,192,16888,1,0,0:0:0:0:
448,192,17031,1,0,0:0:0:0:
64,192,17102,1,0,0:0:0:0:
448,192,17174,1,0,0:0:0:0:
64,192,17245,1,0,0:0:0:0:
448,192,17317,1,0,0:0:0:0:
64,192,17459,1,0,0:0:0:0:
448,192,17602,1,0,0:0:0:0:
320,192,17674,1,0,0:0:0:0:
448,192,17745,1,0,0:0:0:0:
64,192,17959,1,0,0:0:0:0:
448,192,18174,1,0,0:0:0:0:
192,192,18317,1,0,0:0:0:0:
320,192,18959,1,0,0:0:0:0:
64,192,19031,1,0,0:0:0:0:
320,192,19102,1,0,0:0:0:0:
64,192,19174,1,0,0:0:0:0:
448,192,19245,1,0,0:0:0:0:
64,192,19317,1,0,0:0:0:0:
448,192,19388,1,0,0:0:0:0:
192,192,19459,1,0,0:0:0:0:
320,192,19531,1,0,0:0:0:0:
64,192,19602,1,0,0:0:0:0:
448,192,19674,1,0,0:0:0:0:
192,192,19745,1,0,0:0:0:0:
320,192,19817,1,0,0:0:0:0:
64,192,19888,1,0,0:0:0:0:
448,192,19959,1,0,0:0:0:0:
192,192,20031,1,0,0:0:0:0:
320,192,20102,1,0,0:0:0:0:
192,192,20174,1,0,0:0:0:0:
320,192,20245,1,0,0:0:0:0:
64,192,20317,1,0,0:0:0:0:
320,192,20388,1,0,0:0:0:0:
64,192,20459,1,0,0:0:0:0:
320,192,20531,1,0,0:0:0:0:
64,192,20602,1,0,0:0:0:0:
448,192,20674,1,0,0:0:0:0:
320,192,20745,1,0,0:0:0:0:
192,192,20817,1,0,0:0:0:0:
64,192,20888,1,0,0:0:0:0:
448,192,20959,1,0,0:0:0:0:
320,192,21031,1,0,0:0:0:0:
192,192,21102,1,0,0:0:0:0:
64,192,21174,1,0,0:0:0:0:
448,192,21245,1,0,0:0:0:0:
64,192,21317,1,0,0:0:0:0:
448,192,21388,1,0,0:0:0:0:
192,192,21459,1,0,0:0:0:0:
448,192,21531,1,0,0:0:0:0:
192,192,21602,1,0,0:0:0:0:
448,192,21674,1,0,0:0:0:0:
320,192,21745,1,0,0:0:0:0:
192,192,21817,1,0,0:0:0:0:
64,192,21888,1,0,0:0:0:0:
448,192,21959,1,0,0:0:0:0:
320,192,22031,1,0,0:0:0:0:
192,192,22102,1,0,0:0:0:0:
64,192,22174,1,0,0:0:0:0:
448,192,22245,1,0,0:0:0:0:
192,192,22317,1,0,0:0:0:0:
448,192,22388,1,0,0:0:0:0:
192,192,22459,1,0,0:0:0:0:
448,192,22531,1,0,0:0:0:0:
64,192,22602,1,0,0:0:0:0:
448,192,22674,1,0,0:0:0:0:
64,192,22745,1,0,0:0:0:0:
448,192,22817,1,0,0:0:0:0:
64,192,22888,1,0,0:0:0:0:
192,192,22959,1,0,0:0:0:0:
320,192,23031,1,0,0:0:0:0:
448,192,23102,1,0,0:0:0:0:
64,192,23174,1,0,0:0:0:0:
448,192,23245,1,0,0:0:0:0:
192,192,23317,1,0,0:0:0:0:
320,192,23388,1,0,0:0:0:0:
64,192,23459,1,0,0:0:0:0:
448,192,23531,1,0,0:0:0:0:
64,192,23602,1,0,0:0:0:0:
448,192,23674,1,0,0:0:0:0:
64,192,23745,1,0,0:0:0:0:
192,192,23817,1,0,0:0:0:0:
64,192,23888,1,0,0:0:0:0:
192,192,23959,1,0,0:0:0:0:
320,192,24031,1,0,0:0:0:0:
448,192,24102,1,0,0:0:0:0:
64,192,24174,1,0,0:0:0:0:
448,192,24245,1,0,0:0:0:0:
192,192,24317,1,0,0:0:0:0:
448,192,24388,1,0,0:0:0:0:
64,192,24459,1,0,0:0:0:0:
448,192,24531,1,0,0:0:0:0:
64,192,24602,1,0,0:0:0:0:
192,192,24674,1,0,0:0:0:0:
64,192,24745,1,0,0:0:0:0:
192,192,24817,1,0,0:0:0:0:
320,192,24888,1,0,0:0:0:0:
448,192,24959,1,0,0:0:0:0:
320,192,25031,1,0,0:0:0:0:
448,192,25102,1,0,0:0:0:0:
64,192,25174,1,0,0:0:0:0:
448,192,25245,1,0,0:0:0:0:
192,192,25317,1,0,0:0:0:0:
448,192,25388,1,0,0:0:0:0:
64,192,25459,1,0,0:0:0:0:
448,192,25531,1,0,0:0:0:0:
320,192,25602,1,0,0:0:0:0:
448,192,25674,1,0,0:0:0:0:
64,192,25745,1,0,0:0:0:0:
320,192,25817,1,0,0:0:0:0:
64,192,25888,1,0,0:0:0:0:
320,192,25959,1,0,0:0:0:0:
192,192,26031,1,0,0:0:0:0:
448,192,26102,1,0,0:0:0:0:
192,192,26174,1,0,0:0:0:0:
448,192,26245,1,0,0:0:0:0:
64,192,26317,1,0,0:0:0:0:
192,192,26388,1,0,0:0:0:0:
320,192,26459,1,0,0:0:0:0:
448,192,26531,1,0,0:0:0:0:
64,192,26602,1,0,0:0:0:0:
448,192,26674,1,0,0:0:0:0:
320,192,26745,1,0,0:0:0:0:
192,192,26817,1,0,0:0:0:0:
64,192,26888,1,0,0:0:0:0:
448,192,26959,1,0,0:0:0:0:
64,192,27031,1,0,0:0:0:0:
448,192,27102,1,0,0:0:0:0:
192,192,27174,1,0,0:0:0:0:
448,192,27245,1,0,0:0:0:0:
192,192,27317,1,0,0:0:0:0:
448,192,27388,1,0,0:0:0:0:
448,192,28031,1,0,0:0:0:0:
320,192,28102,1,0,0:0:0:0:
448,192,28174,1,0,0:0:0:0:
320,192,28245,1,0,0:0:0:0:
448,192,28317,1,0,0:0:0:0:
64,192,28388,1,0,0:0:0:0:
448,192,28459,1,0,0:0:0:0:
64,192,28531,1,0,0:0:0:0:
192,192,28602,1,0,0:0:0:0:
320,192,28674,1,0,0:0:0:0:
448,192,28745,1,0,0:0:0:0:
64,192,28817,1,0,0:0:0:0:
192,192,28888,1,0,0:0:0:0:
320,192,28959,1,0,0:0:0:0:
448,192,29031,1,0,0:0:0:0:
64,192,29102,1,0,0:0:0:0:
192,192,29174,1,0,0:0:0:0:
320,192,29245,1,0,0:0:0:0:
192,192,29317,1,0,0:0:0:0:
320,192,29388,1,0,0:0:0:0:
448,192,29459,1,0,0:0:0:0:
320,192,29531,1,0,0:0:0:0:
448,192,29602,1,0,0:0:0:0:
320,192,29674,1,0,0:0:0:0:
448,192,29745,1,0,0:0:0:0:
64,192,29817,1,0,0:0:0:0:
320,192,29888,1,0,0:0:0:0:
192,192,29959,1,0,0:0:0:0:
448,192,30031,1,0,0:0:0:0:
64,192,30102,1,0,0:0:0:0:
320,192,30174,1,0,0:0:0:0:
192,192,30245,1,0,0:0:0:0:
448,192,30317,1,0,0:0:0:0:
64,192,30388,1,0,0:0:0:0:
448,192,30459,1,0,0:0:0:0:
64,192,30531,1,0,0:0:0:0:
192,192,30602,1,0,0:0:0:0:
64,192,30674,1,0,0:0:0:0:
192,192,30745,1,0,0:0:0:0:
64,192,30817,1,0,0:0:0:0:
320,192,30888,1,0,0:0:0:0:
192,192,30959,1,0,0:0:0:0:
448,192,31031,1,0,0:0:0:0:
64,192,31102,1,0,0:0:0:0:
320,192,31174,1,0,0:0:0:0:
192,192,31245,1,0,0:0:0:0:
448,192,31317,1,0,0:0:0:0:
64,192,31388,1,0,0:0:0:0:
192,192,31459,1,0,0:0:0:0:
64,192,31531,1,0,0:0:0:0:
192,192,31602,1,0,0:0:0:0:
64,192,31674,1,0,0:0:0:0:
448,192,31745,1,0,0:0:0:0:
64,192,31817,1,0,0:0:0:0:
448,192,31888,1,0,0:0:0:0:
64,192,31959,1,0,0:0:0:0:
448,192,32031,1,0,0:0:0:0:
192,192,32102,1,0,0:0:0:0:
320,192,32174,1,0,0:0:0:0:
64,192,32245,1,0,0:0:0:0:
448,192,32317,1,0,0:0:0:0:
64,192,32388,1,0,0:0:0:0:
192,192,32459,1,0,0:0:0:0:
320,192,32531,1,0,0:0:0:0:
448,192,32602,1,0,0:0:0:0:
64,192,32674,1,0,0:0:0:0:
448,192,32745,1,0,0:0:0:0:
64,192,32817,1,0,0:0:0:0:
448,192,32888,1,0,0:0:0:0:
192,192,32959,1,0,0:0:0:0:
448,192,33031,1,0,0:0:0:0:
192,192,33102,1,0,0:0:0:0:
320,192,33174,1,0,0:0:0:0:
64,192,33245,1,0,0:0:0:0:
448,192,33317,1,0,0:0:0:0:
64,192,33388,1,0,0:0:0:0:
192,192,33459,1,0,0:0:0:0:
64,192,33531,1,0,0:0:0:0:
448,192,33602,1,0,0:0:0:0:
64,192,33674,1,0,0:0:0:0:
448,192,33745,1,0,0:0:0:0:
192,192,33817,1,0,0:0:0:0:
448,192,33888,1,0,0:0:0:0:
192,192,33959,1,0,0:0:0:0:
320,192,34031,1,0,0:0:0:0:
64,192,34102,1,0,0:0:0:0:
320,192,34174,1,0,0:0:0:0:
64,192,34245,1,0,0:0:0:0:
448,192,34317,1,0,0:0:0:0:
64,192,34388,1,0,0:0:0:0:
192,192,34459,1,0,0:0:0:0:
64,192,34531,1,0,0:0:0:0:
448,192,34602,1,0,0:0:0:0:
64,192,34674,1,0,0:0:0:0:
320,192,34745,1,0,0:0:0:0:
64,192,34817,1,0,0:0:0:0:
192,192,34888,1,0,0:0:0:0:
320,192,34959,1,0,0:0:0:0:
192,192,35031,1,0,0:0:0:0:
64,192,35102,1,0,0:0:0:0:
448,192,35174,1,0,0:0:0:0:
64,192,35245,1,0,0:0:0:0:
448,192,35317,1,0,0:0:0:0:
192,192,35388,1,0,0:0:0:0:
320,192,35459,1,0,0:0:0:0:
64,192,35531,1,0,0:0:0:0:
448,192,35602,1,0,0:0:0:0:
320,192,35674,1,0,0:0:0:0:
192,192,35745,1,0,0:0:0:0:
320,192,35817,1,0,0:0:0:0:
448,192,35888,1,0,0:0:0:0:
192,192,35959,1,0,0:0:0:0:
320,192,36031,1,0,0:0:0:0:
64,192,36102,1,0,0:0:0:0:
192,192,36174,1,0,0:0:0:0:
64,192,36245,1,0,0:0:0:0:
320,192,36317,1,0,0:0:0:0:
192,192,36388,1,0,0:0:0:0:
448,192,36459,1,0,0:0:0:0:
320,192,36531,1,0,0:0:0:0:
192,192,36602,1,0,0:0:0:0:
64,192,36674,1,0,0:0:0:0:
448,192,37245,1,0,0:0:0:0:
64,192,37317,1,0,0:0:0:0:
320,192,37459,1,0,0:0:0:0:
192,192,37602,1,0,0:0:0:0:
448,192,37745,1,0,0:0:0:0:
64,192,37817,1,0,0:0:0:0:
448,192,37959,1,0,0:0:0:0:
320,192,38031,1,0,0:0:0:0:
192,192,38174,1,0,0:0:0:0:
64,192,38245,1,0,0:0:0:0:
448,192,38317,1,0,0:0:0:0:
192,192,38388,1,0,0:0:0:0:
320,192,38459,1,0,0:0:0:0:
64,192,38602,1,0,0:0:0:0:
448,192,38745,1,0,0:0:0:0:
320,192,38888,1,0,0:0:0:0:
192,192,38959,1,0,0:0:0:0:
320,192,39102,1,0,0:0:0:0:
448,192,39174,1,0,0:0:0:0:
64,192,39317,1,0,0:0:0:0:
448,192,39388,1,0,0:0:0:0:
192,192,39459,1,0,0:0:0:0:
320,192,39531,1,0,0:0:0:0:
64,192,39602,1,0,0:0:0:0:
448,192,39745,1,0,0:0:0:0:
64,192,39888,1,0,0:0:0:0:
320,192,40031,1,0,0:0:0:0:
192,192,40102,1,0,0:0:0:0:
320,192,40245,1,0,0:0:0:0:
64,192,40317,1,0,0:0:0:0:
448,192,40459,1,0,0:0:0:0:
64,192,40531,1,0,0:0:0:0:
192,192,40602,1,0,0:0:0:0:
320,192,40674,1,0,0:0:0:0:
448,192,40745,1,0,0:0:0:0:
64,192,40888,1,0,0:0:0:0:
448,192,41031,1,0,0:0:0:0:
320,192,41174,1,0,0:0:0:0:
192,192,41317,1,0,0:0:0:0:
64,192,41364,1,0,0:0:0:0:
192,192,41412,1,0,0:0:0:0:
64,192,41459,1,0,0:0:0:0:
448,192,41602,1,0,0:0:0:0:
64,192,41745,1,0,0:0:0:0:
448,192,41817,1,0,0:0:0:0:
64,192,41888,1,0,0:0:0:0:
320,192,42031,1,0,0:0:0:0:
192,192,42174,1,0,0:0:0:0:
448,192,42317,1,0,0:0:0:0:
64,192,42388,1,0,0:0:0:0:
448,192,42531,1,0,0:0:0:0:
320,192,42602,1,0,0:0:0:0:
192,192,42745,1,0,0:0:0:0:
64,192,42817,1,0,0:0:0:0:
448,192,42888,1,0,0:0:0:0:
192,192,42959,1,0,0:0:0:0:
320,192,43031,1,0,0:0:0:0:
64,192,43174,1,0,0:0:0:0:
448,192,43317,1,0,0:0:0:0:
320,192,43459,1,0,0:0:0:0:
192,192,43531,1,0,0:0:0:0:
320,192,43674,1,0,0:0:0:0:
448,192,43745,1,0,0:0:0:0:
64,192,43888,1,0,0:0:0:0:
448,192,43959,1,0,0:0:0:0:
192,192,44031,1,0,0:0:0:0:
320,192,44102,1,0,0:0:0:0:
64,192,44174,1,0,0:0:0:0:
448,192,44317,1,0,0:0:0:0:
64,192,44459,1,0,0:0:0:0:
320,192,44602,1,0,0:0:0:0:
192,192,44674,1,0,0:0:0:0:
320,192,44817,1,0,0:0:0:0:
64,192,44888,1,0,0:0:0:0:
448,192,45031,1,0,0:0:0:0:
64,192,45102,1,0,0:0:0:0:
192,192,45174,1,0,0:0:0:0:
320,192,45245,1,0,0:0:0:0:
448,192,45317,1,0,0:0:0:0:
64,192,45388,1,0,0:0:0:0:
320,192,45459,1,0,0:0:0:0:
192,192,45602,1,0,0:0:0:0:
448,192,45674,1,0,0:0:0:0:
320,192,45745,1,0,0:0:0:0:
192,192,45888,1,0,0:0:0:0:
64,192,45959,1,0,0:0:0:0:
320,192,46031,1,0,0:0:0:0:
64,192,46174,1,0,0:0:0:0:
448,192,46221,1,0,0:0:0:0:
64,192,46269,1,0,0:0:0:0:
448,192,46316,1,0,0:0:0:0:
64,192,46459,1,0,0:0:0:0:
192,192,46602,1,0,0:0:0:0:
64,192,46745,1,0,0:0:0:0:
320,192,46888,1,0,0:0:0:0:
192,192,46959,1,0,0:0:0:0:
448,192,47102,1,0,0:0:0:0:
64,192,47174,1,0,0:0:0:0:
448,192,47316,1,0,0:0:0:0:
192,192,47388,1,0,0:0:0:0:
320,192,47459,1,0,0:0:0:0:
64,192,47531,1,0,0:0:0:0:
448,192,47602,1,0,0:0:0:0:
320,192,47745,1,0,0:0:0:0:
448,192,47888,1,0,0:0:0:0:
192,192,48031,1,0,0:0:0:0:
320,192,48102,1,0,0:0:0:0:
64,192,48245,1,0,0:0:0:0:
448,192,48316,1,0,0:0:0:0:
320,192,48459,1,0,0:0:0:0:
448,192,48531,1,0,0:0:0:0:
192,192,48602,1,0,0:0:0:0:
320,192,48674,1,0,0:0:0:0:
64,192,48745,1,0,0:0:0:0:
448,192,48888,1,0,0:0:0:0:
64,192,49031,1,0,0:0:0:0:
320,192,49174,1,0,0:0:0:0:
192,192,49245,1,0,0:0:0:0:
448,192,49388,1,0,0:0:0:0:
64,192,49459,1,0,0:0:0:0:
192,192,49602,1,0,0:0:0:0:
320,192,49674,1,0,0:0:0:0:
448,192,49745,1,0,0:0:0:0:
64,192,49816,1,0,0:0:0:0:
320,192,49888,1,0,0:0:0:0:
192,192,50031,1,0,0:0:0:0:
320,192,50174,1,0,0:0:0:0:
192,192,50316,1,0,0:0:0:0:
448,192,50459,1,0,0:0:0:0:
192,192,50507,1,0,0:0:0:0:
448,192,50555,1,0,0:0:0:0:
192,192,50602,1,0,0:0:0:0:
320,192,50745,1,0,0:0:0:0:
64,192,50888,1,0,0:0:0:0:
448,192,50959,1,0,0:0:0:0:
64,192,51031,1,0,0:0:0:0:
320,192,51174,1,0,0:0:0:0:
192,192,51316,1,0,0:0:0:0:
448,192,51459,1,0,0:0:0:0:
64,192,51531,1,0,0:0:0:0:
448,192,51674,1,0,0:0:0:0:
320,192,51745,1,0,0:0:0:0:
192,192,51888,1,0,0:0:0:0:
64,192,51959,1,0,0:0:0:0:
448,192,52031,1,0,0:0:0:0:
192,192,52102,1,0,0:0:0:0:
320,192,52174,1,0,0:0:0:0:
64,192,52316,1,0,0:0:0:0:
448,192,52459,1,0,0:0:0:0:
320,192,52602,1,0,0:0:0:0:
192,192,52674,1,0,0:0:0:0:
320,192,52816,1,0,0:0:0:0:
448,192,52888,1,0,0:0:0:0:
64,192,53031,1,0,0:0:0:0:
448,192,53102,1,0,0:0:0:0:
192,192,53174,1,0,0:0:0:0:
320,192,53245,1,0,0:0:0:0:
64,192,53316,1,0,0:0:0:0:
448,192,53459,1,0,0:0:0:0:
64,192,53602,1,0,0:0:0:0:
320,192,53745,1,0,0:0:0:0:
192,192,53816,1,0,0:0:0:0:
320,192,53959,1,0,0:0:0:0:
64,192,54031,1,0,0:0:0:0:
448,192,54174,1,0,0:0:0:0:
64,192,54316,1,0,0:0:0:0:
448,192,54316,1,0,0:0:0:0:
64,192,54602,1,0,0:0:0:0:
448,192,54602,1,0,0:0:0:0:
64,192,54745,1,0,0:0:0:0:
64,192,54888,1,0,0:0:0:0:
448,192,54888,1,0,0:0:0:0:
64,192,55174,1,0,0:0:0:0:
448,192,55174,1,0,0:0:0:0:
64,192,55459,1,0,0:0:0:0:
192,192,55531,1,0,0:0:0:0:
64,192,55602,1,0,0:0:0:0:
192,192,55674,1,0,0:0:0:0:
320,192,55745,1,0,0:0:0:0:
448,192,55816,1,0,0:0:0:0:
320,192,55888,1,0,0:0:0:0:
448,192,55959,1,0,0:0:0:0:
64,192,56031,1,0,0:0:0:0:
320,192,56102,1,0,0:0:0:0:
192,192,56174,1,0,0:0:0:0:
448,192,56245,1,0,0:0:0:0:
64,192,56316,1,0,0:0:0:0:
320,192,56388,1,0,0:0:0:0:
192,192,56459,1,0,0:0:0:0:
448,192,56531,1,0,0:0:0:0:
64,192,56602,1,0,0:0:0:0:
320,192,56674,1,0,0:0:0:0:
64,192,56745,1,0,0:0:0:0:
320,192,56816,1,0,0:0:0:0:
192,192,56888,1,0,0:0:0:0:
448,192,56959,1,0,0:0:0:0:
192,192,57031,1,0,0:0:0:0:
448,192,57102,1,0,0:0:0:0:
64,192,57174,1,0,0:0:0:0:
192,192,57245,1,0,0:0:0:0:
320,192,57316,1,0,0:0:0:0:
448,192,57388,1,0,0:0:0:0:
64,192,57459,1,0,0:0:0:0:
192,192,57531,1,0,0:0:0:0:
320,192,57602,1,0,0:0:0:0:
448,192,57674,1,0,0:0:0:0:
64,192,57745,1,0,0:0:0:0:
448,192,57816,1,0,0:0:0:0:
64,192,57888,1,0,0:0:0:0:
448,192,57959,1,0,0:0:0:0:
192,192,58031,1,0,0:0:0:0:
320,192,58102,1,0,0:0:0:0:
192,192,58174,1,0,0:0:0:0:
320,192,58245,1,0,0:0:0:0:
64,192,58316,1,0,0:0:0:0:
448,192,58388,1,0,0:0:0:0:
320,192,58459,1,0,0:0:0:0:
192,192,58531,1,0,0:0:0:0:
64,192,58602,1,0,0:0:0:0:
448,192,58674,1,0,0:0:0:0:
320,192,58745,1,0,0:0:0:0:
192,192,58816,1,0,0:0:0:0:
64,192,58888,1,0,0:0:0:0:
448,192,58959,1,0,0:0:0:0:
64,192,59031,1,0,0:0:0:0:
448,192,59102,1,0,0:0:0:0:
320,192,59174,1,0,0:0:0:0:
192,192,59245,1,0,0:0:0:0:
320,192,59316,1,0,0:0:0:0:
192,192,59388,1,0,0:0:0:0:
64,192,59459,1,0,0:0:0:0:
448,192,59531,1,0,0:0:0:0:
192,192,59602,1,0,0:0:0:0:
320,192,59674,1,0,0:0:0:0:
64,192,59745,1,0,0:0:0:0:
448,192,59816,1,0,0:0:0:0:
192,192,59888,1,0,0:0:0:0:
448,192,59959,1,0,0:0:0:0:
64,192,60031,1,0,0:0:0:0:
448,192,60102,1,0,0:0:0:0:
192,192,60174,1,0,0:0:0:0:
448,192,60245,1,0,0:0:0:0:
192,192,60316,1,0,0:0:0:0:
320,192,60388,1,0,0:0:0:0:
64,192,60459,1,0,0:0:0:0:
320,192,60531,1,0,0:0:0:0:
64,192,60602,1,0,0:0:0:0:
448,192,60674,1,0,0:0:0:0:
192,192,60745,1,0,0:0:0:0:
320,192,60816,1,0,0:0:0:0:
64,192,60888,1,0,0:0:0:0:
448,192,60959,1,0,0:0:0:0:
192,192,61031,1,0,0:0:0:0:
320,192,61102,1,0,0:0:0:0:
64,192,61174,1,0,0:0:0:0:
448,192,61245,1,0,0:0:0:0:
64,192,61316,1,0,0:0:0:0:
448,192,61388,1,0,0:0:0:0:
320,192,61459,1,0,0:0:0:0:
192,192,61531,1,0,0:0:0:0:
320,192,61602,1,0,0:0:0:0:
192,192,61674,1,0,0:0:0:0:
64,192,61745,1,0,0:0:0:0:
448,192,61816,1,0,0:0:0:0:
320,192,61888,1,0,0:0:0:0:
192,192,61959,1,0,0:0:0:0:
64,192,62031,1,0,0:0:0:0:
448,192,62102,1,0,0:0:0:0:
320,192,62174,1,0,0:0:0:0:
192,192,62245,1,0,0:0:0:0:
64,192,62316,1,0,0:0:0:0:
448,192,62388,1,0,0:0:0:0:
192,192,62459,1,0,0:0:0:0:
448,192,62531,1,0,0:0:0:0:
192,192,62602,1,0,0:0:0:0:
320,192,62674,1,0,0:0:0:0:
64,192,62745,1,0,0:0:0:0:
320,192,62816,1,0,0:0:0:0:
64,192,62888,1,0,0:0:0:0:
448,192,62959,1,0,0:0:0:0:
192,192,63031,1,0,0:0:0:0:
320,192,63102,1,0,0:0:0:0:
64,192,63174,1,0,0:0:0:0:
448,192,63245,1,0,0:0:0:0:
192,192,63316,1,0,0:0:0:0:
320,192,63388,1,0,0:0:0:0:
64,192,63459,1,0,0:0:0:0:
448,192,63531,1,0,0:0:0:0:
64,192,63602,1,0,0:0:0:0:
448,192,63674,1,0,0:0:0:0:
320,192,63745,1,0,0:0:0:0:
192,192,63816,1,0,0:0:0:0:
320,192,63888,1,0,0:0:0:0:
192,192,63959,1,0,0:0:0:0:
64,192,64031,1,0,0:0:0:0:
448,192,64102,1,0,0:0:0:0:
320,192,64174,1,0,0:0:0:0:
192,192,64245,1,0,0:0:0:0:
64,192,64316,1,0,0:0:0:0:
448,192,64388,1,0,0:0:0:0:
320,192,64459,1,0,0:0:0:0:
192,192,64531,1,0,0:0:0:0:
64,192,64602,1,0,0:0:0:0:
192,192,64674,1,0,0:0:0:0:
64,192,64745,1,0,0:0:0:0:
192,192,64816,1,0,0:0:0:0:
320,192,64888,1,0,0:0:0:0:
448,192,64959,1,0,0:0:0:0:
320,192,65031,1,0,0:0:0:0:
448,192,65102,1,0,0:0:0:0:
64,192,65174,1,0,0:0:0:0:
320,192,65245,1,0,0:0:0:0:
192,192,65316,1,0,0:0:0:0:
448,192,65388,1,0,0:0:0:0:
64,192,65459,1,0,0:0:0:0:
320,192,65531,1,0,0:0:0:0:
192,192,65602,1,0,0:0:0:0:
448,192,65674,1,0,0:0:0:0:
64,192,65745,1,0,0:0:0:0:
320,192,65816,1,0,0:0:0:0:
64,192,65888,1,0,0:0:0:0:
320,192,65959,1,0,0:0:0:0:
192,192,66031,1,0,0:0:0:0:
448,192,66102,1,0,0:0:0:0:
192,192,66174,1,0,0:0:0:0:
448,192,66245,1,0,0:0:0:0:
64,192,66316,1,0,0:0:0:0:
192,192,66388,1,0,0:0:0:0:
320,192,66459,1,0,0:0:0:0:
448,192,66531,1,0,0:0:0:0:
64,192,66602,1,0,0:0:0:0:
192,192,66674,1,0,0:0:0:0:
320,192,66745,1,0,0:0:0:0:
448,192,66816,1,0,0:0:0:0:
64,192,66888,1,0,0:0:0:0:
448,192,66959,1,0,0:0:0:0:
64,192,67031,1,0,0:0:0:0:
448,192,67102,1,0,0:0:0:0:
192,192,67174,1,0,0:0:0:0:
320,192,67245,1,0,0:0:0:0:
192,192,67316,1,0,0:0:0:0:
320,192,67388,1,0,0:0:0:0:
64,192,67459,1,0,0:0:0:0:
448,192,67531,1,0,0:0:0:0:
320,192,67602,1,0,0:0:0:0:
192,192,67674,1,0,0:0:0:0:
64,192,67745,1,0,0:0:0:0:
448,192,67816,1,0,0:0:0:0:
320,192,67888,1,0,0:0:0:0:
192,192,67959,1,0,0:0:0:0:
64,192,68031,1,0,0:0:0:0:
448,192,68102,1,0,0:0:0:0:
64,192,68174,1,0,0:0:0:0:
448,192,68245,1,0,0:0:0:0:
320,192,68316,1,0,0:0:0:0:
192,192,68388,1,0,0:0:0:0:
320,192,68459,1,0,0:0:0:0:
192,192,68531,1,0,0:0:0:0:
64,192,68602,1,0,0:0:0:0:
448,192,68674,1,0,0:0:0:0:
192,192,68745,1,0,0:0:0:0:
320,192,68816,1,0,0:0:0:0:
64,192,68888,1,0,0:0:0:0:
448,192,68959,1,0,0:0:0:0:
192,192,69031,1,0,0:0:0:0:
448,192,69102,1,0,0:0:0:0:
64,192,69174,1,0,0:0:0:0:
192,192,69245,1,0,0:0:0:0:
64,192,69316,1,0,0:0:0:0:
192,192,69388,1,0,0:0:0:0:
320,192,69459,1,0,0:0:0:0:
448,192,69531,1,0,0:0:0:0:
320,192,69602,1,0,0:0:0:0:
448,192,69674,1,0,0:0:0:0:
64,192,69745,1,0,0:0:0:0:
320,192,69816,1,0,0:0:0:0:
192,192,69888,1,0,0:0:0:0:
448,192,69959,1,0,0:0:0:0:
64,192,70031,1,0,0:0:0:0:
320,192,70102,1,0,0:0:0:0:
192,192,70174,1,0,0:0:0:0:
448,192,70245,1,0,0:0:0:0:
64,192,70316,1,0,0:0:0:0:
320,192,70388,1,0,0:0:0:0:
64,192,70459,1,0,0:0:0:0:
320,192,70531,1,0,0:0:0:0:
192,192,70602,1,0,0:0:0:0:
448,192,70674,1,0,0:0:0:0:
192,192,70745,1,0,0:0:0:0:
448,192,70816,1,0,0:0:0:0:
64,192,70888,1,0,0:0:0:0:
192,192,70959,1,0,0:0:0:0:
320,192,71031,1,0,0:0:0:0:
448,192,71102,1,0,0:0:0:0:
64,192,71174,1,0,0:0:0:0:
192,192,71245,1,0,0:0:0:0:
320,192,71316,1,0,0:0:0:0:
448,192,71388,1,0,0:0:0:0:
64,192,71459,1,0,0:0:0:0:
448,192,71531,1,0,0:0:0:0:
64,192,71602,1,0,0:0:0:0:
448,192,71674,1,0,0:0:0:0:
192,192,71745,1,0,0:0:0:0:
320,192,71816,1,0,0:0:0:0:
192,192,71888,1,0,0:0:0:0:
320,192,71959,1,0,0:0:0:0:
64,192,72031,1,0,0:0:0:0:
448,192,72102,1,0,0:0:0:0:
320,192,72174,1,0,0:0:0:0:
192,192,72245,1,0,0:0:0:0:
64,192,72316,1,0,0:0:0:0:
448,192,72388,1,0,0:0:0:0:
320,192,72459,1,0,0:0:0:0:
192,192,72531,1,0,0:0:0:0:
64,192,72602,1,0,0:0:0:0:
448,192,72674,1,0,0:0:0:0:
64,192,72745,1,0,0:0:0:0:
448,192,72816,1,0,0:0:0:0:
320,192,72888,1,0,0:0:0:0:
192,192,72959,1,0,0:0:0:0:
320,192,73031,1,0,0:0:0:0:
192,192,73102,1,0,0:0:0:0:
64,192,73174,1,0,0:0:0:0:
448,192,73245,1,0,0:0:0:0:
192,192,73316,1,0,0:0:0:0:
320,192,73388,1,0,0:0:0:0:
64,192,73459,1,0,0:0:0:0:
448,192,73531,1,0,0:0:0:0:
192,192,73602,1,0,0:0:0:0:
320,192,73674,1,0,0:0:0:0:
64,192,73745,1,0,0:0:0:0:
64,192,76602,1,0,0:0:0:0:
448,192,76888,1,0,0:0:0:0:
192,192,76959,1,0,0:0:0:0:
448,192,77031,1,0,0:0:0:0:
64,192,77102,1,0,0:0:0:0:
448,192,78888,1,0,0:0:0:0:
192,192,78959,1,0,0:0:0:0:
448,192,79031,1,0,0:0:0:0:
64,192,79102,1,0,0:0:0:0:
448,192,79174,1,0,0:0:0:0:
192,192,79245,1,0,0:0:0:0:
448,192,79316,1,0,0:0:0:0:
64,192,79388,1,0,0:0:0:0:
192,192,81174,1,0,0:0:0:0:
64,192,81459,1,0,0:0:0:0:
192,192,81531,1,0,0:0:0:0:
64,192,81602,1,0,0:0:0:0:
448,192,81674,1,0,0:0:0:0:
64,192,83459,1,0,0:0:0:0:
192,192,83531,1,0,0:0:0:0:
64,192,83602,1,0,0:0:0:0:
448,192,83674,1,0,0:0:0:0:
64,192,83745,1,0,0:0:0:0:
192,192,83816,1,0,0:0:0:0:
64,192,83888,1,0,0:0:0:0:
448,192,83959,1,0,0:0:0:0:
448,192,85745,1,0,0:0:0:0:
64,192,86031,1,0,0:0:0:0:
64,192,86174,1,0,0:0:0:0:
448,192,86245,1,0,0:0:0:0:
64,192,88031,1,0,0:0:0:0:
320,192,88102,1,0,0:0:0:0:
64,192,88174,1,0,0:0:0:0:
448,192,88245,1,0,0:0:0:0:
320,192,88388,1,0,0:0:0:0:
64,192,88459,1,0,0:0:0:0:
448,192,88531,1,0,0:0:0:0:
320,192,90316,1,0,0:0:0:0:
64,192,90602,1,0,0:0:0:0:
448,192,90674,1,0,0:0:0:0:
320,192,90745,1,0,0:0:0:0:
448,192,90816,1,0,0:0:0:0:
192,192,92674,1,0,0:0:0:0:
448,192,92745,1,0,0:0:0:0:
64,192,92816,1,0,0:0:0:0:
448,192,92888,1,0,0:0:0:0:
192,192,92959,1,0,0:0:0:0:
448,192,93031,1,0,0:0:0:0:
64,192,93102,1,0,0:0:0:0:
192,192,94888,1,0,0:0:0:0:
192,192,95245,1,0,0:0:0:0:
64,192,95316,1,0,0:0:0:0:
448,192,95388,1,0,0:0:0:0:
192,192,97245,1,0,0:0:0:0:
64,192,97316,1,0,0:0:0:0:
448,192,97388,1,0,0:0:0:0:
64,192,97459,1,0,0:0:0:0:
192,192,97531,1,0,0:0:0:0:
64,192,97602,1,0,0:0:0:0:
448,192,97674,1,0,0:0:0:0:
192,192,99459,1,0,0:0:0:0:
192,192,99816,1,0,0:0:0:0:
448,192,99888,1,0,0:0:0:0:
64,192,99959,1,0,0:0:0:0:
192,192,101816,1,0,0:0:0:0:
448,192,101888,1,0,0:0:0:0:
64,192,101959,1,0,0:0:0:0:
448,192,102031,1,0,0:0:0:0:
192,192,102102,1,0,0:0:0:0:
448,192,102174,1,0,0:0:0:0:
64,192,102245,1,0,0:0:0:0:
64,192,104031,1,0,0:0:0:0:
192,192,104388,1,0,0:0:0:0:
64,192,104459,1,0,0:0:0:0:
448,192,104531,1,0,0:0:0:0:
192,192,106388,1,0,0:0:0:0:
64,192,106459,1,0,0:0:0:0:
448,192,106531,1,0,0:0:0:0:
64,192,106602,1,0,0:0:0:0:
192,192,106674,1,0,0:0:0:0:
64,192,106745,1,0,0:0:0:0:
448,192,106816,1,0,0:0:0:0:
448,192,108602,1,0,0:0:0:0:
192,192,108959,1,0,0:0:0:0:
448,192,109031,1,0,0:0:0:0:
64,192,109102,1,0,0:0:0:0:
192,192,110959,1,0,0:0:0:0:
448,192,111031,1,0,0:0:0:0:
64,192,111102,1,0,0:0:0:0:
448,192,111174,1,0,0:0:0:0:
192,192,111245,1,0,0:0:0:0:
448,192,111316,1,0,0:0:0:0:
64,192,111388,1,0,0:0:0:0:
192,192,126888,5,0,0:0:0:0:
64,192,127174,1,0,0:0:0:0:
192,192,127245,1,0,0:0:0:0:
64,192,127316,1,0,0:0:0:0:
448,192,127388,1,0,0:0:0:0:
448,192,129174,1,0,0:0:0:0:
192,192,129245,1,0,0:0:0:0:
448,192,129316,1,0,0:0:0:0:
64,192,129388,1,0,0:0:0:0:
448,192,129459,1,0,0:0:0:0:
192,192,129531,1,0,0:0:0:0:
448,192,129602,1,0,0:0:0:0:
64,192,129674,1,0,0:0:0:0:
64,192,134388,1,0,0:0:0:0:
192,192,134459,1,0,0:0:0:0:
320,192,134531,1,0,0:0:0:0:
448,192,134602,1,0,0:0:0:0:
64,192,134674,1,0,0:0:0:0:
448,192,134745,1,0,0:0:0:0:
320,192,134816,1,0,0:0:0:0:
448,192,134888,1,0,0:0:0:0:
64,192,134959,1,0,0:0:0:0:
192,192,135031,1,0,0:0:0:0:
64,192,135102,1,0,0:0:0:0:
448,192,135174,1,0,0:0:0:0:
64,192,135245,1,0,0:0:0:0:
192,192,135316,1,0,0:0:0:0:
320,192,135388,1,0,0:0:0:0:
192,192,135459,1,0,0:0:0:0:
64,192,135531,1,0,0:0:0:0:
448,192,135602,1,0,0:0:0:0:
64,192,135674,1,0,0:0:0:0:
448,192,135745,1,0,0:0:0:0:
320,192,135816,1,0,0:0:0:0:
192,192,135888,1,0,0:0:0:0:
320,192,135959,1,0,0:0:0:0:
448,192,136031,1,0,0:0:0:0:
64,192,136102,1,0,0:0:0:0:
192,192,136174,1,0,0:0:0:0:
320,192,136245,1,0,0:0:0:0:
448,192,136316,1,0,0:0:0:0:
64,192,136388,1,0,0:0:0:0:
448,192,136459,1,0,0:0:0:0:
64,192,136531,1,0,0:0:0:0:
320,192,136602,1,0,0:0:0:0:
192,192,136674,1,0,0:0:0:0:
448,192,136745,1,0,0:0:0:0:
192,192,136816,1,0,0:0:0:0:
320,192,136888,1,0,0:0:0:0:
64,192,136959,1,0,0:0:0:0:
448,192,137031,1,0,0:0:0:0:
192,192,137102,1,0,0:0:0:0:
448,192,137174,1,0,0:0:0:0:
64,192,137245,1,0,0:0:0:0:
192,192,137316,1,0,0:0:0:0:
320,192,137388,1,0,0:0:0:0:
192,192,137459,1,0,0:0:0:0:
64,192,137531,1,0,0:0:0:0:
448,192,137602,1,0,0:0:0:0:
64,192,137674,1,0,0:0:0:0:
320,192,137745,1,0,0:0:0:0:
64,192,137816,1,0,0:0:0:0:
448,192,137888,1,0,0:0:0:0:
192,192,137959,1,0,0:0:0:0:
320,192,138031,1,0,0:0:0:0:
64,192,138102,1,0,0:0:0:0:
448,192,138174,1,0,0:0:0:0:
64,192,138245,1,0,0:0:0:0:
448,192,138316,1,0,0:0:0:0:
320,192,138388,1,0,0:0:0:0:
448,192,138459,1,0,0:0:0:0:
64,192,138531,1,0,0:0:0:0:
192,192,138602,1,0,0:0:0:0:
320,192,138674,1,0,0:0:0:0:
448,192,138745,1,0,0:0:0:0:
64,192,138816,1,0,0:0:0:0:
320,192,138888,1,0,0:0:0:0:
192,192,138959,1,0,0:0:0:0:
448,192,139031,1,0,0:0:0:0:
64,192,139102,1,0,0:0:0:0:
448,192,139174,1,0,0:0:0:0:
192,192,139245,1,0,0:0:0:0:
320,192,139316,1,0,0:0:0:0:
64,192,139388,1,0,0:0:0:0:
448,192,139459,1,0,0:0:0:0:
64,192,139531,1,0,0:0:0:0:
320,192,139602,1,0,0:0:0:0:
192,192,139674,1,0,0:0:0:0:
448,192,139745,1,0,0:0:0:0:
64,192,139816,1,0,0:0:0:0:
320,192,139888,1,0,0:0:0:0:
192,192,139959,1,0,0:0:0:0:
320,192,140031,1,0,0:0:0:0:
192,192,140102,1,0,0:0:0:0:
448,192,140174,1,0,0:0:0:0:
64,192,140245,1,0,0:0:0:0:
448,192,140316,1,0,0:0:0:0:
192,192,140388,1,0,0:0:0:0:
320,192,140459,1,0,0:0:0:0:
64,192,140531,1,0,0:0:0:0:
320,192,140602,1,0,0:0:0:0:
192,192,140674,1,0,0:0:0:0:
448,192,140745,1,0,0:0:0:0:
64,192,140816,1,0,0:0:0:0:
320,192,140888,1,0,0:0:0:0:
64,192,140959,1,0,0:0:0:0:
320,192,141031,1,0,0:0:0:0:
192,192,141102,1,0,0:0:0:0:
448,192,141174,1,0,0:0:0:0:
320,192,141245,1,0,0:0:0:0:
192,192,141316,1,0,0:0:0:0:
320,192,141388,1,0,0:0:0:0:
448,192,141459,1,0,0:0:0:0:
64,192,141531,1,0,0:0:0:0:
448,192,141602,1,0,0:0:0:0:
320,192,141674,1,0,0:0:0:0:
192,192,141745,1,0,0:0:0:0:
64,192,141816,1,0,0:0:0:0:
192,192,141888,1,0,0:0:0:0:
64,192,141959,1,0,0:0:0:0:
448,192,142031,1,0,0:0:0:0:
320,192,142102,1,0,0:0:0:0:
448,192,142174,1,0,0:0:0:0:
64,192,142245,1,0,0:0:0:0:
192,192,142316,1,0,0:0:0:0:
320,192,142388,1,0,0:0:0:0:
448,192,142459,1,0,0:0:0:0:
320,192,142531,1,0,0:0:0:0:
192,192,142602,1,0,0:0:0:0:
64,192,142674,1,0,0:0:0:0:
448,192,142745,1,0,0:0:0:0:
64,192,142816,1,0,0:0:0:0:
320,192,142888,1,0,0:0:0:0:
64,192,142959,1,0,0:0:0:0:
448,192,143031,1,0,0:0:0:0:
192,192,143102,1,0,0:0:0:0:
448,192,143174,1,0,0:0:0:0:
64,192,143245,1,0,0:0:0:0:
192,192,143316,1,0,0:0:0:0:
64,192,143388,1,0,0:0:0:0:
448,192,143459,1,0,0:0:0:0:
192,192,143531,1,0,0:0:0:0:
320,192,143602,1,0,0:0:0:0:
64,192,143674,1,0,0:0:0:0:
320,192,143745,1,0,0:0:0:0:
192,192,143816,1,0,0:0:0:0:
448,192,143888,1,0,0:0:0:0:
64,192,143959,1,0,0:0:0:0:
448,192,144031,1,0,0:0:0:0:
192,192,144102,1,0,0:0:0:0:
320,192,144174,1,0,0:0:0:0:
64,192,144245,1,0,0:0:0:0:
320,192,144316,1,0,0:0:0:0:
192,192,144388,1,0,0:0:0:0:
448,192,144459,1,0,0:0:0:0:
64,192,144531,1,0,0:0:0:0:
320,192,144602,1,0,0:0:0:0:
64,192,144674,1,0,0:0:0:0:
192,192,144745,1,0,0:0:0:0:
320,192,144816,1,0,0:0:0:0:
448,192,144888,1,0,0:0:0:0:
320,192,144959,1,0,0:0:0:0:
192,192,145031,1,0,0:0:0:0:
64,192,145102,1,0,0:0:0:0:
448,192,145174,1,0,0:0:0:0:
192,192,145245,1,0,0:0:0:0:
320,192,145316,1,0,0:0:0:0:
64,192,145388,1,0,0:0:0:0:
448,192,145459,1,0,0:0:0:0:
192,192,145531,1,0,0:0:0:0:
320,192,145602,1,0,0:0:0:0:
192,192,145674,1,0,0:0:0:0:
448,192,145745,1,0,0:0:0:0:
320,192,145816,1,0,0:0:0:0:
192,192,145888,1,0,0:0:0:0:
320,192,145959,1,0,0:0:0:0:
448,192,146031,1,0,0:0:0:0:
64,192,146102,1,0,0:0:0:0:
192,192,146174,1,0,0:0:0:0:
64,192,146245,1,0,0:0:0:0:
448,192,146316,1,0,0:0:0:0:
320,192,146388,1,0,0:0:0:0:
192,192,146459,1,0,0:0:0:0:
320,192,146531,1,0,0:0:0:0:
448,192,146602,1,0,0:0:0:0:
64,192,146674,1,0,0:0:0:0:
448,192,146745,1,0,0:0:0:0:
64,192,146816,1,0,0:0:0:0:
320,192,146888,1,0,0:0:0:0:
64,192,146959,1,0,0:0:0:0:
320,192,147031,1,0,0:0:0:0:
192,192,147102,1,0,0:0:0:0:
448,192,147174,1,0,0:0:0:0:
192,192,147245,1,0,0:0:0:0:
320,192,147316,1,0,0:0:0:0:
64,192,147388,1,0,0:0:0:0:
448,192,147459,1,0,0:0:0:0:
192,192,147531,1,0,0:0:0:0:
448,192,147602,1,0,0:0:0:0:
64,192,147674,1,0,0:0:0:0:
320,192,147745,1,0,0:0:0:0:
64,192,147816,1,0,0:0:0:0:
448,192,147888,1,0,0:0:0:0:
192,192,147959,1,0,0:0:0:0:
448,192,148031,1,0,0:0:0:0:
64,192,148102,1,0,0:0:0:0:
192,192,148174,1,0,0:0:0:0:
64,192,148245,1,0,0:0:0:0:
192,192,148316,1,0,0:0:0:0:
320,192,148388,1,0,0:0:0:0:
448,192,148459,1,0,0:0:0:0:
64,192,148531,1,0,0:0:0:0:
448,192,148602,1,0,0:0:0:0:
192,192,148674,1,0,0:0:0:0:
320,192,148745,1,0,0:0:0:0:
192,192,148816,1,0,0:0:0:0:
320,192,148888,1,0,0:0:0:0:
64,192,148959,1,0,0:0:0:0:
448,192,149031,1,0,0:0:0:0:
320,192,149102,1,0,0:0:0:0:
448,192,149174,1,0,0:0:0:0:
64,192,149245,1,0,0:0:0:0:
192,192,149316,1,0,0:0:0:0:
64,192,149388,1,0,0:0:0:0:
192,192,149459,1,0,0:0:0:0:
320,192,149531,1,0,0:0:0:0:
448,192,149602,1,0,0:0:0:0:
64,192,149674,1,0,0:0:0:0:
320,192,149745,1,0,0:0:0:0:
192,192,149816,1,0,0:0:0:0:
448,192,149888,1,0,0:0:0:0:
192,192,149959,1,0,0:0:0:0:
448,192,150031,1,0,0:0:0:0:
64,192,150102,1,0,0:0:0:0:
320,192,150174,1,0,0:0:0:0:
192,192,150245,1,0,0:0:0:0:
320,192,150316,1,0,0:0:0:0:
64,192,150388,1,0,0:0:0:0:
448,192,150459,1,0,0:0:0:0:
64,192,150531,1,0,0:0:0:0:
448,192,150602,1,0,0:0:0:0:
320,192,150674,1,0,0:0:0:0:
192,192,150745,1,0,0:0:0:0:
64,192,150816,1,0,0:0:0:0:
448,192,150888,1,0,0:0:0:0:
320,192,150959,1,0,0:0:0:0:
192,192,151031,1,0,0:0:0:0:
320,192,151102,1,0,0:0:0:0:
192,192,151174,1,0,0:0:0:0:
64,192,151245,1,0,0:0:0:0:
448,192,151316,1,0,0:0:0:0:
64,192,151388,1,0,0:0:0:0:
320,192,151459,1,0,0:0:0:0:
192,192,151531,1,0,0:0:0:0:
448,192,151602,1,0,0:0:0:0:
64,192,151674,1,0,0:0:0:0:
448,192,151745,1,0,0:0:0:0:
320,192,151816,1,0,0:0:0:0:
192,192,151888,1,0,0:0:0:0:
64,192,151959,1,0,0:0:0:0:
448,192,152031,1,0,0:0:0:0:
192,192,152102,1,0,0:0:0:0:
320,192,152174,1,0,0:0:0:0:
64,192,152245,1,0,0:0:0:0:
448,192,152316,1,0,0:0:0:0:
320,192,152388,1,0,0:0:0:0:
192,192,152459,1,0,0:0:0:0:
64,192,152531,1,0,0:0:0:0:
448,192,152602,1,0,0:0:0:0:
64,192,152674,1,0,0:0:0:0:
320,192,152745,1,0,0:0:0:0:
192,192,152816,1,0,0:0:0:0:
448,192,152888,1,0,0:0:0:0:
64,192,152959,1,0,0:0:0:0:
448,192,153031,1,0,0:0:0:0:
192,192,153102,1,0,0:0:0:0:
448,192,153174,1,0,0:0:0:0:
64,192,153245,1,0,0:0:0:0:
320,192,153316,1,0,0:0:0:0:
64,192,153388,1,0,0:0:0:0:
448,192,153459,1,0,0:0:0:0:
64,192,153531,1,0,0:0:0:0:
320,192,153602,1,0,0:0:0:0:
192,192,153674,1,0,0:0:0:0:
320,192,153745,1,0,0:0:0:0:
64,192,153816,1,0,0:0:0:0:
448,192,153888,1,0,0:0:0:0:
64,192,153959,1,0,0:0:0:0:
448,192,154031,1,0,0:0:0:0:
192,192,154102,1,0,0:0:0:0:
320,192,154174,1,0,0:0:0:0:
192,192,154245,1,0,0:0:0:0:
448,192,154316,1,0,0:0:0:0:
64,192,154388,1,0,0:0:0:0:
320,192,154459,1,0,0:0:0:0:
192,192,154531,1,0,0:0:0:0:
448,192,154602,1,0,0:0:0:0:
64,192,154674,1,0,0:0:0:0:
448,192,154745,1,0,0:0:0:0:
64,192,154816,1,0,0:0:0:0:
192,192,154888,1,0,0:0:0:0:
320,192,154959,1,0,0:0:0:0:
448,192,155031,1,0,0:0:0:0:
320,192,155102,1,0,0:0:0:0:
192,192,155174,1,0,0:0:0:0:
64,192,155245,1,0,0:0:0:0:
448,192,155316,1,0,0:0:0:0:
320,192,155388,1,0,0:0:0:0:
448,192,155459,1,0,0:0:0:0:
64,192,155531,1,0,0:0:0:0:
320,192,155602,1,0,0:0:0:0:
192,192,155674,1,0,0:0:0:0:
320,192,155745,1,0,0:0:0:0:
64,192,155816,1,0,0:0:0:0:
448,192,155888,1,0,0:0:0:0:
64,192,155959,1,0,0:0:0:0:
192,192,156031,1,0,0:0:0:0:
64,192,156102,1,0,0:0:0:0:
448,192,156174,1,0,0:0:0:0:
320,192,156245,1,0,0:0:0:0:
192,192,156316,1,0,0:0:0:0:
64,192,156388,1,0,0:0:0:0:
448,192,156459,1,0,0:0:0:0:
64,192,156531,1,0,0:0:0:0:
448,192,156602,1,0,0:0:0:0:
192,192,156674,1,0,0:0:0:0:
448,192,156745,1,0,0:0:0:0:
64,192,156816,1,0,0:0:0:0:
320,192,156888,1,0,0:0:0:0:
192,192,156959,1,0,0:0:0:0:
448,192,157031,1,0,0:0:0:0:
64,192,157102,1,0,0:0:0:0:
192,192,157174,1,0,0:0:0:0:
320,192,157245,1,0,0:0:0:0:
448,192,157316,1,0,0:0:0:0:
64,192,157388,1,0,0:0:0:0:
448,192,157459,1,0,0:0:0:0:
320,192,157531,1,0,0:0:0:0:
192,192,157602,1,0,0:0:0:0:
64,192,157674,1,0,0:0:0:0:
448,192,157745,1,0,0:0:0:0:
64,192,157816,1,0,0:0:0:0:
192,192,157888,1,0,0:0:0:0:
320,192,157959,1,0,0:0:0:0:
448,192,158031,1,0,0:0:0:0:
64,192,158102,1,0,0:0:0:0:
192,192,158174,1,0,0:0:0:0:
320,192,158245,1,0,0:0:0:0:
192,192,158316,1,0,0:0:0:0:
320,192,158388,1,0,0:0:0:0:
448,192,158459,1,0,0:0:0:0:
64,192,158531,1,0,0:0:0:0:
448,192,158602,1,0,0:0:0:0:
320,192,158674,1,0,0:0:0:0:
192,192,158745,1,0,0:0:0:0:
64,192,158816,1,0,0:0:0:0:
192,192,158888,1,0,0:0:0:0:
320,192,158959,1,0,0:0:0:0:
448,192,159031,1,0,0:0:0:0:
64,192,159102,1,0,0:0:0:0:
192,192,159174,1,0,0:0:0:0:
64,192,159245,1,0,0:0:0:0:
192,192,159316,1,0,0:0:0:0:
320,192,159388,1,0,0:0:0:0:
448,192,159459,1,0,0:0:0:0:
192,192,159531,1,0,0:0:0:0:
320,192,159602,1,0,0:0:0:0:
192,192,159674,1,0,0:0:0:0:
448,192,159745,1,0,0:0:0:0:
64,192,159816,1,0,0:0:0:0:
448,192,159888,1,0,0:0:0:0:
192,192,159959,1,0,0:0:0:0:
320,192,160031,1,0,0:0:0:0:
64,192,160102,1,0,0:0:0:0:
320,192,160174,1,0,0:0:0:0:
64,192,160245,1,0,0:0:0:0:
448,192,160316,1,0,0:0:0:0:
192,192,160388,1,0,0:0:0:0:
448,192,160459,1,0,0:0:0:0:
64,192,160531,1,0,0:0:0:0:
320,192,160602,1,0,0:0:0:0:
192,192,160674,1,0,0:0:0:0:
448,192,160745,1,0,0:0:0:0:
192,192,160816,1,0,0:0:0:0:
320,192,160888,1,0,0:0:0:0:
64,192,160959,1,0,0:0:0:0:
448,192,161031,1,0,0:0:0:0:
64,192,161102,1,0,0:0:0:0:
192,192,161174,1,0,0:0:0:0:
64,192,161245,1,0,0:0:0:0:
448,192,161316,1,0,0:0:0:0:
320,192,161388,1,0,0:0:0:0:
448,192,161459,1,0,0:0:0:0:
64,192,161531,1,0,0:0:0:0:
320,192,161602,1,0,0:0:0:0:
64,192,161674,1,0,0:0:0:0:
448,192,161745,1,0,0:0:0:0:
320,192,161816,1,0,0:0:0:0:
192,192,161888,1,0,0:0:0:0:
64,192,161959,1,0,0:0:0:0:
192,192,162031,1,0,0:0:0:0:
320,192,162102,1,0,0:0:0:0:
448,192,162174,1,0,0:0:0:0:
64,192,162245,1,0,0:0:0:0:
448,192,162316,1,0,0:0:0:0:
320,192,162388,1,0,0:0:0:0:
192,192,162459,1,0,0:0:0:0:
64,192,162531,1,0,0:0:0:0:
192,192,162602,1,0,0:0:0:0:
320,192,162674,1,0,0:0:0:0:
448,192,162745,1,0,0:0:0:0:
64,192,162816,1,0,0:0:0:0:
192,192,162888,1,0,0:0:0:0:
64,192,162959,1,0,0:0:0:0:
320,192,163031,1,0,0:0:0:0:
192,192,163102,1,0,0:0:0:0:
448,192,163174,1,0,0:0:0:0:
192,192,163245,1,0,0:0:0:0:
320,192,163316,1,0,0:0:0:0:
64,192,163388,1,0,0:0:0:0:
448,192,163459,1,0,0:0:0:0:
320,192,163531,1,0,0:0:0:0:
192,192,163602,1,0,0:0:0:0:
64,192,163674,1,0,0:0:0:0:
448,192,163745,1,0,0:0:0:0:
320,192,163816,1,0,0:0:0:0:
192,192,163888,1,0,0:0:0:0:
320,192,163959,1,0,0:0:0:0:
448,192,164031,1,0,0:0:0:0:
192,192,164102,1,0,0:0:0:0:
320,192,164174,1,0,0:0:0:0:
192,192,164245,1,0,0:0:0:0:
448,192,164316,1,0,0:0:0:0:
64,192,164388,1,0,0:0:0:0:
320,192,164459,1,0,0:0:0:0:
64,192,164531,1,0,0:0:0:0:
448,192,164602,1,0,0:0:0:0:
192,192,164674,1,0,0:0:0:0:
320,192,164745,1,0,0:0:0:0:
192,192,164816,1,0,0:0:0:0:
448,192,164888,1,0,0:0:0:0:
64,192,164959,1,0,0:0:0:0:
448,192,165031,1,0,0:0:0:0:
64,192,165102,1,0,0:0:0:0:
192,192,165174,1,0,0:0:0:0:
64,192,165245,1,0,0:0:0:0:
192,192,165316,1,0,0:0:0:0:
320,192,165388,1,0,0:0:0:0:
448,192,165459,1,0,0:0:0:0:
320,192,165531,1,0,0:0:0:0:
192,192,165602,1,0,0:0:0:0:
64,192,165674,1,0,0:0:0:0:
448,192,165745,1,0,0:0:0:0:
320,192,165816,1,0,0:0:0:0:
448,192,165888,1,0,0:0:0:0:
64,192,165959,1,0,0:0:0:0:
192,192,166031,1,0,0:0:0:0:
64,192,166102,1,0,0:0:0:0:
448,192,166174,1,0,0:0:0:0:
320,192,166245,1,0,0:0:0:0:
448,192,166316,1,0,0:0:0:0:
64,192,166388,1,0,0:0:0:0:
320,192,166459,1,0,0:0:0:0:
64,192,166531,1,0,0:0:0:0:
320,192,166602,1,0,0:0:0:0:
192,192,166674,1,0,0:0:0:0:
448,192,166745,1,0,0:0:0:0:
64,192,166816,1,0,0:0:0:0:
448,192,166888,1,0,0:0:0:0:
320,192,166959,1,0,0:0:0:0:
192,192,167031,1,0,0:0:0:0:
320,192,167102,1,0,0:0:0:0:
192,192,167174,1,0,0:0:0:0:
64,192,167245,1,0,0:0:0:0:
448,192,167316,1,0,0:0:0:0:
192,192,167388,1,0,0:0:0:0:
448,192,167459,1,0,0:0:0:0:
64,192,167531,1,0,0:0:0:0:
320,192,167602,1,0,0:0:0:0:
64,192,167674,1,0,0:0:0:0:
320,192,167745,1,0,0:0:0:0:
192,192,167816,1,0,0:0:0:0:
448,192,167888,1,0,0:0:0:0:
64,192,167959,1,0,0:0:0:0:
192,192,168031,1,0,0:0:0:0:
320,192,168102,1,0,0:0:0:0:
448,192,168174,1,0,0:0:0:0:
320,192,168245,1,0,0:0:0:0:
448,192,168316,1,0,0:0:0:0:
64,192,168388,1,0,0:0:0:0:
192,192,168459,1,0,0:0:0:0:
320,192,168531,1,0,0:0:0:0:
192,192,168602,1,0,0:0:0:0:
64,192,168674,1,0,0:0:0:0:
448,192,168745,1,0,0:0:0:0:
64,192,168816,1,0,0:0:0:0:
448,192,168888,1,0,0:0:0:0:
192,192,168959,1,0,0:0:0:0:
320,192,169031,1,0,0:0:0:0:
64,192,169102,1,0,0:0:0:0:
448,192,169174,1,0,0:0:0:0:
192,192,169245,1,0,0:0:0:0:
320,192,169316,1,0,0:0:0:0:
192,192,169388,1,0,0:0:0:0:
320,192,169459,1,0,0:0:0:0:
64,192,169531,1,0,0:0:0:0:
448,192,169602,1,0,0:0:0:0:
64,192,169674,1,0,0:0:0:0:
192,192,169745,1,0,0:0:0:0:
320,192,169816,1,0,0:0:0:0:
448,192,169888,1,0,0:0:0:0:
64,192,169959,1,0,0:0:0:0:
320,192,170031,1,0,0:0:0:0:
192,192,170102,1,0,0:0:0:0:
320,192,170174,1,0,0:0:0:0:
64,192,170245,1,0,0:0:0:0:
448,192,170316,1,0,0:0:0:0:
320,192,170388,1,0,0:0:0:0:
192,192,170459,1,0,0:0:0:0:
320,192,170531,1,0,0:0:0:0:
448,192,170602,1,0,0:0:0:0:
64,192,170674,1,0,0:0:0:0:
320,192,170745,1,0,0:0:0:0:
192,192,170816,1,0,0:0:0:0:
320,192,170888,1,0,0:0:0:0:
64,192,170959,1,0,0:0:0:0:
192,192,171031,1,0,0:0:0:0:
320,192,171102,1,0,0:0:0:0:
448,192,171174,1,0,0:0:0:0:
64,192,171245,1,0,0:0:0:0:
448,192,171316,1,0,0:0:0:0:
320,192,171388,1,0,0:0:0:0:
448,192,171459,1,0,0:0:0:0:
64,192,171531,1,0,0:0:0:0:
192,192,171602,1,0,0:0:0:0:
64,192,171674,1,0,0:0:0:0:
448,192,171745,1,0,0:0:0:0:
64,192,171816,1,0,0:0:0:0:
192,192,171888,1,0,0:0:0:0:
320,192,171959,1,0,0:0:0:0:
192,192,172031,1,0,0:0:0:0:
64,192,172102,1,0,0:0:0:0:
448,192,172174,1,0,0:0:0:0:
64,192,172245,1,0,0:0:0:0:
448,192,172316,1,0,0:0:0:0:
320,192,172388,1,0,0:0:0:0:
192,192,172459,1,0,0:0:0:0:
320,192,172531,1,0,0:0:0:0:
448,192,172602,1,0,0:0:0:0:
64,192,172674,1,0,0:0:0:0:
192,192,172745,1,0,0:0:0:0:
320,192,172816,1,0,0:0:0:0:
448,192,172888,1,0,0:0:0:0:
64,192,172959,1,0,0:0:0:0:
448,192,173031,1,0,0:0:0:0:
64,192,173102,1,0,0:0:0:0:
320,192,173174,1,0,0:0:0:0:
192,192,173245,1,0,0:0:0:0:
448,192,173316,1,0,0:0:0:0:
192,192,173388,1,0,0:0:0:0:
320,192,173459,1,0,0:0:0:0:
64,192,173531,1,0,0:0:0:0:
448,192,173602,1,0,0:0:0:0:
192,192,173674,1,0,0:0:0:0:
448,192,173745,1,0,0:0:0:0:
64,192,173816,1,0,0:0:0:0:
192,192,173888,1,0,0:0:0:0:
320,192,173959,1,0,0:0:0:0:
192,192,174031,1,0,0:0:0:0:
64,192,174102,1,0,0:0:0:0:
448,192,174174,1,0,0:0:0:0:
64,192,174245,1,0,0:0:0:0:
320,192,174316,1,0,0:0:0:0:
64,192,174388,1,0,0:0:0:0:
448,192,174459,1,0,0:0:0:0:
192,192,174531,1,0,0:0:0:0:
320,192,174602,1,0,0:0:0:0:
64,192,174674,1,0,0:0:0:0:
448,192,174745,1,0,0:0:0:0:
64,192,174816,1,0,0:0:0:0:
448,192,174888,1,0,0:0:0:0:
320,192,174959,1,0,0:0:0:0:
448,192,175031,1,0,0:0:0:0:
64,192,175102,1,0,0:0:0:0:
192,192,175174,1,0,0:0:0:0:
320,192,175245,1,0,0:0:0:0:
448,192,175316,1,0,0:0:0:0:
64,192,175388,1,0,0:0:0:0:
320,192,175459,1,0,0:0:0:0:
192,192,175531,1,0,0:0:0:0:
448,192,175602,1,0,0:0:0:0:
64,192,175674,1,0,0:0:0:0:
448,192,175745,1,0,0:0:0:0:
192,192,175816,1,0,0:0:0:0:
320,192,175888,1,0,0:0:0:0:
64,192,175959,1,0,0:0:0:0:
448,192,176031,1,0,0:0:0:0:
64,192,176102,1,0,0:0:0:0:
320,192,176174,1,0,0:0:0:0:
192,192,176245,1,0,0:0:0:0:
448,192,176316,1,0,0:0:0:0:
64,192,176388,1,0,0:0:0:0:
320,192,176459,1,0,0:0:0:0:
192,192,176531,1,0,0:0:0:0:
320,192,176602,1,0,0:0:0:0:
192,192,176674,1,0,0:0:0:0:
448,192,176745,1,0,0:0:0:0:
64,192,176816,1,0,0:0:0:0:
448,192,176888,1,0,0:0:0:0:
192,192,176959,1,0,0:0:0:0:
320,192,177031,1,0,0:0:0:0:
64,192,177102,1,0,0:0:0:0:
320,192,177174,1,0,0:0:0:0:
192,192,177245,1,0,0:0:0:0:
448,192,177316,1,0,0:0:0:0:
64,192,177388,1,0,0:0:0:0:
320,192,177459,1,0,0:0:0:0:
64,192,177531,1,0,0:0:0:0:
320,192,177602,1,0,0:0:0:0:
192,192,177674,1,0,0:0:0:0:
448,192,177745,1,0,0:0:0:0:
320,192,177816,1,0,0:0:0:0:
192,192,177888,1,0,0:0:0:0:
320,192,177959,1,0,0:0:0:0:
448,192,178031,1,0,0:0:0:0:
64,192,178102,1,0,0:0:0:0:
448,192,178174,1,0,0:0:0:0:
320,192,178245,1,0,0:0:0:0:
192,192,178316,1,0,0:0:0:0:
64,192,178388,1,0,0:0:0:0:
192,192,178459,1,0,0:0:0:0:
64,192,178531,1,0,0:0:0:0:
448,192,178602,1,0,0:0:0:0:
320,192,178674,1,0,0:0:0:0:
448,192,178745,1,0,0:0:0:0:
64,192,178816,1,0,0:0:0:0:
192,192,178888,1,0,0:0:0:0:
320,192,178959,1,0,0:0:0:0:
448,192,179031,1,0,0:0:0:0:
320,192,179102,1,0,0:0:0:0:
192,192,179174,1,0,0:0:0:0:
64,192,179245,1,0,0:0:0:0:
448,192,179316,1,0,0:0:0:0:
64,192,179388,1,0,0:0:0:0:
320,192,179459,1,0,0:0:0:0:
64,192,179531,1,0,0:0:0:0:
448,192,179602,1,0,0:0:0:0:
192,192,179674,1,0,0:0:0:0:
448,192,179745,1,0,0:0:0:0:
64,192,179816,1,0,0:0:0:0:
192,192,179888,1,0,0:0:0:0:
64,192,179959,1,0,0:0:0:0:
448,192,180031,1,0,0:0:0:0:
192,192,180102,1,0,0:0:0:0:
320,192,180174,1,0,0:0:0:0:
64,192,180245,1,0,0:0:0:0:
320,192,180316,1,0,0:0:0:0:
192,192,180388,1,0,0:0:0:0:
448,192,180459,1,0,0:0:0:0:
64,192,180531,1,0,0:0:0:0:
448,192,180602,1,0,0:0:0:0:
192,192,180674,1,0,0:0:0:0:
320,192,180745,1,0,0:0:0:0:
64,192,180816,1,0,0:0:0:0:
320,192,180888,1,0,0:0:0:0:
192,192,180959,1,0,0:0:0:0:
448,192,181031,1,0,0:0:0:0:
64,192,181102,1,0,0:0:0:0:
320,192,181174,1,0,0:0:0:0:
64,192,181245,1,0,0:0:0:0:
192,192,181316,1,0,0:0:0:0:
320,192,181388,1,0,0:0:0:0:
448,192,181459,1,0,0:0:0:0:
320,192,181531,1,0,0:0:0:0:
192,192,181602,1,0,0:0:0:0:
64,192,181674,1,0,0:0:0:0:
448,192,181745,1,0,0:0:0:0:
192,192,181816,1,0,0:0:0:0:
320,192,181888,1,0,0:0:0:0:
64,192,181959,1,0,0:0:0:0:
448,192,182031,1,0,0:0:0:0:
192,192,182102,1,0,0:0:0:0:
320,192,182174,1,0,0:0:0:0:
192,192,182245,1,0,0:0:0:0:
448,192,182316,1,0,0:0:0:0:
320,192,182388,1,0,0:0:0:0:
192,192,182459,1,0,0:0:0:0:
320,192,182531,1,0,0:0:0:0:
448,192,182602,1,0,0:0:0:0:
64,192,182674,1,0,0:0:0:0:
192,192,182745,1,0,0:0:0:0:
64,192,182816,1,0,0:0:0:0:
448,192,182888,1,0,0:0:0:0:
320,192,182959,1,0,0:0:0:0:
192,192,183031,1,0,0:0:0:0:
320,192,183102,1,0,0:0:0:0:
448,192,183174,1,0,0:0:0:0:
64,192,183245,1,0,0:0:0:0:
448,192,183316,1,0,0:0:0:0:
64,192,183388,1,0,0:0:0:0:
320,192,183459,1,0,0:0:0:0:
64,192,183531,1,0,0:0:0:0:
320,192,183602,1,0,0:0:0:0:
192,192,183674,1,0,0:0:0:0:
448,192,183745,1,0,0:0:0:0:
192,192,183816,1,0,0:0:0:0:
320,192,183888,1,0,0:0:0:0:
64,192,183959,1,0,0:0:0:0:
448,192,184031,1,0,0:0:0:0:
192,192,184102,1,0,0:0:0:0:
448,192,184174,1,0,0:0:0:0:
64,192,184245,1,0,0:0:0:0:
320,192,184316,1,0,0:0:0:0:
64,192,184388,1,0,0:0:0:0:
448,192,184459,1,0,0:0:0:0:
192,192,184531,1,0,0:0:0:0:
448,192,184602,1,0,0:0:0:0:
64,192,184674,1,0,0:0:0:0:
192,192,184745,1,0,0:0:0:0:
64,192,184816,1,0,0:0:0:0:
192,192,184888,1,0,0:0:0:0:
320,192,184959,1,0,0:0:0:0:
448,192,185031,1,0,0:0:0:0:
64,192,185102,1,0,0:0:0:0:
448,192,185174,1,0,0:0:0:0:
192,192,185245,1,0,0:0:0:0:
320,192,185316,1,0,0:0:0:0:
192,192,185388,1,0,0:0:0:0:
320,192,185459,1,0,0:0:0:0:
64,192,185531,1,0,0:0:0:0:
448,192,185602,1,0,0:0:0:0:
320,192,185674,1,0,0:0:0:0:
448,192,185745,1,0,0:0:0:0:
64,192,185816,1,0,0:0:0:0:
192,192,185888,1,0,0:0:0:0:
64,192,185959,1,0,0:0:0:0:
192,192,186031,1,0,0:0:0:0:
320,192,186102,1,0,0:0:0:0:
448,192,186174,1,0,0:0:0:0:
64,192,186245,1,0,0:0:0:0:
320,192,186316,1,0,0:0:0:0:
192,192,186388,1,0,0:0:0:0:
448,192,186459,1,0,0:0:0:0:
192,192,186531,1,0,0:0:0:0:
448,192,186602,1,0,0:0:0:0:
64,192,186674,1,0,0:0:0:0:
320,192,186745,1,0,0:0:0:0:
192,192,186816,1,0,0:0:0:0:
320,192,186888,1,0,0:0:0:0:
64,192,186959,1,0,0:0:0:0:
448,192,187031,1,0,0:0:0:0:
64,192,187102,1,0,0:0:0:0:
448,192,187174,1,0,0:0:0:0:
320,192,187245,1,0,0:0:0:0:
192,192,187316,1,0,0:0:0:0:
64,192,187388,1,0,0:0:0:0:
448,192,187459,1,0,0:0:0:0:
320,192,187531,1,0,0:0:0:0:
192,192,187602,1,0,0:0:0:0:
320,192,187674,1,0,0:0:0:0:
192,192,187745,1,0,0:0:0:0:
64,192,187816,1,0,0:0:0:0:
448,192,187888,1,0,0:0:0:0:
64,192,187959,1,0,0:0:0:0:
320,192,188031,1,0,0:0:0:0:
192,192,188102,1,0,0:0:0:0:
448,192,188174,1,0,0:0:0:0:
64,192,188245,1,0,0:0:0:0:
448,192,188316,1,0,0:0:0:0:
320,192,188388,1,0,0:0:0:0:
192,192,188459,1,0,0:0:0:0:
64,192,188531,1,0,0:0:0:0:
448,192,188602,1,0,0:0:0:0:
192,192,188674,1,0,0:0:0:0:
320,192,188745,1,0,0:0:0:0:
64,192,188816,1,0,0:0:0:0:
448,192,188888,1,0,0:0:0:0:
320,192,188959,1,0,0:0:0:0:
192,192,189031,1,0,0:0:0:0:
64,192,189102,1,0,0:0:0:0:
448,192,189174,1,0,0:0:0:0:
64,192,189245,1,0,0:0:0:0:
320,192,189316,1,0,0:0:0:0:
192,192,189388,1,0,0:0:0:0:
448,192,189459,1,0,0:0:0:0:
64,192,189531,1,0,0:0:0:0:
448,192,189602,1,0,0:0:0:0:
192,192,189674,1,0,0:0:0:0:
448,192,189745,1,0,0:0:0:0:
64,192,189816,1,0,0:0:0:0:
320,192,189888,1,0,0:0:0:0:
64,192,189959,1,0,0:0:0:0:
448,192,190031,1,0,0:0:0:0:
64,192,190102,1,0,0:0:0:0:
320,192,190174,1,0,0:0:0:0:
192,192,190245,1,0,0:0:0:0:
320,192,190316,1,0,0:0:0:0:
64,192,190388,1,0,0:0:0:0:
448,192,190459,1,0,0:0:0:0:
64,192,190531,1,0,0:0:0:0:
448,192,190602,1,0,0:0:0:0:
192,192,190674,1,0,0:0:0:0:
320,192,190745,1,0,0:0:0:0:
192,192,190816,1,0,0:0:0:0:
448,192,190888,1,0,0:0:0:0:
64,192,190959,1,0,0:0:0:0:
320,192,191031,1,0,0:0:0:0:
192,192,191102,1,0,0:0:0:0:
448,192,191174,1,0,0:0:0:0:
64,192,191245,1,0,0:0:0:0:
448,192,191316,1,0,0:0:0:0:
64,192,191388,1,0,0:0:0:0:
192,192,191459,1,0,0:0:0:0:
320,192,191531,1,0,0:0:0:0:
448,192,191602,1,0,0:0:0:0:
320,192,191674,1,0,0:0:0:0:
192,192,191745,1,0,0:0:0:0:
64,192,191816,1,0,0:0:0:0:
448,192,191888,1,0,0:0:0:0:
320,192,191959,1,0,0:0:0:0:
448,192,192031,1,0,0:0:0:0:
64,192,192102,1,0,0:0:0:0:
320,192,192174,1,0,0:0:0:0:
192,192,192245,1,0,0:0:0:0:
320,192,192316,1,0,0:0:0:0:
64,192,192388,1,0,0:0:0:0:
448,192,192459,1,0,0:0:0:0:
64,192,192531,1,0,0:0:0:0:
192,192,192602,1,0,0:0:0:0:
64,192,192674,1,0,0:0:0:0:
448,192,192745,1,0,0:0:0:0:
320,192,192816,1,0,0:0:0:0:
192,192,192888,1,0,0:0:0:0:
64,192,192959,1,0,0:0:0:0:
448,192,193031,1,0,0:0:0:0:
64,192,193102,1,0,0:0:0:0:
448,192,193174,1,0,0:0:0:0:
192,192,193245,1,0,0:0:0:0:
448,192,193316,1,0,0:0:0:0:
64,192,193388,1,0,0:0:0:0:
320,192,193459,1,0,0:0:0:0:
192,192,193531,1,0,0:0:0:0:
448,192,193602,1,0,0:0:0:0:
64,192,193674,1,0,0:0:0:0:
192,192,193745,1,0,0:0:0:0:
320,192,193816,1,0,0:0:0:0:
448,192,193888,1,0,0:0:0:0:
64,192,193959,1,0,0:0:0:0:
448,192,194031,1,0,0:0:0:0:
320,192,194102,1,0,0:0:0:0:
192,192,194174,1,0,0:0:0:0:
64,192,194245,1,0,0:0:0:0:
448,192,194316,1,0,0:0:0:0:
64,192,194388,1,0,0:0:0:0:
192,192,194459,1,0,0:0:0:0:
320,192,194531,1,0,0:0:0:0:
448,192,194602,1,0,0:0:0:0:
64,192,194674,1,0,0:0:0:0:
192,192,194745,1,0,0:0:0:0:
320,192,194816,1,0,0:0:0:0:
192,192,194888,1,0,0:0:0:0:
320,192,194959,1,0,0:0:0:0:
448,192,195031,1,0,0:0:0:0:
64,192,195102,1,0,0:0:0:0:
448,192,195174,1,0,0:0:0:0:
320,192,195245,1,0,0:0:0:0:
192,192,195316,1,0,0:0:0:0:
64,192,195388,1,0,0:0:0:0:
192,192,195459,1,0,0:0:0:0:
320,192,195531,1,0,0:0:0:0:
448,192,195602,1,0,0:0:0:0:
64,192,195674,1,0,0:0:0:0:
192,192,195745,1,0,0:0:0:0:
64,192,195816,1,0,0:0:0:0:
192,192,195888,1,0,0:0:0:0:
320,192,195959,1,0,0:0:0:0:
448,192,196031,1,0,0:0:0:0:
192,192,196102,1,0,0:0:0:0:
320,192,196174,1,0,0:0:0:0:
192,192,196245,1,0,0:0:0:0:
448,192,196316,1,0,0:0:0:0:
64,192,196388,1,0,0:0:0:0:
448,192,196459,1,0,0:0:0:0:
192,192,196531,1,0,0:0:0:0:
320,192,196602,1,0,0:0:0:0:
64,192,196674,1,0,0:0:0:0:
320,192,196745,1,0,0:0:0:0:
64,192,196816,1,0,0:0:0:0:
448,192,196888,1,0,0:0:0:0:
192,192,196959,1,0,0:0:0:0:
448,192,197031,1,0,0:0:0:0:
64,192,197102,1,0,0:0:0:0:
320,192,197174,1,0,0:0:0:0:
192,192,197245,1,0,0:0:0:0:
448,192,197316,1,0,0:0:0:0:
192,192,197388,1,0,0:0:0:0:
320,192,197459,1,0,0:0:0:0:
64,192,197531,1,0,0:0:0:0:
448,192,197602,1,0,0:0:0:0:
64,192,197674,1,0,0:0:0:0:
192,192,197745,1,0,0:0:0:0:
64,192,197816,1,0,0:0:0:0:
448,192,197888,1,0,0:0:0:0:
320,192,197959,1,0,0:0:0:0:
448,192,198031,1,0,0:0:0:0:
64,192,198102,1,0,0:0:0:0:
320,192,198174,1,0,0:0:0:0:
64,192,198245,1,0,0:0:0:0:
448,192,198316,1,0,0:0:0:0:
192,192,198388,1,0,0:0:0:0:
320,192,198459,1,0,0:0:0:0:
64,192,198531,1,0,0:0:0:0:
448,192,198602,1,0,0:0:0:0:
192,192,198674,1,0,0:0:0:0:
320,192,198745,1,0,0:0:0:0:
64,192,198816,1,0,0:0:0:0:
448,192,198888,1,0,0:0:0:0:
320,192,198959,1,0,0:0:0:0:
192,192,199031,1,0,0:0:0:0:
64,192,199102,1,0,0:0:0:0:
448,192,199174,1,0,0:0:0:0:
320,192,199245,1,0,0:0:0:0:
192,192,199316,1,0,0:0:0:0:
64,192,199388,1,0,0:0:0:0:
448,192,199459,1,0,0:0:0:0:
192,192,199531,1,0,0:0:0:0:
320,192,199602,1,0,0:0:0:0:
64,192,199674,1,0,0:0:0:0:
448,192,199745,1,0,0:0:0:0:
192,192,199816,1,0,0:0:0:0:
320,192,199888,1,0,0:0:0:0:
64,192,199959,1,0,0:0:0:0:
448,192,200031,1,0,0:0:0:0:
320,192,200102,1,0,0:0:0:0:
192,192,200174,1,0,0:0:0:0:
64,192,200245,1,0,0:0:0:0:
448,192,200316,1,0,0:0:0:0:
320,192,200388,1,0,0:0:0:0:
192,192,200459,1,0,0:0:0:0:
64,192,200531,1,0,0:0:0:0:
448,192,200602,1,0,0:0:0:0:
192,192,200674,1,0,0:0:0:0:
320,192,200745,1,0,0:0:0:0:
64,192,200816,1,0,0:0:0:0:
320,192,200888,1,0,0:0:0:0:
192,192,200959,1,0,0:0:0:0:
448,192,201031,1,0,0:0:0:0:
64,192,201102,1,0,0:0:0:0:
448,192,201174,1,0,0:0:0:0:
320,192,201245,1,0,0:0:0:0:
192,192,201316,1,0,0:0:0:0:
64,192,201388,1,0,0:0:0:0:
448,192,201459,1,0,0:0:0:0:
64,192,201531,1,0,0:0:0:0:
192,192,201602,1,0,0:0:0:0:
320,192,201674,1,0,0:0:0:0:
448,192,201745,1,0,0:0:0:0:
64,192,201816,1,0,0:0:0:0:
320,192,201888,1,0,0:0:0:0:
192,192,201959,1,0,0:0:0:0:
448,192,202031,1,0,0:0:0:0:
192,192,202102,1,0,0:0:0:0:
320,192,202174,1,0,0:0:0:0:
64,192,202245,1,0,0:0:0:0:
448,192,202316,1,0,0:0:0:0:
320,192,202388,1,0,0:0:0:0:
448,192,202459,1,0,0:0:0:0:
64,192,202531,1,0,0:0:0:0:
192,192,202602,1,0,0:0:0:0:
320,192,202674,1,0,0:0:0:0:
448,192,202745,1,0,0:0:0:0:
64,192,202816,1,0,0:0:0:0:
192,192,207529,1,0,0:0:0:0:
448,192,207601,1,0,0:0:0:0:
64,192,207672,1,0,0:0:0:0:
448,192,207744,1,0,0:0:0:0:
320,192,207886,1,0,0:0:0:0:
192,192,208029,1,0,0:0:0:0:
64,192,208101,1,0,0:0:0:0:
448,192,208172,1,0,0:0:0:0:
64,192,208244,1,0,0:0:0:0:
192,192,208315,1,0,0:0:0:0:
64,192,208458,1,0,0:0:0:0:
448,192,208529,1,0,0:0:0:0:
192,192,208601,1,0,0:0:0:0:
320,192,208672,1,0,0:0:0:0:
192,192,208744,1,0,0:0:0:0:
448,192,208815,1,0,0:0:0:0:
64,192,208886,1,0,0:0:0:0:
448,192,209029,1,0,0:0:0:0:
320,192,209172,1,0,0:0:0:0:
448,192,209244,1,0,0:0:0:0:
64,192,209315,1,0,0:0:0:0:
448,192,209386,1,0,0:0:0:0:
320,192,209458,1,0,0:0:0:0:
192,192,209601,1,0,0:0:0:0:
64,192,209672,1,0,0:0:0:0:
448,192,209744,1,0,0:0:0:0:
64,192,209815,1,0,0:0:0:0:
320,192,209886,1,0,0:0:0:0:
192,192,209958,1,0,0:0:0:0:
448,192,210029,1,0,0:0:0:0:
64,192,210172,1,0,0:0:0:0:
192,192,210315,1,0,0:0:0:0:
320,192,210386,1,0,0:0:0:0:
192,192,210458,1,0,0:0:0:0:
64,192,210529,1,0,0:0:0:0:
192,192,210601,1,0,0:0:0:0:
320,192,210744,1,0,0:0:0:0:
448,192,210815,1,0,0:0:0:0:
64,192,210886,1,0,0:0:0:0:
448,192,210958,1,0,0:0:0:0:
192,192,211029,1,0,0:0:0:0:
448,192,211101,1,0,0:0:0:0:
64,192,211172,1,0,0:0:0:0:
320,192,211315,1,0,0:0:0:0:
192,192,211458,1,0,0:0:0:0:
448,192,211529,1,0,0:0:0:0:
192,192,211601,1,0,0:0:0:0:
320,192,211672,1,0,0:0:0:0:
64,192,211744,1,0,0:0:0:0:
192,192,212101,1,0,0:0:0:0:
64,192,212172,1,0,0:0:0:0:
448,192,212244,1,0,0:0:0:0:
64,192,212315,1,0,0:0:0:0:
320,192,212458,1,0,0:0:0:0:
192,192,212601,1,0,0:0:0:0:
448,192,212672,1,0,0:0:0:0:
64,192,212744,1,0,0:0:0:0:
448,192,212815,1,0,0:0:0:0:
192,192,212886,1,0,0:0:0:0:
448,192,213029,1,0,0:0:0:0:
64,192,213101,1,0,0:0:0:0:
192,192,213172,1,0,0:0:0:0:
320,192,213244,1,0,0:0:0:0:
192,192,213315,1,0,0:0:0:0:
64,192,213386,1,0,0:0:0:0:
448,192,213458,1,0,0:0:0:0:
64,192,213601,1,0,0:0:0:0:
320,192,213744,1,0,0:0:0:0:
64,192,213815,1,0,0:0:0:0:
448,192,213886,1,0,0:0:0:0:
64,192,213958,1,0,0:0:0:0:
320,192,214029,1,0,0:0:0:0:
192,192,214172,1,0,0:0:0:0:
448,192,214244,1,0,0:0:0:0:
64,192,214315,1,0,0:0:0:0:
448,192,214386,1,0,0:0:0:0:
320,192,214458,1,0,0:0:0:0:
192,192,214529,1,0,0:0:0:0:
64,192,214601,1,0,0:0:0:0:
448,192,214744,1,0,0:0:0:0:
192,192,214886,1,0,0:0:0:0:
320,192,214958,1,0,0:0:0:0:
192,192,215029,1,0,0:0:0:0:
448,192,215101,1,0,0:0:0:0:
192,192,215172,1,0,0:0:0:0:
320,192,215315,1,0,0:0:0:0:
64,192,215386,1,0,0:0:0:0:
448,192,215458,1,0,0:0:0:0:
64,192,215529,1,0,0:0:0:0:
192,192,215601,1,0,0:0:0:0:
64,192,215672,1,0,0:0:0:0:
448,192,215744,1,0,0:0:0:0:
320,192,215886,1,0,0:0:0:0:
192,192,216029,1,0,0:0:0:0:
64,192,216101,1,0,0:0:0:0:
192,192,216172,1,0,0:0:0:0:
320,192,216244,1,0,0:0:0:0:
448,192,216315,1,0,0:0:0:0:
64,192,216886,1,0,0:0:0:0:
320,192,217029,1,0,0:0:0:0:
64,192,217172,1,0,0:0:0:0:
448,192,217458,1,0,0:0:0:0:
192,192,217601,1,0,0:0:0:0:
448,192,217744,1,0,0:0:0:0:
320,192,217886,1,0,0:0:0:0:
448,192,218029,1,0,0:0:0:0:
64,192,218315,1,0,0:0:0:0:
448,192,218315,1,0,0:0:0:0:
64,192,218601,1,0,0:0:0:0:
320,192,218744,1,0,0:0:0:0:
192,192,218886,1,0,0:0:0:0:
448,192,219029,1,0,0:0:0:0:
64,192,219101,1,0,0:0:0:0:
448,192,219172,1,0,0:0:0:0:
320,192,219458,1,0,0:0:0:0:
448,192,219458,1,0,0:0:0:0:
192,192,219744,1,0,0:0:0:0:
64,192,219886,1,0,0:0:0:0:
192,192,220029,1,0,0:0:0:0:
64,192,220315,1,0,0:0:0:0:
448,192,221458,1,0,0:0:0:0:
192,192,221601,1,0,0:0:0:0:
448,192,221744,1,0,0:0:0:0:
64,192,222029,1,0,0:0:0:0:
448,192,222172,1,0,0:0:0:0:
320,192,222315,1,0,0:0:0:0:
192,192,222458,1,0,0:0:0:0:
64,192,222601,1,0,0:0:0:0:
320,192,222886,1,0,0:0:0:0:
448,192,222886,1,0,0:0:0:0:
320,192,223172,1,0,0:0:0:0:
448,192,223315,1,0,0:0:0:0:
192,192,223458,1,0,0:0:0:0:
320,192,223744,1,0,0:0:0:0:
64,192,223886,1,0,0:0:0:0:
192,192,224029,1,0,0:0:0:0:
320,192,224315,1,0,0:0:0:0:
448,192,224601,1,0,0:0:0:0:
64,192,224815,1,0,0:0:0:0:
448,192,225029,1,0,0:0:0:0:
64,192,225172,1,0,0:0:0:0:
448,192,225172,1,0,0:0:0:0:
64,192,225458,1,0,0:0:0:0:
448,192,225458,1,0,0:0:0:0:
64,192,225744,1,0,0:0:0:0:
320,192,225815,1,0,0:0:0:0:
64,192,225886,1,0,0:0:0:0:
320,192,225958,1,0,0:0:0:0:
192,192,226029,1,0,0:0:0:0:
448,192,226101,1,0,0:0:0:0:
192,192,226172,1,0,0:0:0:0:
448,192,226244,1,0,0:0:0:0:
64,192,226315,1,0,0:0:0:0:
320,192,226386,1,0,0:0:0:0:
192,192,226458,1,0,0:0:0:0:
448,192,226529,1,0,0:0:0:0:
64,192,226601,1,0,0:0:0:0:
320,192,226672,1,0,0:0:0:0:
192,192,226744,1,0,0:0:0:0:
448,192,226815,1,0,0:0:0:0:
64,192,226886,1,0,0:0:0:0:
192,192,226958,1,0,0:0:0:0:
64,192,227029,1,0,0:0:0:0:
192,192,227101,1,0,0:0:0:0:
320,192,227172,1,0,0:0:0:0:
448,192,227244,1,0,0:0:0:0:
320,192,227315,1,0,0:0:0:0:
448,192,227386,1,0,0:0:0:0:
64,192,227458,1,0,0:0:0:0:
192,192,227529,1,0,0:0:0:0:
320,192,227601,1,0,0:0:0:0:
448,192,227672,1,0,0:0:0:0:
64,192,227744,1,0,0:0:0:0:
192,192,227815,1,0,0:0:0:0:
320,192,227886,1,0,0:0:0:0:
448,192,227958,1,0,0:0:0:0:
64,192,228029,1,0,0:0:0:0:
448,192,228101,1,0,0:0:0:0:
64,192,228172,1,0,0:0:0:0:
448,192,228244,1,0,0:0:0:0:
64,192,228315,1,0,0:0:0:0:
320,192,228386,1,0,0:0:0:0:
192,192,228458,1,0,0:0:0:0:
320,192,228529,1,0,0:0:0:0:
192,192,228601,1,0,0:0:0:0:
448,192,228672,1,0,0:0:0:0:
64,192,228744,1,0,0:0:0:0:
320,192,228815,1,0,0:0:0:0:
192,192,228886,1,0,0:0:0:0:
448,192,228958,1,0,0:0:0:0:
64,192,229029,1,0,0:0:0:0:
320,192,229101,1,0,0:0:0:0:
192,192,229172,1,0,0:0:0:0:
448,192,229244,1,0,0:0:0:0:
64,192,229315,1,0,0:0:0:0:
448,192,229386,1,0,0:0:0:0:
64,192,229458,1,0,0:0:0:0:
192,192,229529,1,0,0:0:0:0:
320,192,229601,1,0,0:0:0:0:
192,192,229672,1,0,0:0:0:0:
320,192,229744,1,0,0:0:0:0:
448,192,229815,1,0,0:0:0:0:
320,192,229886,1,0,0:0:0:0:
192,192,229958,1,0,0:0:0:0:
64,192,230029,1,0,0:0:0:0:
448,192,230101,1,0,0:0:0:0:
320,192,230172,1,0,0:0:0:0:
192,192,230244,1,0,0:0:0:0:
64,192,230315,1,0,0:0:0:0:
192,192,230386,1,0,0:0:0:0:
64,192,230458,1,0,0:0:0:0:
192,192,230529,1,0,0:0:0:0:
320,192,230601,1,0,0:0:0:0:
448,192,230672,1,0,0:0:0:0:
320,192,230744,1,0,0:0:0:0:
448,192,230815,1,0,0:0:0:0:
64,192,230886,1,0,0:0:0:0:
192,192,230958,1,0,0:0:0:0:
320,192,231029,1,0,0:0:0:0:
448,192,231101,1,0,0:0:0:0:
64,192,231172,1,0,0:0:0:0:
192,192,231244,1,0,0:0:0:0:
320,192,231315,1,0,0:0:0:0:
448,192,231386,1,0,0:0:0:0:
64,192,231458,1,0,0:0:0:0:
320,192,231529,1,0,0:0:0:0:
64,192,231601,1,0,0:0:0:0:
320,192,231672,1,0,0:0:0:0:
192,192,231744,1,0,0:0:0:0:
448,192,231815,1,0,0:0:0:0:
192,192,231886,1,0,0:0:0:0:
448,192,231958,1,0,0:0:0:0:
64,192,232029,1,0,0:0:0:0:
320,192,232101,1,0,0:0:0:0:
192,192,232172,1,0,0:0:0:0:
448,192,232244,1,0,0:0:0:0:
64,192,232315,1,0,0:0:0:0:
320,192,232386,1,0,0:0:0:0:
192,192,232458,1,0,0:0:0:0:
448,192,232529,1,0,0:0:0:0:
64,192,232601,1,0,0:0:0:0:
448,192,232672,1,0,0:0:0:0:
64,192,232744,1,0,0:0:0:0:
448,192,232815,1,0,0:0:0:0:
64,192,232886,1,0,0:0:0:0:
192,192,232958,1,0,0:0:0:0:
320,192,233029,1,0,0:0:0:0:
192,192,233101,1,0,0:0:0:0:
320,192,233172,1,0,0:0:0:0:
448,192,233244,1,0,0:0:0:0:
64,192,233315,1,0,0:0:0:0:
192,192,233386,1,0,0:0:0:0:
320,192,233458,1,0,0:0:0:0:
448,192,233529,1,0,0:0:0:0:
64,192,233601,1,0,0:0:0:0:
192,192,233672,1,0,0:0:0:0:
320,192,233744,1,0,0:0:0:0:
448,192,233815,1,0,0:0:0:0:
64,192,233886,1,0,0:0:0:0:
448,192,233958,1,0,0:0:0:0:
64,192,234029,1,0,0:0:0:0:
320,192,234101,1,0,0:0:0:0:
192,192,234172,1,0,0:0:0:0:
320,192,234244,1,0,0:0:0:0:
192,192,234315,1,0,0:0:0:0:
448,192,234386,1,0,0:0:0:0:
192,192,234458,1,0,0:0:0:0:
320,192,234529,1,0,0:0:0:0:
64,192,234601,1,0,0:0:0:0:
448,192,234672,1,0,0:0:0:0:
192,192,234744,1,0,0:0:0:0:
320,192,234815,1,0,0:0:0:0:
64,192,234886,1,0,0:0:0:0:
448,192,234958,1,0,0:0:0:0:
192,192,235029,1,0,0:0:0:0:
320,192,235101,1,0,0:0:0:0:
64,192,235172,1,0,0:0:0:0:
448,192,235244,1,0,0:0:0:0:
192,192,235315,1,0,0:0:0:0:
320,192,235386,1,0,0:0:0:0:
64,192,235458,1,0,0:0:0:0:
320,192,235529,1,0,0:0:0:0:
192,192,235601,1,0,0:0:0:0:
448,192,235672,1,0,0:0:0:0:
64,192,235744,1,0,0:0:0:0:
320,192,235815,1,0,0:0:0:0:
192,192,235886,1,0,0:0:0:0:
448,192,235958,1,0,0:0:0:0:
64,192,236029,1,0,0:0:0:0:
192,192,236101,1,0,0:0:0:0:
320,192,236172,1,0,0:0:0:0:
192,192,236244,1,0,0:0:0:0:
64,192,236315,1,0,0:0:0:0:
448,192,236386,1,0,0:0:0:0:
64,192,236458,1,0,0:0:0:0:
448,192,236529,1,0,0:0:0:0:
320,192,236601,1,0,0:0:0:0:
192,192,236672,1,0,0:0:0:0:
64,192,236744,1,0,0:0:0:0:
448,192,236815,1,0,0:0:0:0:
64,192,236886,1,0,0:0:0:0:
192,192,236958,1,0,0:0:0:0:
320,192,237029,1,0,0:0:0:0:
448,192,237101,1,0,0:0:0:0:
64,192,237172,1,0,0:0:0:0:
320,192,237244,1,0,0:0:0:0:
192,192,237315,1,0,0:0:0:0:
320,192,237386,1,0,0:0:0:0:
64,192,237458,1,0,0:0:0:0:
448,192,237529,1,0,0:0:0:0:
192,192,237601,1,0,0:0:0:0:
448,192,237672,1,0,0:0:0:0:
64,192,237744,1,0,0:0:0:0:
320,192,237815,1,0,0:0:0:0:
64,192,237886,1,0,0:0:0:0:
448,192,237958,1,0,0:0:0:0:
192,192,238029,1,0,0:0:0:0:
320,192,238101,1,0,0:0:0:0:
64,192,238172,1,0,0:0:0:0:
448,192,238244,1,0,0:0:0:0:
64,192,238315,1,0,0:0:0:0:
192,192,238386,1,0,0:0:0:0:
64,192,238458,1,0,0:0:0:0:
448,192,238529,1,0,0:0:0:0:
320,192,238601,1,0,0:0:0:0:
192,192,238672,1,0,0:0:0:0:
320,192,238744,1,0,0:0:0:0:
448,192,238815,1,0,0:0:0:0:
64,192,238886,1,0,0:0:0:0:
192,192,238958,1,0,0:0:0:0:
320,192,239029,1,0,0:0:0:0:
448,192,239101,1,0,0:0:0:0:
64,192,239172,1,0,0:0:0:0:
192,192,239244,1,0,0:0:0:0:
64,192,239315,1,0,0:0:0:0:
448,192,239386,1,0,0:0:0:0:
64,192,239458,1,0,0:0:0:0:
320,192,239529,1,0,0:0:0:0:
192,192,239601,1,0,0:0:0:0:
320,192,239672,1,0,0:0:0:0:
64,192,239744,1,0,0:0:0:0:
448,192,239815,1,0,0:0:0:0:
192,192,239886,1,0,0:0:0:0:
320,192,239958,1,0,0:0:0:0:
64,192,240029,1,0,0:0:0:0:
320,192,240101,1,0,0:0:0:0:
192,192,240172,1,0,0:0:0:0:
448,192,240244,1,0,0:0:0:0:
64,192,240315,1,0,0:0:0:0:
320,192,240386,1,0,0:0:0:0:
192,192,240458,1,0,0:0:0:0:
448,192,240529,1,0,0:0:0:0:
64,192,240601,1,0,0:0:0:0:
192,192,240672,1,0,0:0:0:0:
320,192,240744,1,0,0:0:0:0:
192,192,240815,1,0,0:0:0:0:
64,192,240886,1,0,0:0:0:0:
448,192,240958,1,0,0:0:0:0:
64,192,241029,1,0,0:0:0:0:
448,192,241101,1,0,0:0:0:0:
320,192,241172,1,0,0:0:0:0:
192,192,241244,1,0,0:0:0:0:
64,192,241315,1,0,0:0:0:0:
448,192,241386,1,0,0:0:0:0:
64,192,241458,1,0,0:0:0:0:
192,192,241529,1,0,0:0:0:0:
320,192,241601,1,0,0:0:0:0:
448,192,241672,1,0,0:0:0:0:
64,192,241744,1,0,0:0:0:0:
320,192,241815,1,0,0:0:0:0:
192,192,241886,1,0,0:0:0:0:
320,192,241958,1,0,0:0:0:0:
64,192,242029,1,0,0:0:0:0:
448,192,242101,1,0,0:0:0:0:
192,192,242172,1,0,0:0:0:0:
448,192,242244,1,0,0:0:0:0:
64,192,242315,1,0,0:0:0:0:
320,192,242386,1,0,0:0:0:0:
64,192,242458,1,0,0:0:0:0:
448,192,242529,1,0,0:0:0:0:
192,192,242601,1,0,0:0:0:0:
320,192,242672,1,0,0:0:0:0:
64,192,242744,1,0,0:0:0:0:
448,192,242815,1,0,0:0:0:0:
64,192,242886,1,0,0:0:0:0:
192,192,242958,1,0,0:0:0:0:
64,192,243029,1,0,0:0:0:0:
448,192,243101,1,0,0:0:0:0:
320,192,243172,1,0,0:0:0:0:
192,192,243244,1,0,0:0:0:0:
320,192,243315,1,0,0:0:0:0:
448,192,243386,1,0,0:0:0:0:
64,192,243458,1,0,0:0:0:0:
192,192,243529,1,0,0:0:0:0:
320,192,243601,1,0,0:0:0:0:
448,192,243672,1,0,0:0:0:0:
192,192,243744,1,0,0:0:0:0:
320,192,243815,1,0,0:0:0:0:
64,192,243886,1,0,0:0:0:0:
192,192,243958,1,0,0:0:0:0:
320,192,244029,1,0,0:0:0:0:
448,192,244101,1,0,0:0:0:0:
64,192,244172,1,0,0:0:0:0:
320,192,244244,1,0,0:0:0:0:
192,192,244315,1,0,0:0:0:0:
448,192,244386,1,0,0:0:0:0:
320,192,244458,1,0,0:0:0:0:
448,192,244529,1,0,0:0:0:0:
320,192,244601,1,0,0:0:0:0:
448,192,244672,1,0,0:0:0:0:
64,192,244744,1,0,0:0:0:0:
320,192,244815,1,0,0:0:0:0:
192,192,244886,1,0,0:0:0:0:
320,192,244958,1,0,0:0:0:0:
64,192,245029,1,0,0:0:0:0:
448,192,245101,1,0,0:0:0:0:
320,192,245172,1,0,0:0:0:0:
448,192,245244,1,0,0:0:0:0:
64,192,245315,1,0,0:0:0:0:
320,192,245386,1,0,0:0:0:0:
192,192,245458,1,0,0:0:0:0:
448,192,245529,1,0,0:0:0:0:
320,192,245601,1,0,0:0:0:0:
448,192,245672,1,0,0:0:0:0:
320,192,245744,1,0,0:0:0:0:
448,192,245815,1,0,0:0:0:0:
64,192,245886,1,0,0:0:0:0:
320,192,245958,1,0,0:0:0:0:
192,192,246029,1,0,0:0:0:0:
448,192,246101,1,0,0:0:0:0:
320,192,246172,1,0,0:0:0:0:
448,192,246244,1,0,0:0:0:0:
192,192,246315,1,0,0:0:0:0:
320,192,246386,1,0,0:0:0:0:
64,192,246458,1,0,0:0:0:0:
192,192,246529,1,0,0:0:0:0:
320,192,246601,1,0,0:0:0:0:
448,192,246672,1,0,0:0:0:0:
192,192,246744,1,0,0:0:0:0:
448,192,246815,1,0,0:0:0:0:
192,192,246886,1,0,0:0:0:0:
320,192,246958,1,0,0:0:0:0:
64,192,247029,1,0,0:0:0:0:
192,192,247101,1,0,0:0:0:0:
320,192,247172,1,0,0:0:0:0:
448,192,247244,1,0,0:0:0:0:
64,192,247315,1,0,0:0:0:0:
448,192,247386,1,0,0:0:0:0:
192,192,247458,1,0,0:0:0:0:
320,192,247529,1,0,0:0:0:0:
64,192,247601,1,0,0:0:0:0:
192,192,247672,1,0,0:0:0:0:
320,192,247744,1,0,0:0:0:0:
448,192,247815,1,0,0:0:0:0:
192,192,247886,1,0,0:0:0:0:
448,192,247958,1,0,0:0:0:0:
192,192,248029,1,0,0:0:0:0:
320,192,248101,1,0,0:0:0:0:
64,192,248172,1,0,0:0:0:0:
192,192,248244,1,0,0:0:0:0:
320,192,248315,1,0,0:0:0:0:
448,192,248386,1,0,0:0:0:0:
192,192,248458,1,0,0:0:0:0:
448,192,248529,1,0,0:0:0:0:
320,192,248601,1,0,0:0:0:0:
448,192,248672,1,0,0:0:0:0:
64,192,248744,1,0,0:0:0:0:
320,192,248815,1,0,0:0:0:0:
192,192,248886,1,0,0:0:0:0:
448,192,248958,1,0,0:0:0:0:
320,192,249029,1,0,0:0:0:0:
448,192,249101,1,0,0:0:0:0:
320,192,249172,1,0,0:0:0:0:
448,192,249244,1,0,0:0:0:0:
64,192,249315,1,0,0:0:0:0:
320,192,249386,1,0,0:0:0:0:
192,192,249458,1,0,0:0:0:0:
320,192,249529,1,0,0:0:0:0:
64,192,249601,1,0,0:0:0:0:
448,192,249672,1,0,0:0:0:0:
320,192,249744,1,0,0:0:0:0:
448,192,249815,1,0,0:0:0:0:
64,192,249886,1,0,0:0:0:0:
320,192,249958,1,0,0:0:0:0:
192,192,250029,1,0,0:0:0:0:
448,192,250101,1,0,0:0:0:0:
64,192,250172,1,0,0:0:0:0:
448,192,250244,1,0,0:0:0:0:
320,192,250315,1,0,0:0:0:0:
448,192,250386,1,0,0:0:0:0:
64,192,250458,1,0,0:0:0:0:
320,192,250529,1,0,0:0:0:0:
192,192,250601,1,0,0:0:0:0:
448,192,250672,1,0,0:0:0:0:
320,192,250744,1,0,0:0:0:0:
448,192,250815,1,0,0:0:0:0:
320,192,250886,1,0,0:0:0:0:
192,192,250958,1,0,0:0:0:0:
64,192,251029,1,0,0:0:0:0:
320,192,251101,1,0,0:0:0:0:
192,192,251172,1,0,0:0:0:0:
448,192,251244,1,0,0:0:0:0:
64,192,251315,1,0,0:0:0:0:
448,192,251386,1,0,0:0:0:0:
320,192,251458,1,0,0:0:0:0:
192,192,251529,1,0,0:0:0:0:
64,192,251601,1,0,0:0:0:0:
320,192,251672,1,0,0:0:0:0:
192,192,251744,1,0,0:0:0:0:
448,192,251815,1,0,0:0:0:0:
320,192,251886,1,0,0:0:0:0:
448,192,251958,1,0,0:0:0:0:
320,192,252029,1,0,0:0:0:0:
192,192,252101,1,0,0:0:0:0:
64,192,252172,1,0,0:0:0:0:
448,192,252244,1,0,0:0:0:0:
320,192,252315,1,0,0:0:0:0:
192,192,252386,1,0,0:0:0:0:
64,192,252458,1,0,0:0:0:0:
448,192,252529,1,0,0:0:0:0:
320,192,252601,1,0,0:0:0:0:
448,192,252672,1,0,0:0:0:0:
64,192,252744,1,0,0:0:0:0:
448,192,252815,1,0,0:0:0:0:
192,192,252886,1,0,0:0:0:0:
320,192,252958,1,0,0:0:0:0:
64,192,253029,1,0,0:0:0:0:
448,192,253101,1,0,0:0:0:0:
320,192,253172,1,0,0:0:0:0:
448,192,253244,1,0,0:0:0:0:
64,192,253315,1,0,0:0:0:0:
320,192,253386,1,0,0:0:0:0:
192,192,253458,1,0,0:0:0:0:
448,192,253529,1,0,0:0:0:0:
320,192,253601,1,0,0:0:0:0:
448,192,253672,1,0,0:0:0:0:
320,192,253744,1,0,0:0:0:0:
448,192,253815,1,0,0:0:0:0:
64,192,253886,1,0,0:0:0:0:
320,192,253958,1,0,0:0:0:0:
192,192,254029,1,0,0:0:0:0:
320,192,254101,1,0,0:0:0:0:
64,192,254172,1,0,0:0:0:0:
448,192,254244,1,0,0:0:0:0:
320,192,254315,1,0,0:0:0:0:
448,192,254386,1,0,0:0:0:0:
64,192,254458,1,0,0:0:0:0:
320,192,254529,1,0,0:0:0:0:
192,192,254601,1,0,0:0:0:0:
448,192,254672,1,0,0:0:0:0:
64,192,254744,1,0,0:0:0:0:
448,192,254815,1,0,0:0:0:0:
320,192,254886,1,0,0:0:0:0:
448,192,254958,1,0,0:0:0:0:
64,192,255029,1,0,0:0:0:0:
320,192,255101,1,0,0:0:0:0:
192,192,255172,1,0,0:0:0:0:
448,192,255244,1,0,0:0:0:0:
64,192,255315,1,0,0:0:0:0:
192,192,255386,1,0,0:0:0:0:
320,192,255458,1,0,0:0:0:0:
448,192,255529,1,0,0:0:0:0:
64,192,255601,1,0,0:0:0:0:
320,192,255672,1,0,0:0:0:0:
192,192,255744,1,0,0:0:0:0:
448,192,255815,1,0,0:0:0:0:
320,192,255886,1,0,0:0:0:0:
448,192,255958,1,0,0:0:0:0:
320,192,256029,1,0,0:0:0:0:
192,192,256101,1,0,0:0:0:0:
64,192,256172,1,0,0:0:0:0:
320,192,256244,1,0,0:0:0:0:
192,192,256315,1,0,0:0:0:0:
448,192,256386,1,0,0:0:0:0:
64,192,256458,1,0,0:0:0:0:
448,192,256529,1,0,0:0:0:0:
320,192,256601,1,0,0:0:0:0:
192,192,256672,1,0,0:0:0:0:
64,192,256744,1,0,0:0:0:0:
320,192,256815,1,0,0:0:0:0:
192,192,256886,1,0,0:0:0:0:
448,192,256958,1,0,0:0:0:0:
320,192,257029,1,0,0:0:0:0:
448,192,257101,1,0,0:0:0:0:
320,192,257172,1,0,0:0:0:0:
192,192,257244,1,0,0:0:0:0:
64,192,257315,1,0,0:0:0:0:
320,192,257386,1,0,0:0:0:0:
192,192,257458,1,0,0:0:0:0:
448,192,257529,1,0,0:0:0:0:
320,192,257601,1,0,0:0:0:0:
448,192,257672,1,0,0:0:0:0:
192,192,257744,1,0,0:0:0:0:
448,192,257815,1,0,0:0:0:0:
64,192,257886,1,0,0:0:0:0:
192,192,257958,1,0,0:0:0:0:
320,192,258029,1,0,0:0:0:0:
448,192,258101,1,0,0:0:0:0:
64,192,258172,1,0,0:0:0:0:
448,192,258244,1,0,0:0:0:0:
192,192,258315,1,0,0:0:0:0:
448,192,258386,1,0,0:0:0:0:
64,192,258458,1,0,0:0:0:0:
192,192,258529,1,0,0:0:0:0:
320,192,258601,1,0,0:0:0:0:
192,192,258672,1,0,0:0:0:0:
64,192,258744,1,0,0:0:0:0:
448,192,258815,1,0,0:0:0:0:
192,192,258886,1,0,0:0:0:0:
448,192,258958,1,0,0:0:0:0:
64,192,259029,1,0,0:0:0:0:
192,192,259101,1,0,0:0:0:0:
320,192,259172,1,0,0:0:0:0:
448,192,259244,1,0,0:0:0:0:
64,192,259315,1,0,0:0:0:0:
448,192,259386,1,0,0:0:0:0:
192,192,259458,1,0,0:0:0:0:
448,192,259529,1,0,0:0:0:0:
64,192,259601,1,0,0:0:0:0:
192,192,259672,1,0,0:0:0:0:
320,192,259744,1,0,0:0:0:0:
448,192,259815,1,0,0:0:0:0:
64,192,259886,1,0,0:0:0:0:
448,192,259958,1,0,0:0:0:0:
192,192,260029,1,0,0:0:0:0:
320,192,260101,1,0,0:0:0:0:
64,192,260172,1,0,0:0:0:0:
192,192,260244,1,0,0:0:0:0:
320,192,260315,1,0,0:0:0:0:
448,192,260386,1,0,0:0:0:0:
192,192,260458,1,0,0:0:0:0:
448,192,260529,1,0,0:0:0:0:
192,192,260601,1,0,0:0:0:0:
320,192,260672,1,0,0:0:0:0:
64,192,260744,1,0,0:0:0:0:
192,192,260815,1,0,0:0:0:0:
320,192,260886,1,0,0:0:0:0:
448,192,260958,1,0,0:0:0:0:
192,192,261029,1,0,0:0:0:0:
448,192,261101,1,0,0:0:0:0:
192,192,261172,1,0,0:0:0:0:
320,192,261244,1,0,0:0:0:0:
64,192,261315,1,0,0:0:0:0:
448,192,261386,1,0,0:0:0:0:
192,192,261458,1,0,0:0:0:0:
320,192,261529,1,0,0:0:0:0:
64,192,261601,1,0,0:0:0:0:
448,192,261672,1,0,0:0:0:0:
192,192,261744,1,0,0:0:0:0:
448,192,261815,1,0,0:0:0:0:
64,192,261886,1,0,0:0:0:0:
448,192,261958,1,0,0:0:0:0:
320,192,262029,1,0,0:0:0:0:
192,192,262101,1,0,0:0:0:0:
64,192,262172,1,0,0:0:0:0:
448,192,262244,1,0,0:0:0:0:
192,192,262315,1,0,0:0:0:0:
448,192,262386,1,0,0:0:0:0:
64,192,262458,1,0,0:0:0:0:
192,192,262529,1,0,0:0:0:0:
320,192,262601,1,0,0:0:0:0:
448,192,262672,1,0,0:0:0:0:
192,192,262744,1,0,0:0:0:0:
448,192,262815,1,0,0:0:0:0:
192,192,262886,1,0,0:0:0:0:
448,192,262958,1,0,0:0:0:0:
64,192,263029,1,0,0:0:0:0:
192,192,263101,1,0,0:0:0:0:
320,192,263172,1,0,0:0:0:0:
192,192,263244,1,0,0:0:0:0:
64,192,263315,1,0,0:0:0:0:
448,192,263386,1,0,0:0:0:0:
192,192,263458,1,0,0:0:0:0:
448,192,263529,1,0,0:0:0:0:
64,192,263601,1,0,0:0:0:0:
192,192,263672,1,0,0:0:0:0:
320,192,263744,1,0,0:0:0:0:
448,192,263815,1,0,0:0:0:0:
192,192,263886,1,0,0:0:0:0:
448,192,263958,1,0,0:0:0:0:
192,192,264029,1,0,0:0:0:0:
448,192,264101,1,0,0:0:0:0:
64,192,264172,1,0,0:0:0:0:
192,192,264244,1,0,0:0:0:0:
320,192,264315,1,0,0:0:0:0:
448,192,264386,1,0,0:0:0:0:
192,192,264458,1,0,0:0:0:0:
448,192,264529,1,0,0:0:0:0:
320,192,264601,1,0,0:0:0:0:
192,192,264672,1,0,0:0:0:0:
64,192,264744,1,0,0:0:0:0:
320,192,264815,1,0,0:0:0:0:
192,192,264886,1,0,0:0:0:0:
448,192,264958,1,0,0:0:0:0:
320,192,265029,1,0,0:0:0:0:
448,192,265101,1,0,0:0:0:0:
320,192,265172,1,0,0:0:0:0:
192,192,265244,1,0,0:0:0:0:
64,192,265315,1,0,0:0:0:0:
320,192,265386,1,0,0:0:0:0:
192,192,265458,1,0,0:0:0:0:
448,192,265529,1,0,0:0:0:0:
64,192,265601,1,0,0:0:0:0:
448,192,265672,1,0,0:0:0:0:
320,192,265744,1,0,0:0:0:0:
192,192,265815,1,0,0:0:0:0:
64,192,265886,1,0,0:0:0:0:
320,192,265958,1,0,0:0:0:0:
192,192,266029,1,0,0:0:0:0:
448,192,266101,1,0,0:0:0:0:
320,192,266172,1,0,0:0:0:0:
448,192,266244,1,0,0:0:0:0:
320,192,266315,1,0,0:0:0:0:
192,192,266386,1,0,0:0:0:0:
64,192,266458,1,0,0:0:0:0:
320,192,266529,1,0,0:0:0:0:
192,192,266601,1,0,0:0:0:0:
448,192,266672,1,0,0:0:0:0:
320,192,266744,1,0,0:0:0:0:
448,192,266815,1,0,0:0:0:0:
192,192,266886,1,0,0:0:0:0:
448,192,266958,1,0,0:0:0:0:
64,192,267029,1,0,0:0:0:0:
192,192,267101,1,0,0:0:0:0:
320,192,267172,1,0,0:0:0:0:
448,192,267244,1,0,0:0:0:0:
192,192,267315,1,0,0:0:0:0:
448,192,267386,1,0,0:0:0:0:
192,192,267458,1,0,0:0:0:0:
448,192,267529,1,0,0:0:0:0:
64,192,267601,1,0,0:0:0:0:
192,192,267672,1,0,0:0:0:0:
320,192,267744,1,0,0:0:0:0:
192,192,267815,1,0,0:0:0:0:
64,192,267886,1,0,0:0:0:0:
448,192,267958,1,0,0:0:0:0:
192,192,268029,1,0,0:0:0:0:
448,192,268101,1,0,0:0:0:0:
64,192,268172,1,0,0:0:0:0:
192,192,268244,1,0,0:0:0:0:
320,192,268315,1,0,0:0:0:0:
448,192,268386,1,0,0:0:0:0:
64,192,268458,1,0,0:0:0:0:
448,192,268529,1,0,0:0:0:0:
192,192,268601,1,0,0:0:0:0:
448,192,268672,1,0,0:0:0:0:
64,192,268744,1,0,0:0:0:0:
192,192,268815,1,0,0:0:0:0:
320,192,268886,1,0,0:0:0:0:
448,192,268958,1,0,0:0:0:0:
192,192,269029,1,0,0:0:0:0:
448,192,269101,1,0,0:0:0:0:
192,192,269172,1,0,0:0:0:0:
320,192,269244,1,0,0:0:0:0:
64,192,269315,1,0,0:0:0:0:
192,192,269386,1,0,0:0:0:0:
320,192,269458,1,0,0:0:0:0:
448,192,269529,1,0,0:0:0:0:
64,192,269601,1,0,0:0:0:0:
448,192,269672,1,0,0:0:0:0:
192,192,269744,1,0,0:0:0:0:
320,192,269815,1,0,0:0:0:0:
64,192,269886,1,0,0:0:0:0:
192,192,269958,1,0,0:0:0:0:
320,192,270029,1,0,0:0:0:0:
448,192,270101,1,0,0:0:0:0:
192,192,270172,1,0,0:0:0:0:
448,192,270244,1,0,0:0:0:0:
192,192,270315,1,0,0:0:0:0:
320,192,270386,1,0,0:0:0:0:
64,192,270458,1,0,0:0:0:0:
448,192,270529,1,0,0:0:0:0:
192,192,270601,1,0,0:0:0:0:
320,192,270672,1,0,0:0:0:0:
64,192,270744,1,0,0:0:0:0:
448,192,270815,1,0,0:0:0:0:
192,192,270886,1,0,0:0:0:0:
448,192,270958,1,0,0:0:0:0:
64,192,271029,1,0,0:0:0:0:
448,192,271101,1,0,0:0:0:0:
320,192,271172,1,0,0:0:0:0:
192,192,271244,1,0,0:0:0:0:
64,192,271315,1,0,0:0:0:0:
448,192,271386,1,0,0:0:0:0:
192,192,271458,1,0,0:0:0:0:
448,192,271529,1,0,0:0:0:0:
64,192,271601,1,0,0:0:0:0:
192,192,271672,1,0,0:0:0:0:
320,192,271744,1,0,0:0:0:0:
448,192,271815,1,0,0:0:0:0:
192,192,271886,1,0,0:0:0:0:
448,192,271958,1,0,0:0:0:0:
192,192,272029,1,0,0:0:0:0:
448,192,272101,1,0,0:0:0:0:
64,192,272172,1,0,0:0:0:0:
192,192,272244,1,0,0:0:0:0:
320,192,272315,1,0,0:0:0:0:
192,192,272386,1,0,0:0:0:0:
64,192,272458,1,0,0:0:0:0:
448,192,272529,1,0,0:0:0:0:
192,192,272601,1,0,0:0:0:0:
448,192,272672,1,0,0:0:0:0:
64,192,272744,1,0,0:0:0:0:
192,192,272815,1,0,0:0:0:0:
320,192,272886,1,0,0:0:0:0:
448,192,272958,1,0,0:0:0:0:
64,192,273029,1,0,0:0:0:0:
448,192,273101,1,0,0:0:0:0:
192,192,273172,1,0,0:0:0:0:
448,192,273244,1,0,0:0:0:0:
64,192,273315,1,0,0:0:0:0:
192,192,273386,1,0,0:0:0:0:
320,192,273458,1,0,0:0:0:0:
448,192,273529,1,0,0:0:0:0:
64,192,273601,1,0,0:0:0:0:
320,192,273672,1,0,0:0:0:0:
192,192,273744,1,0,0:0:0:0:
448,192,273815,1,0,0:0:0:0:
64,192,273886,1,0,0:0:0:0:
192,192,273958,1,0,0:0:0:0:
320,192,274029,1,0,0:0:0:0:
448,192,274101,1,0,0:0:0:0:
192,192,274172,1,0,0:0:0:0:
448,192,274244,1,0,0:0:0:0:
192,192,274315,1,0,0:0:0:0:
320,192,274386,1,0,0:0:0:0:
64,192,274458,1,0,0:0:0:0:
192,192,274529,1,0,0:0:0:0:
320,192,274601,1,0,0:0:0:0:
448,192,274672,1,0,0:0:0:0:
64,192,274744,1,0,0:0:0:0:
448,192,274815,1,0,0:0:0:0:
192,192,274886,1,0,0:0:0:0:
320,192,274958,1,0,0:0:0:0:
64,192,275029,1,0,0:0:0:0:
192,192,275101,1,0,0:0:0:0:
320,192,275172,1,0,0:0:0:0:
448,192,275244,1,0,0:0:0:0:
192,192,275315,1,0,0:0:0:0:
448,192,275386,1,0,0:0:0:0:
192,192,275458,1,0,0:0:0:0:
320,192,275529,1,0,0:0:0:0:
64,192,275601,1,0,0:0:0:0:
192,192,275672,1,0,0:0:0:0:
320,192,275744,1,0,0:0:0:0:
448,192,275815,1,0,0:0:0:0:
192,192,275886,1,0,0:0:0:0:
448,192,275958,1,0,0:0:0:0:
320,192,276029,1,0,0:0:0:0:
448,192,276101,1,0,0:0:0:0:
64,192,276172,1,0,0:0:0:0:
320,192,276244,1,0,0:0:0:0:
192,192,276315,1,0,0:0:0:0:
448,192,276386,1,0,0:0:0:0:
64,192,276458,1,0,0:0:0:0:
448,192,276529,1,0,0:0:0:0:
320,192,276601,1,0,0:0:0:0:
448,192,276672,1,0,0:0:0:0:
64,192,276744,1,0,0:0:0:0:
320,192,276815,1,0,0:0:0:0:
192,192,276886,1,0,0:0:0:0:
320,192,276958,1,0,0:0:0:0:
64,192,277029,1,0,0:0:0:0:
448,192,277101,1,0,0:0:0:0:
320,192,277172,1,0,0:0:0:0:
448,192,277244,1,0,0:0:0:0:
64,192,277315,1,0,0:0:0:0:
320,192,277386,1,0,0:0:0:0:
192,192,277458,1,0,0:0:0:0:
448,192,277529,1,0,0:0:0:0:
64,192,277601,1,0,0:0:0:0:
448,192,277672,1,0,0:0:0:0:
320,192,277744,1,0,0:0:0:0:
448,192,277815,1,0,0:0:0:0:
64,192,277886,1,0,0:0:0:0:
320,192,277958,1,0,0:0:0:0:
192,192,278029,1,0,0:0:0:0:
448,192,278101,1,0,0:0:0:0:
64,192,278172,1,0,0:0:0:0:
448,192,278244,1,0,0:0:0:0:
64,192,278315,1,0,0:0:0:0:
192,192,278386,1,0,0:0:0:0:
64,192,278458,1,0,0:0:0:0:
192,192,278529,1,0,0:0:0:0:
320,192,278601,1,0,0:0:0:0:
448,192,278672,1,0,0:0:0:0:
320,192,278744,1,0,0:0:0:0:
448,192,278815,1,0,0:0:0:0:
192,192,278886,1,0,0:0:0:0:
320,192,278958,1,0,0:0:0:0:
64,192,279029,1,0,0:0:0:0:
320,192,279101,1,0,0:0:0:0:
192,192,279172,1,0,0:0:0:0:
448,192,279244,1,0,0:0:0:0:
64,192,279315,1,0,0:0:0:0:
448,192,279386,1,0,0:0:0:0:
320,192,279458,1,0,0:0:0:0:
192,192,279529,1,0,0:0:0:0:
64,192,279601,1,0,0:0:0:0:
448,192,279672,1,0,0:0:0:0:
320,192,279744,1,0,0:0:0:0:
192,192,279815,1,0,0:0:0:0:
64,192,279886,1,0,0:0:0:0:
448,192,279958,1,0,0:0:0:0:
192,192,280029,1,0,0:0:0:0:
320,192,280101,1,0,0:0:0:0:
64,192,280172,1,0,0:0:0:0:
448,192,280244,1,0,0:0:0:0:
64,192,280315,1,0,0:0:0:0:
192,192,280386,1,0,0:0:0:0:
64,192,280458,1,0,0:0:0:0:
448,192,280529,1,0,0:0:0:0:
64,192,280601,1,0,0:0:0:0:
448,192,280672,1,0,0:0:0:0:
192,192,280744,1,0,0:0:0:0:
320,192,280815,1,0,0:0:0:0:
64,192,280886,1,0,0:0:0:0:
448,192,280958,1,0,0:0:0:0:
64,192,281029,1,0,0:0:0:0:
320,192,281101,1,0,0:0:0:0:
64,192,281172,1,0,0:0:0:0:
448,192,281244,1,0,0:0:0:0:
192,192,281315,1,0,0:0:0:0:
448,192,281386,1,0,0:0:0:0:
64,192,281458,1,0,0:0:0:0:
448,192,281529,1,0,0:0:0:0:
192,192,281601,1,0,0:0:0:0:
320,192,281672,1,0,0:0:0:0:
192,192,281744,1,0,0:0:0:0:
448,192,281815,1,0,0:0:0:0:
64,192,281886,1,0,0:0:0:0:
448,192,281958,1,0,0:0:0:0:
64,192,282029,1,0,0:0:0:0:
320,192,282101,1,0,0:0:0:0:
192,192,282172,1,0,0:0:0:0:
320,192,282244,1,0,0:0:0:0:
64,192,282315,1,0,0:0:0:0:
448,192,282386,1,0,0:0:0:0:
192,192,282458,1,0,0:0:0:0:
320,192,282529,1,0,0:0:0:0:
64,192,282601,1,0,0:0:0:0:
448,192,282672,1,0,0:0:0:0:
64,192,282744,1,0,0:0:0:0:
448,192,282815,1,0,0:0:0:0:
320,192,282886,1,0,0:0:0:0:
192,192,282958,1,0,0:0:0:0:
64,192,283029,1,0,0:0:0:0:
192,192,283101,1,0,0:0:0:0:
320,192,283172,1,0,0:0:0:0:
448,192,283244,1,0,0:0:0:0:
64,192,283315,1,0,0:0:0:0:
192,192,283386,1,0,0:0:0:0:
64,192,283458,1,0,0:0:0:0:
448,192,283529,1,0,0:0:0:0:
192,192,283601,1,0,0:0:0:0:
320,192,283672,1,0,0:0:0:0:
192,192,283744,1,0,0:0:0:0:
448,192,283815,1,0,0:0:0:0:
64,192,283886,1,0,0:0:0:0:
448,192,283958,1,0,0:0:0:0:
320,192,284029,1,0,0:0:0:0:
448,192,284101,1,0,0:0:0:0:
64,192,284172,1,0,0:0:0:0:
192,192,284244,1,0,0:0:0:0:
320,192,284315,1,0,0:0:0:0:
448,192,284386,1,0,0:0:0:0:
64,192,284458,1,0,0:0:0:0:
448,192,284529,1,0,0:0:0:0:
64,192,284601,1,0,0:0:0:0:
320,192,284672,1,0,0:0:0:0:
64,192,284744,1,0,0:0:0:0:
448,192,284815,1,0,0:0:0:0:
192,192,284886,1,0,0:0:0:0:
320,192,284958,1,0,0:0:0:0:
64,192,285029,1,0,0:0:0:0:
448,192,285101,1,0,0:0:0:0:
320,192,285172,1,0,0:0:0:0:
192,192,285244,1,0,0:0:0:0:
64,192,285315,1,0,0:0:0:0:
448,192,285386,1,0,0:0:0:0:
64,192,285458,1,0,0:0:0:0:
192,192,285529,1,0,0:0:0:0:
320,192,285601,1,0,0:0:0:0:
448,192,285672,1,0,0:0:0:0:
64,192,285744,1,0,0:0:0:0:
448,192,285815,1,0,0:0:0:0:
320,192,285886,1,0,0:0:0:0:
192,192,285958,1,0,0:0:0:0:
64,192,286029,1,0,0:0:0:0:
448,192,286101,1,0,0:0:0:0:
320,192,286172,1,0,0:0:0:0:
192,192,286244,1,0,0:0:0:0:
320,192,286315,1,0,0:0:0:0:
192,192,286386,1,0,0:0:0:0:
64,192,286458,1,0,0:0:0:0:
448,192,286529,1,0,0:0:0:0:
64,192,286601,1,0,0:0:0:0:
192,192,286672,1,0,0:0:0:0:
320,192,286744,1,0,0:0:0:0:
448,192,286815,1,0,0:0:0:0:
320,192,286886,1,0,0:0:0:0:
192,192,286958,1,0,0:0:0:0:
64,192,287029,1,0,0:0:0:0:
448,192,287101,1,0,0:0:0:0:
320,192,287172,1,0,0:0:0:0:
448,192,287244,1,0,0:0:0:0:
320,192,287315,1,0,0:0:0:0:
192,192,287386,1,0,0:0:0:0:
64,192,287458,1,0,0:0:0:0:
320,192,287529,1,0,0:0:0:0:
192,192,287601,1,0,0:0:0:0:
320,192,287672,1,0,0:0:0:0:
64,192,287744,1,0,0:0:0:0:
448,192,287815,1,0,0:0:0:0:
64,192,287886,1,0,0:0:0:0:
320,192,287958,1,0,0:0:0:0:
192,192,288029,1,0,0:0:0:0:
448,192,288101,1,0,0:0:0:0:
192,192,288172,1,0,0:0:0:0:
448,192,288244,1,0,0:0:0:0:
64,192,288315,1,0,0:0:0:0:
320,192,288386,1,0,0:0:0:0:
64,192,288458,1,0,0:0:0:0:
448,192,288529,1,0,0:0:0:0:
192,192,288601,1,0,0:0:0:0:
320,192,288672,1,0,0:0:0:0:
64,192,288744,1,0,0:0:0:0:
320,192,288815,1,0,0:0:0:0:
192,192,288886,1,0,0:0:0:0:
448,192,288958,1,0,0:0:0:0:
64,192,289029,1,0,0:0:0:0:
448,192,289101,1,0,0:0:0:0:
320,192,289172,1,0,0:0:0:0:
448,192,289244,1,0,0:0:0:0:
64,192,289315,1,0,0:0:0:0:
192,192,289386,1,0,0:0:0:0:
64,192,289458,1,0,0:0:0:0:
448,192,289529,1,0,0:0:0:0:
192,192,289601,1,0,0:0:0:0:
448,192,289672,1,0,0:0:0:0:
64,192,289744,1,0,0:0:0:0:
192,192,289815,1,0,0:0:0:0:
320,192,289886,1,0,0:0:0:0:
448,192,289958,1,0,0:0:0:0:
320,192,290029,1,0,0:0:0:0:
192,192,290101,1,0,0:0:0:0:
64,192,290172,1,0,0:0:0:0:
448,192,290244,1,0,0:0:0:0:
64,192,290315,1,0,0:0:0:0:
192,192,290386,1,0,0:0:0:0:
320,192,290458,1,0,0:0:0:0:
448,192,290529,1,0,0:0:0:0:
320,192,290601,1,0,0:0:0:0:
192,192,290672,1,0,0:0:0:0:
64,192,290744,1,0,0:0:0:0:
448,192,290815,1,0,0:0:0:0:
320,192,290886,1,0,0:0:0:0:
448,192,290958,1,0,0:0:0:0:
192,192,291029,1,0,0:0:0:0:
320,192,291101,1,0,0:0:0:0:
64,192,291172,1,0,0:0:0:0:
320,192,291244,1,0,0:0:0:0:
192,192,291315,1,0,0:0:0:0:
448,192,291386,1,0,0:0:0:0:
64,192,291458,1,0,0:0:0:0:
192,192,291529,1,0,0:0:0:0:
320,192,291601,1,0,0:0:0:0:
448,192,291672,1,0,0:0:0:0:
64,192,291744,1,0,0:0:0:0:
192,192,291815,1,0,0:0:0:0:
320,192,291886,1,0,0:0:0:0:
192,192,291958,1,0,0:0:0:0:
64,192,292029,1,0,0:0:0:0:
320,192,292101,1,0,0:0:0:0:
192,192,292172,1,0,0:0:0:0:
320,192,292244,1,0,0:0:0:0:
64,192,292315,1,0,0:0:0:0:
448,192,292386,1,0,0:0:0:0:
192,192,292458,1,0,0:0:0:0:
448,192,292529,1,0,0:0:0:0:
64,192,292601,1,0,0:0:0:0:
320,192,292672,1,0,0:0:0:0:
192,192,292744,1,0,0:0:0:0:
320,192,292815,1,0,0:0:0:0:
64,192,292886,1,0,0:0:0:0:
448,192,292958,1,0,0:0:0:0:
64,192,293029,1,0,0:0:0:0:
448,192,293101,1,0,0:0:0:0:
320,192,293172,1,0,0:0:0:0:
448,192,293244,1,0,0:0:0:0:
320,192,293315,1,0,0:0:0:0:
192,192,293386,1,0,0:0:0:0:
64,192,293458,1,0,0:0:0:0:
192,192,293529,1,0,0:0:0:0:
320,192,293601,1,0,0:0:0:0:
448,192,293672,1,0,0:0:0:0:
64,192,293744,1,0,0:0:0:0:
192,192,293815,1,0,0:0:0:0:
64,192,293886,1,0,0:0:0:0:
448,192,293958,1,0,0:0:0:0:
320,192,294029,1,0,0:0:0:0:
448,192,294101,1,0,0:0:0:0:
64,192,294172,1,0,0:0:0:0:
192,192,294244,1,0,0:0:0:0:
64,192,294315,1,0,0:0:0:0:
448,192,294386,1,0,0:0:0:0:
192,192,294458,1,0,0:0:0:0:
448,192,294529,1,0,0:0:0:0:
192,192,294601,1,0,0:0:0:0:
320,192,294672,1,0,0:0:0:0:
64,192,294744,1,0,0:0:0:0:
448,192,294815,1,0,0:0:0:0:
64,192,294886,1,0,0:0:0:0:
192,192,294958,1,0,0:0:0:0:
320,192,295029,1,0,0:0:0:0:
192,192,295101,1,0,0:0:0:0:
320,192,295172,1,0,0:0:0:0:
448,192,295244,1,0,0:0:0:0:
64,192,295315,1,0,0:0:0:0:
320,192,295386,1,0,0:0:0:0:
64,192,295458,1,0,0:0:0:0:
448,192,295529,1,0,0:0:0:0:
192,192,295601,1,0,0:0:0:0:
448,192,295672,1,0,0:0:0:0:
192,192,295744,1,0,0:0:0:0:
320,192,295815,1,0,0:0:0:0:
64,192,295886,1,0,0:0:0:0:
448,192,295958,1,0,0:0:0:0:
320,192,296029,1,0,0:0:0:0:
192,192,296101,1,0,0:0:0:0:
64,192,296172,1,0,0:0:0:0:
192,192,296244,1,0,0:0:0:0:
64,192,296315,1,0,0:0:0:0:
448,192,296386,1,0,0:0:0:0:
320,192,296458,1,0,0:0:0:0:
192,192,296529,1,0,0:0:0:0:
320,192,296601,1,0,0:0:0:0:
448,192,296672,1,0,0:0:0:0:
64,192,296744,1,0,0:0:0:0:
448,192,296815,1,0,0:0:0:0:
64,192,296886,1,0,0:0:0:0:
320,192,296958,1,0,0:0:0:0:
192,192,297029,1,0,0:0:0:0:
448,192,297101,1,0,0:0:0:0:
64,192,297172,1,0,0:0:0:0:
320,192,297244,1,0,0:0:0:0:
192,192,297315,1,0,0:0:0:0:
320,192,297386,1,0,0:0:0:0:
192,192,297458,1,0,0:0:0:0:
448,192,297529,1,0,0:0:0:0:
64,192,297601,1,0,0:0:0:0:
448,192,297672,1,0,0:0:0:0:
320,192,297744,1,0,0:0:0:0:
192,192,297815,1,0,0:0:0:0:
64,192,297886,1,0,0:0:0:0:
448,192,297958,1,0,0:0:0:0:
192,192,298029,1,0,0:0:0:0:
320,192,298101,1,0,0:0:0:0:
192,192,298172,1,0,0:0:0:0:
448,192,298244,1,0,0:0:0:0:
64,192,298315,1,0,0:0:0:0:
192,192,298386,1,0,0:0:0:0:
320,192,298458,1,0,0:0:0:0:
192,192,298529,1,0,0:0:0:0:
64,192,298601,1,0,0:0:0:0:
448,192,298672,1,0,0:0:0:0:
192,192,298744,1,0,0:0:0:0:
320,192,298815,1,0,0:0:0:0:
192,192,298886,1,0,0:0:0:0:
448,192,298958,1,0,0:0:0:0:
320,192,299029,1,0,0:0:0:0:
192,192,299101,1,0,0:0:0:0:
64,192,299172,1,0,0:0:0:0:
448,192,299244,1,0,0:0:0:0:
64,192,299315,1,0,0:0:0:0:
192,192,299386,1,0,0:0:0:0:
64,192,299458,1,0,0:0:0:0:
448,192,299529,1,0,0:0:0:0:
320,192,299601,1,0,0:0:0:0:
448,192,299672,1,0,0:0:0:0:
64,192,299744,1,0,0:0:0:0:
448,192,299815,1,0,0:0:0:0:
320,192,299886,1,0,0:0:0:0:
192,192,299958,1,0,0:0:0:0:
320,192,300029,1,0,0:0:0:0:
448,192,300101,1,0,0:0:0:0:
64,192,300172,1,0,0:0:0:0:
448,192,300244,1,0,0:0:0:0:
64,192,300315,1,0,0:0:0:0:
192,192,300386,1,0,0:0:0:0:
320,192,300458,1,0,0:0:0:0:
192,192,300529,1,0,0:0:0:0:
64,192,300601,1,0,0:0:0:0:
448,192,300672,1,0,0:0:0:0:
320,192,300744,1,0,0:0:0:0:
192,192,300815,1,0,0:0:0:0:
64,192,300886,1,0,0:0:0:0:
448,192,300958,1,0,0:0:0:0:
64,192,301029,1,0,0:0:0:0:
448,192,301101,1,0,0:0:0:0:
192,192,301172,1,0,0:0:0:0:
320,192,301244,1,0,0:0:0:0:
64,192,301315,1,0,0:0:0:0:
320,192,301386,1,0,0:0:0:0:
192,192,301458,1,0,0:0:0:0:
448,192,301529,1,0,0:0:0:0:
64,192,301601,1,0,0:0:0:0:
320,192,301672,1,0,0:0:0:0:
64,192,301744,1,0,0:0:0:0:
448,192,301815,1,0,0:0:0:0:
320,192,301886,1,0,0:0:0:0:
192,192,301958,1,0,0:0:0:0:
320,192,302029,1,0,0:0:0:0:
448,192,302101,1,0,0:0:0:0:
64,192,302172,1,0,0:0:0:0:
448,192,302244,1,0,0:0:0:0:
192,192,302315,1,0,0:0:0:0:
448,192,302386,1,0,0:0:0:0:
64,192,302458,1,0,0:0:0:0:
320,192,302529,1,0,0:0:0:0:
192,192,302601,1,0,0:0:0:0:
448,192,302672,1,0,0:0:0:0:
64,192,302744,1,0,0:0:0:0:
448,192,302815,1,0,0:0:0:0:
64,192,302886,1,0,0:0:0:0:
192,192,302958,1,0,0:0:0:0:
64,192,303029,1,0,0:0:0:0:
448,192,303101,1,0,0:0:0:0:
320,192,303172,1,0,0:0:0:0:
192,192,303244,1,0,0:0:0:0:
64,192,303315,1,0,0:0:0:0:
448,192,303386,1,0,0:0:0:0:
192,192,303458,1,0,0:0:0:0:
320,192,303529,1,0,0:0:0:0:
64,192,303601,1,0,0:0:0:0:
448,192,303672,1,0,0:0:0:0:
64,192,303744,1,0,0:0:0:0:
320,192,303815,1,0,0:0:0:0:
192,192,303886,1,0,0:0:0:0:
448,192,303958,1,0,0:0:0:0:
64,192,304029,1,0,0:0:0:0:
448,192,304101,1,0,0:0:0:0:
192,192,304172,1,0,0:0:0:0:
320,192,304244,1,0,0:0:0:0:
64,192,304315,1,0,0:0:0:0:
448,192,304386,1,0,0:0:0:0:
192,192,304458,1,0,0:0:0:0:
320,192,304529,1,0,0:0:0:0:
192,192,304601,1,0,0:0:0:0:
320,192,304672,1,0,0:0:0:0:
64,192,304744,1,0,0:0:0:0:
448,192,304815,1,0,0:0:0:0:
64,192,304886,1,0,0:0:0:0:
320,192,304958,1,0,0:0:0:0:
192,192,305029,1,0,0:0:0:0:
448,192,305101,1,0,0:0:0:0:
192,192,305172,1,0,0:0:0:0:
320,192,305244,1,0,0:0:0:0:
64,192,305315,1,0,0:0:0:0:
448,192,305386,1,0,0:0:0:0:
192,192,305458,1,0,0:0:0:0:
448,192,305529,1,0,0:0:0:0:
192,192,305601,1,0,0:0:0:0:
320,192,305672,1,0,0:0:0:0:
64,192,305744,1,0,0:0:0:0:
192,192,305815,1,0,0:0:0:0:
320,192,305886,1,0,0:0:0:0:
192,192,305958,1,0,0:0:0:0:
64,192,306029,1,0,0:0:0:0:
448,192,306101,1,0,0:0:0:0:
64,192,306172,1,0,0:0:0:0:
192,192,306244,1,0,0:0:0:0:
320,192,306315,1,0,0:0:0:0:
448,192,306386,1,0,0:0:0:0:
320,192,306458,1,0,0:0:0:0:
448,192,306529,1,0,0:0:0:0:
64,192,306601,1,0,0:0:0:0:
192,192,306672,1,0,0:0:0:0:
64,192,306744,1,0,0:0:0:0:
448,192,306815,1,0,0:0:0:0:
320,192,306886,1,0,0:0:0:0:
192,192,306958,1,0,0:0:0:0:
64,192,307029,1,0,0:0:0:0:
192,192,307101,1,0,0:0:0:0:
320,192,307172,1,0,0:0:0:0:
448,192,307244,1,0,0:0:0:0:
64,192,307315,1,0,0:0:0:0:
448,192,307386,1,0,0:0:0:0:
192,192,307458,1,0,0:0:0:0:
448,192,307529,1,0,0:0:0:0:
64,192,307601,1,0,0:0:0:0:
320,192,307672,1,0,0:0:0:0:
64,192,307744,1,0,0:0:0:0:
448,192,307815,1,0,0:0:0:0:
320,192,307886,1,0,0:0:0:0:
448,192,307958,1,0,0:0:0:0:
64,192,308029,1,0,0:0:0:0:
320,192,308101,1,0,0:0:0:0:
192,192,308172,1,0,0:0:0:0:
448,192,308244,1,0,0:0:0:0:
192,192,308315,1,0,0:0:0:0:
320,192,308386,1,0,0:0:0:0:
64,192,308458,1,0,0:0:0:0:
448,192,308529,1,0,0:0:0:0:
64,192,308601,1,0,0:0:0:0:
320,192,308672,1,0,0:0:0:0:
192,192,308744,1,0,0:0:0:0:
448,192,308815,1,0,0:0:0:0:
192,192,308886,1,0,0:0:0:0:
320,192,308958,1,0,0:0:0:0:
64,192,309029,1,0,0:0:0:0:
448,192,309101,1,0,0:0:0:0:
192,192,309172,1,0,0:0:0:0:
448,192,309244,1,0,0:0:0:0:
320,192,309315,1,0,0:0:0:0:
192,192,309386,1,0,0:0:0:0:
64,192,309458,1,0,0:0:0:0:
192,192,309529,1,0,0:0:0:0:
320,192,309601,1,0,0:0:0:0:
448,192,309672,1,0,0:0:0:0:
64,192,309744,1,0,0:0:0:0:
320,192,309815,1,0,0:0:0:0:
192,192,309886,1,0,0:0:0:0:
448,192,309958,1,0,0:0:0:0:
64,192,310029,1,0,0:0:0:0:
320,192,310101,1,0,0:0:0:0:
192,192,310172,1,0,0:0:0:0:
320,192,310244,1,0,0:0:0:0:
64,192,310315,1,0,0:0:0:0:
192,192,310386,1,0,0:0:0:0:
320,192,310458,1,0,0:0:0:0:
192,192,310529,1,0,0:0:0:0:
64,192,310601,1,0,0:0:0:0:
448,192,310672,1,0,0:0:0:0:
320,192,310744,1,0,0:0:0:0:
448,192,310815,1,0,0:0:0:0:
64,192,310886,1,0,0:0:0:0:
192,192,310958,1,0,0:0:0:0:
320,192,311029,1,0,0:0:0:0:
192,192,311101,1,0,0:0:0:0:
64,192,311172,1,0,0:0:0:0:
448,192,311244,1,0,0:0:0:0:
64,192,311315,1,0,0:0:0:0:
448,192,311386,1,0,0:0:0:0:
192,192,311458,1,0,0:0:0:0:
448,192,311529,1,0,0:0:0:0:
192,192,311601,1,0,0:0:0:0:
320,192,311672,1,0,0:0:0:0:
64,192,311744,1,0,0:0:0:0:
320,192,311815,1,0,0:0:0:0:
192,192,311886,1,0,0:0:0:0:
448,192,311958,1,0,0:0:0:0:
64,192,312029,1,0,0:0:0:0:
320,192,312101,1,0,0:0:0:0:
64,192,312172,1,0,0:0:0:0:
448,192,312244,1,0,0:0:0:0:
192,192,312315,1,0,0:0:0:0:
448,192,312386,1,0,0:0:0:0:
64,192,312458,1,0,0:0:0:0:
320,192,312529,1,0,0:0:0:0:
192,192,317389,1,0,0:0:0:0:
320,192,317389,1,0,0:0:0:0:
192,192,317604,1,0,0:0:0:0:
448,192,317604,1,0,0:0:0:0:
64,192,317746,1,0,0:0:0:0:
448,192,317746,1,0,0:0:0:0:
64,192,317961,1,0,0:0:0:0:
192,192,317961,1,0,0:0:0:0:
320,192,318175,1,0,0:0:0:0:
448,192,318175,1,0,0:0:0:0:
192,192,318318,1,0,0:0:0:0:
320,192,318318,1,0,0:0:0:0:
64,192,318532,1,0,0:0:0:0:
448,192,318532,1,0,0:0:0:0:
192,192,318746,1,0,0:0:0:0:
448,192,318746,1,0,0:0:0:0:
192,192,318889,1,0,0:0:0:0:
320,192,318889,1,0,0:0:0:0:
64,192,319104,1,0,0:0:0:0:
320,192,319104,1,0,0:0:0:0:
64,192,319318,1,0,0:0:0:0:
192,192,319318,1,0,0:0:0:0:
320,192,319461,1,0,0:0:0:0:
448,192,319461,1,0,0:0:0:0:
64,192,319675,1,0,0:0:0:0:
192,192,319675,1,0,0:0:0:0:
192,192,319889,1,0,0:0:0:0:
320,192,319889,1,0,0:0:0:0:
64,192,320032,1,0,0:0:0:0:
448,192,320032,1,0,0:0:0:0:
192,192,320246,1,0,0:0:0:0:
448,192,320246,1,0,0:0:0:0:
64,192,320461,1,0,0:0:0:0:
320,192,320461,1,0,0:0:0:0:
64,192,320604,1,0,0:0:0:0:
448,192,320604,1,0,0:0:0:0:
64,192,320818,1,0,0:0:0:0:
192,192,320818,1,0,0:0:0:0:
192,192,321032,1,0,0:0:0:0:
320,192,321032,1,0,0:0:0:0:
320,192,321175,1,0,0:0:0:0:
448,192,321175,1,0,0:0:0:0:
64,192,321389,1,0,0:0:0:0:
448,192,321389,1,0,0:0:0:0:
192,192,321604,1,0,0:0:0:0:
448,192,321604,1,0,0:0:0:0:
