osu file format v13

[General]
AudioFilename: DJ Sharpnel - Vendita Di Magia.mp3
AudioLeadIn: 2
PreviewTime: 0
Countdown: 0
SampleSet: Normal
StackLeniency: 0.7
Mode: 3
LetterboxInBreaks: 0
SpecialStyle: 0
WidescreenStoryboard: 0

[Editor]
DistanceSpacing: 0.8
BeatDivisor: 4
GridSize: 8
TimelineZoom: 1

[Metadata]
Title:Vendita Di Magia
TitleUnicode:Vendita Di Magia
Artist:DJ Sharpnel
ArtistUnicode:DJ Sharpnel
Creator:MasterSonic10
Version:SC
Source:Stepmania
Tags:Stepmania
BeatmapID:485880
BeatmapSetID:205950

[Difficulty]
HPDrainRate:8
CircleSize:4
OverallDifficulty:7
ApproachRate:10
SliderMultiplier:1.4
SliderTickRate:1

[Events]
//Background and Video events
0,0,"background.jpg",0,0
//Break Periods
//Storyboard Layer 0 (Background)
//Storyboard Layer 1 (Fail)
//Storyboard Layer 2 (Pass)
//Storyboard Layer 3 (Foreground)
//Storyboard Sound Samples
//Background Colour Transformations
3,100,163,162,255

[TimingPoints]
158.98,400,4,1,0,15,1,0

[HitObjects]
192,0,558,128,0,2158:1:0:0:0:
64,0,2158,128,0,2225:1:0:0:0:
448,0,2158,128,0,2225:1:0:0:0:
192,192,2358,1,0,0:0:0:0:
320,192,2558,1,0,0:0:0:0:
448,192,2558,1,0,0:0:0:0:
64,192,2758,1,0,0:0:0:0:
192,192,2858,1,0,0:0:0:0:
320,192,2958,1,0,0:0:0:0:
448,192,2958,1,0,0:0:0:0:
192,192,3058,1,0,0:0:0:0:
320,192,3158,1,0,0:0:0:0:
192,192,3258,1,0,0:0:0:0:
64,192,3358,1,0,0:0:0:0:
448,192,3358,1,0,0:0:0:0:
192,192,3458,1,0,0:0:0:0:
320,192,3558,1,0,0:0:0:0:
192,192,3658,1,0,0:0:0:0:
320,192,3758,1,0,0:0:0:0:
448,192,3758,1,0,0:0:0:0:
192,192,3858,1,0,0:0:0:0:
64,192,3958,1,0,0:0:0:0:
192,192,4058,1,0,0:0:0:0:
320,192,4158,1,0,0:0:0:0:
448,192,4158,1,0,0:0:0:0:
192,192,4258,1,0,0:0:0:0:
320,192,4358,1,0,0:0:0:0:
192,192,4458,1,0,0:0:0:0:
320,192,4558,1,0,0:0:0:0:
448,192,4558,1,0,0:0:0:0:
192,192,4658,1,0,0:0:0:0:
64,192,4758,1,0,0:0:0:0:
192,192,4858,1,0,0:0:0:0:
64,192,4958,1,0,0:0:0:0:
448,192,4958,1,0,0:0:0:0:
192,192,5058,1,0,0:0:0:0:
64,192,5158,1,0,0:0:0:0:
320,192,5258,1,0,0:0:0:0:
64,192,5358,1,0,0:0:0:0:
192,192,5358,1,0,0:0:0:0:
320,192,5458,1,0,0:0:0:0:
448,192,5558,1,0,0:0:0:0:
320,192,5658,1,0,0:0:0:0:
64,192,5758,1,0,0:0:0:0:
192,192,5758,1,0,0:0:0:0:
320,192,5858,1,0,0:0:0:0:
192,192,5958,1,0,0:0:0:0:
320,192,6058,1,0,0:0:0:0:
64,192,6158,1,0,0:0:0:0:
192,192,6158,1,0,0:0:0:0:
320,192,6258,1,0,0:0:0:0:
448,192,6358,1,0,0:0:0:0:
320,192,6458,1,0,0:0:0:0:
64,192,6558,1,0,0:0:0:0:
448,192,6558,1,0,0:0:0:0:
320,192,6658,1,0,0:0:0:0:
192,192,6758,1,0,0:0:0:0:
320,192,6858,1,0,0:0:0:0:
64,192,6958,1,0,0:0:0:0:
192,192,6958,1,0,0:0:0:0:
320,192,7058,1,0,0:0:0:0:
448,192,7158,1,0,0:0:0:0:
320,192,7258,1,0,0:0:0:0:
64,192,7358,1,0,0:0:0:0:
192,192,7358,1,0,0:0:0:0:
320,192,7458,1,0,0:0:0:0:
192,192,7558,1,0,0:0:0:0:
320,192,7658,1,0,0:0:0:0:
64,192,7758,1,0,0:0:0:0:
192,192,7758,1,0,0:0:0:0:
64,192,7858,1,0,0:0:0:0:
64,192,7958,1,0,0:0:0:0:
64,192,8058,1,0,0:0:0:0:
192,192,8108,1,0,0:0:0:0:
320,192,8158,1,0,0:0:0:0:
448,192,8158,1,0,0:0:0:0:
448,192,8258,1,0,0:0:0:0:
448,192,8358,1,0,0:0:0:0:
320,192,8408,1,0,0:0:0:0:
192,192,8458,1,0,0:0:0:0:
64,192,8508,1,0,0:0:0:0:
320,0,8558,128,0,8625:1:0:0:0:
448,0,8558,128,0,8625:1:0:0:0:
192,192,8658,1,0,0:0:0:0:
64,192,8758,1,0,0:0:0:0:
192,192,8858,1,0,0:0:0:0:
320,192,8958,1,0,0:0:0:0:
448,192,8958,1,0,0:0:0:0:
192,192,9058,1,0,0:0:0:0:
320,192,9158,1,0,0:0:0:0:
192,192,9258,1,0,0:0:0:0:
320,192,9359,1,0,0:0:0:0:
448,192,9359,1,0,0:0:0:0:
192,192,9459,1,0,0:0:0:0:
64,192,9559,1,0,0:0:0:0:
192,192,9659,1,0,0:0:0:0:
64,192,9759,1,0,0:0:0:0:
448,192,9759,1,0,0:0:0:0:
192,192,9859,1,0,0:0:0:0:
320,192,9959,1,0,0:0:0:0:
192,192,10059,1,0,0:0:0:0:
320,192,10159,1,0,0:0:0:0:
448,192,10159,1,0,0:0:0:0:
192,192,10259,1,0,0:0:0:0:
64,192,10359,1,0,0:0:0:0:
448,192,10459,1,0,0:0:0:0:
192,192,10559,1,0,0:0:0:0:
320,192,10559,1,0,0:0:0:0:
64,192,10659,1,0,0:0:0:0:
448,192,10759,1,0,0:0:0:0:
320,192,10859,1,0,0:0:0:0:
64,192,10959,1,0,0:0:0:0:
192,192,10959,1,0,0:0:0:0:
320,192,11059,1,0,0:0:0:0:
192,192,11159,1,0,0:0:0:0:
320,192,11259,1,0,0:0:0:0:
64,192,11359,1,0,0:0:0:0:
192,192,11359,1,0,0:0:0:0:
320,192,11459,1,0,0:0:0:0:
448,192,11559,1,0,0:0:0:0:
320,192,11659,1,0,0:0:0:0:
64,192,11759,1,0,0:0:0:0:
448,192,11759,1,0,0:0:0:0:
320,192,11859,1,0,0:0:0:0:
192,192,11959,1,0,0:0:0:0:
320,192,12059,1,0,0:0:0:0:
64,192,12159,1,0,0:0:0:0:
192,192,12159,1,0,0:0:0:0:
320,192,12259,1,0,0:0:0:0:
448,192,12359,1,0,0:0:0:0:
64,192,12459,1,0,0:0:0:0:
192,192,12559,1,0,0:0:0:0:
320,192,12559,1,0,0:0:0:0:
448,192,12659,1,0,0:0:0:0:
320,192,12759,1,0,0:0:0:0:
192,192,12859,1,0,0:0:0:0:
320,192,12959,1,0,0:0:0:0:
448,192,12959,1,0,0:0:0:0:
192,192,13059,1,0,0:0:0:0:
64,192,13159,1,0,0:0:0:0:
192,192,13259,1,0,0:0:0:0:
320,192,13359,1,0,0:0:0:0:
448,192,13359,1,0,0:0:0:0:
192,192,13459,1,0,0:0:0:0:
320,192,13559,1,0,0:0:0:0:
192,192,13659,1,0,0:0:0:0:
64,192,13759,1,0,0:0:0:0:
448,192,13759,1,0,0:0:0:0:
192,192,13859,1,0,0:0:0:0:
320,192,13959,1,0,0:0:0:0:
192,192,14059,1,0,0:0:0:0:
320,192,14159,1,0,0:0:0:0:
448,192,14159,1,0,0:0:0:0:
448,192,14259,1,0,0:0:0:0:
448,192,14359,1,0,0:0:0:0:
448,192,14459,1,0,0:0:0:0:
320,192,14509,1,0,0:0:0:0:
64,192,14559,1,0,0:0:0:0:
192,192,14559,1,0,0:0:0:0:
64,192,14659,1,0,0:0:0:0:
64,192,14759,1,0,0:0:0:0:
192,192,14809,1,0,0:0:0:0:
320,192,14859,1,0,0:0:0:0:
448,192,14909,1,0,0:0:0:0:
64,0,14959,128,0,15025:1:0:0:0:
192,0,14959,128,0,15025:1:0:0:0:
320,192,15059,1,0,0:0:0:0:
448,192,15059,1,0,0:0:0:0:
64,192,15159,1,0,0:0:0:0:
192,192,15259,1,0,0:0:0:0:
320,192,15359,1,0,0:0:0:0:
448,192,15359,1,0,0:0:0:0:
192,192,15459,1,0,0:0:0:0:
320,192,15559,1,0,0:0:0:0:
192,192,15659,1,0,0:0:0:0:
320,192,15759,1,0,0:0:0:0:
448,192,15759,1,0,0:0:0:0:
192,192,15859,1,0,0:0:0:0:
320,192,15959,1,0,0:0:0:0:
192,192,16059,1,0,0:0:0:0:
64,192,16159,1,0,0:0:0:0:
448,192,16159,1,0,0:0:0:0:
192,192,16259,1,0,0:0:0:0:
320,192,16359,1,0,0:0:0:0:
448,192,16459,1,0,0:0:0:0:
64,192,16559,1,0,0:0:0:0:
192,192,16559,1,0,0:0:0:0:
320,192,16659,1,0,0:0:0:0:
448,192,16659,1,0,0:0:0:0:
64,192,16759,1,0,0:0:0:0:
192,192,16859,1,0,0:0:0:0:
320,192,16959,1,0,0:0:0:0:
448,192,16959,1,0,0:0:0:0:
192,192,17059,1,0,0:0:0:0:
320,192,17159,1,0,0:0:0:0:
192,192,17259,1,0,0:0:0:0:
320,192,17359,1,0,0:0:0:0:
448,192,17359,1,0,0:0:0:0:
192,192,17459,1,0,0:0:0:0:
64,192,17559,1,0,0:0:0:0:
192,192,17659,1,0,0:0:0:0:
64,192,17759,1,0,0:0:0:0:
448,192,17759,1,0,0:0:0:0:
192,192,17859,1,0,0:0:0:0:
320,192,17959,1,0,0:0:0:0:
192,192,18059,1,0,0:0:0:0:
320,192,18159,1,0,0:0:0:0:
448,192,18159,1,0,0:0:0:0:
64,192,18259,1,0,0:0:0:0:
192,192,18259,1,0,0:0:0:0:
448,192,18359,1,0,0:0:0:0:
320,192,18459,1,0,0:0:0:0:
64,192,18559,1,0,0:0:0:0:
192,192,18559,1,0,0:0:0:0:
320,192,18659,1,0,0:0:0:0:
192,192,18759,1,0,0:0:0:0:
320,192,18859,1,0,0:0:0:0:
64,192,18959,1,0,0:0:0:0:
448,192,18959,1,0,0:0:0:0:
320,192,19059,1,0,0:0:0:0:
192,192,19159,1,0,0:0:0:0:
320,192,19259,1,0,0:0:0:0:
64,192,19359,1,0,0:0:0:0:
192,192,19359,1,0,0:0:0:0:
448,192,19459,1,0,0:0:0:0:
64,192,19559,1,0,0:0:0:0:
192,192,19659,1,0,0:0:0:0:
320,192,19759,1,0,0:0:0:0:
448,192,19759,1,0,0:0:0:0:
64,192,19859,1,0,0:0:0:0:
192,192,19859,1,0,0:0:0:0:
448,192,19959,1,0,0:0:0:0:
320,192,20059,1,0,0:0:0:0:
64,192,20159,1,0,0:0:0:0:
192,192,20159,1,0,0:0:0:0:
320,192,20259,1,0,0:0:0:0:
192,192,20359,1,0,0:0:0:0:
320,192,20459,1,0,0:0:0:0:
64,192,20559,1,0,0:0:0:0:
448,192,20559,1,0,0:0:0:0:
320,192,20659,1,0,0:0:0:0:
192,192,20759,1,0,0:0:0:0:
320,192,20859,1,0,0:0:0:0:
64,192,20959,1,0,0:0:0:0:
448,192,20959,1,0,0:0:0:0:
320,192,21059,1,0,0:0:0:0:
448,192,21159,1,0,0:0:0:0:
320,192,21259,1,0,0:0:0:0:
64,192,21359,1,0,0:0:0:0:
192,192,21359,1,0,0:0:0:0:
320,192,21459,1,0,0:0:0:0:
448,192,21459,1,0,0:0:0:0:
64,192,21559,1,0,0:0:0:0:
192,192,21659,1,0,0:0:0:0:
320,192,21759,1,0,0:0:0:0:
448,192,21759,1,0,0:0:0:0:
192,192,21859,1,0,0:0:0:0:
320,192,21959,1,0,0:0:0:0:
192,192,22059,1,0,0:0:0:0:
64,192,22159,1,0,0:0:0:0:
448,192,22159,1,0,0:0:0:0:
192,192,22259,1,0,0:0:0:0:
320,192,22359,1,0,0:0:0:0:
192,192,22459,1,0,0:0:0:0:
64,192,22559,1,0,0:0:0:0:
448,192,22559,1,0,0:0:0:0:
192,192,22659,1,0,0:0:0:0:
320,192,22759,1,0,0:0:0:0:
448,192,22859,1,0,0:0:0:0:
64,192,22959,1,0,0:0:0:0:
192,192,22959,1,0,0:0:0:0:
320,192,23059,1,0,0:0:0:0:
448,192,23059,1,0,0:0:0:0:
64,192,23159,1,0,0:0:0:0:
192,192,23259,1,0,0:0:0:0:
320,192,23359,1,0,0:0:0:0:
448,192,23359,1,0,0:0:0:0:
192,192,23459,1,0,0:0:0:0:
320,192,23559,1,0,0:0:0:0:
192,192,23659,1,0,0:0:0:0:
64,192,23759,1,0,0:0:0:0:
448,192,23759,1,0,0:0:0:0:
192,192,23859,1,0,0:0:0:0:
320,192,23959,1,0,0:0:0:0:
192,192,24059,1,0,0:0:0:0:
320,192,24159,1,0,0:0:0:0:
448,192,24159,1,0,0:0:0:0:
64,192,24259,1,0,0:0:0:0:
192,192,24359,1,0,0:0:0:0:
320,192,24459,1,0,0:0:0:0:
64,192,24559,1,0,0:0:0:0:
448,192,24559,1,0,0:0:0:0:
192,192,24659,1,0,0:0:0:0:
320,192,24659,1,0,0:0:0:0:
448,192,24759,1,0,0:0:0:0:
64,192,24859,1,0,0:0:0:0:
192,192,24959,1,0,0:0:0:0:
320,192,24959,1,0,0:0:0:0:
448,192,25059,1,0,0:0:0:0:
64,192,25159,1,0,0:0:0:0:
448,192,25259,1,0,0:0:0:0:
192,192,25359,1,0,0:0:0:0:
320,192,25359,1,0,0:0:0:0:
448,192,25459,1,0,0:0:0:0:
64,192,25559,1,0,0:0:0:0:
448,192,25659,1,0,0:0:0:0:
192,192,25759,1,0,0:0:0:0:
320,192,25759,1,0,0:0:0:0:
64,192,25859,1,0,0:0:0:0:
448,192,25959,1,0,0:0:0:0:
64,192,26059,1,0,0:0:0:0:
448,192,26159,1,0,0:0:0:0:
320,192,26184,1,0,0:0:0:0:
192,192,26209,1,0,0:0:0:0:
64,192,26234,1,0,0:0:0:0:
448,192,26259,1,0,0:0:0:0:
320,192,26284,1,0,0:0:0:0:
192,192,26309,1,0,0:0:0:0:
64,192,26334,1,0,0:0:0:0:
448,192,26359,1,0,0:0:0:0:
320,192,26409,1,0,0:0:0:0:
192,192,26459,1,0,0:0:0:0:
64,192,26509,1,0,0:0:0:0:
448,192,26559,1,0,0:0:0:0:
320,192,26659,1,0,0:0:0:0:
192,192,26759,1,0,0:0:0:0:
64,192,26859,1,0,0:0:0:0:
192,0,26959,128,0,27309:1:0:0:0:
320,0,26959,128,0,27309:1:0:0:0:
448,0,26959,128,0,27309:1:0:0:0:
192,0,27359,128,0,27509:1:0:0:0:
320,0,27359,128,0,27509:1:0:0:0:
448,0,27359,128,0,27509:1:0:0:0:
64,0,27559,128,0,27709:1:0:0:0:
192,0,27559,128,0,27709:1:0:0:0:
320,0,27559,128,0,27709:1:0:0:0:
320,0,27759,128,0,27825:1:0:0:0:
448,0,27759,128,0,27825:1:0:0:0:
64,192,27859,1,0,0:0:0:0:
192,192,27859,1,0,0:0:0:0:
320,192,27959,1,0,0:0:0:0:
64,192,28059,1,0,0:0:0:0:
192,192,28159,1,0,0:0:0:0:
320,192,28159,1,0,0:0:0:0:
448,192,28259,1,0,0:0:0:0:
320,192,28359,1,0,0:0:0:0:
448,192,28459,1,0,0:0:0:0:
64,192,28559,1,0,0:0:0:0:
192,192,28559,1,0,0:0:0:0:
320,192,28659,1,0,0:0:0:0:
64,192,28759,1,0,0:0:0:0:
448,192,28859,1,0,0:0:0:0:
192,192,28959,1,0,0:0:0:0:
320,192,28959,1,0,0:0:0:0:
64,192,29059,1,0,0:0:0:0:
192,192,29159,1,0,0:0:0:0:
64,192,29259,1,0,0:0:0:0:
320,192,29359,1,0,0:0:0:0:
448,192,29359,1,0,0:0:0:0:
64,192,29459,1,0,0:0:0:0:
192,192,29459,1,0,0:0:0:0:
320,192,29559,1,0,0:0:0:0:
64,192,29659,1,0,0:0:0:0:
192,192,29759,1,0,0:0:0:0:
320,192,29759,1,0,0:0:0:0:
448,192,29859,1,0,0:0:0:0:
320,192,29959,1,0,0:0:0:0:
448,192,30059,1,0,0:0:0:0:
64,192,30159,1,0,0:0:0:0:
192,192,30159,1,0,0:0:0:0:
320,192,30259,1,0,0:0:0:0:
64,192,30359,1,0,0:0:0:0:
448,192,30459,1,0,0:0:0:0:
192,192,30559,1,0,0:0:0:0:
320,192,30559,1,0,0:0:0:0:
64,192,30659,1,0,0:0:0:0:
192,192,30759,1,0,0:0:0:0:
64,192,30859,1,0,0:0:0:0:
320,192,30959,1,0,0:0:0:0:
448,192,30959,1,0,0:0:0:0:
64,192,31059,1,0,0:0:0:0:
192,192,31059,1,0,0:0:0:0:
320,192,31159,1,0,0:0:0:0:
64,192,31259,1,0,0:0:0:0:
192,192,31359,1,0,0:0:0:0:
320,192,31359,1,0,0:0:0:0:
448,192,31459,1,0,0:0:0:0:
320,192,31559,1,0,0:0:0:0:
448,192,31659,1,0,0:0:0:0:
64,192,31759,1,0,0:0:0:0:
192,192,31759,1,0,0:0:0:0:
320,192,31859,1,0,0:0:0:0:
192,192,31959,1,0,0:0:0:0:
448,192,32059,1,0,0:0:0:0:
192,192,32159,1,0,0:0:0:0:
320,192,32159,1,0,0:0:0:0:
64,192,32259,1,0,0:0:0:0:
192,192,32359,1,0,0:0:0:0:
64,192,32459,1,0,0:0:0:0:
320,192,32559,1,0,0:0:0:0:
448,192,32559,1,0,0:0:0:0:
64,192,32659,1,0,0:0:0:0:
192,192,32659,1,0,0:0:0:0:
448,192,32759,1,0,0:0:0:0:
64,192,32859,1,0,0:0:0:0:
192,192,32959,1,0,0:0:0:0:
320,192,32959,1,0,0:0:0:0:
448,192,33059,1,0,0:0:0:0:
320,192,33159,1,0,0:0:0:0:
448,192,33259,1,0,0:0:0:0:
64,192,33359,1,0,0:0:0:0:
192,192,33359,1,0,0:0:0:0:
320,192,33459,1,0,0:0:0:0:
192,192,33559,1,0,0:0:0:0:
448,192,33659,1,0,0:0:0:0:
192,192,33759,1,0,0:0:0:0:
320,192,33759,1,0,0:0:0:0:
64,192,33859,1,0,0:0:0:0:
192,192,33959,1,0,0:0:0:0:
64,192,34059,1,0,0:0:0:0:
320,192,34159,1,0,0:0:0:0:
448,192,34159,1,0,0:0:0:0:
64,192,34259,1,0,0:0:0:0:
192,192,34259,1,0,0:0:0:0:
320,192,34359,1,0,0:0:0:0:
64,192,34459,1,0,0:0:0:0:
192,192,34559,1,0,0:0:0:0:
320,192,34559,1,0,0:0:0:0:
448,192,34659,1,0,0:0:0:0:
320,192,34759,1,0,0:0:0:0:
448,192,34859,1,0,0:0:0:0:
64,192,34959,1,0,0:0:0:0:
192,192,34959,1,0,0:0:0:0:
320,192,35059,1,0,0:0:0:0:
192,192,35159,1,0,0:0:0:0:
448,192,35259,1,0,0:0:0:0:
192,192,35359,1,0,0:0:0:0:
320,192,35359,1,0,0:0:0:0:
64,192,35459,1,0,0:0:0:0:
192,192,35559,1,0,0:0:0:0:
64,192,35659,1,0,0:0:0:0:
320,192,35759,1,0,0:0:0:0:
448,192,35759,1,0,0:0:0:0:
64,192,35859,1,0,0:0:0:0:
192,192,35859,1,0,0:0:0:0:
448,192,35959,1,0,0:0:0:0:
64,192,36059,1,0,0:0:0:0:
192,192,36159,1,0,0:0:0:0:
320,192,36159,1,0,0:0:0:0:
448,192,36259,1,0,0:0:0:0:
320,192,36359,1,0,0:0:0:0:
448,192,36459,1,0,0:0:0:0:
64,192,36559,1,0,0:0:0:0:
192,192,36559,1,0,0:0:0:0:
320,192,36659,1,0,0:0:0:0:
64,192,36759,1,0,0:0:0:0:
448,192,36859,1,0,0:0:0:0:
192,192,36959,1,0,0:0:0:0:
320,192,36959,1,0,0:0:0:0:
64,192,37059,1,0,0:0:0:0:
192,192,37159,1,0,0:0:0:0:
64,192,37259,1,0,0:0:0:0:
320,192,37359,1,0,0:0:0:0:
448,192,37359,1,0,0:0:0:0:
64,192,37459,1,0,0:0:0:0:
192,192,37459,1,0,0:0:0:0:
320,192,37559,1,0,0:0:0:0:
64,192,37659,1,0,0:0:0:0:
192,192,37759,1,0,0:0:0:0:
320,192,37759,1,0,0:0:0:0:
448,192,37859,1,0,0:0:0:0:
320,192,37959,1,0,0:0:0:0:
448,192,38059,1,0,0:0:0:0:
64,192,38159,1,0,0:0:0:0:
192,192,38159,1,0,0:0:0:0:
320,192,38259,1,0,0:0:0:0:
192,192,38359,1,0,0:0:0:0:
448,192,38459,1,0,0:0:0:0:
192,192,38559,1,0,0:0:0:0:
320,192,38559,1,0,0:0:0:0:
64,192,38659,1,0,0:0:0:0:
192,192,38759,1,0,0:0:0:0:
64,192,38859,1,0,0:0:0:0:
320,192,38959,1,0,0:0:0:0:
448,192,38959,1,0,0:0:0:0:
64,192,39059,1,0,0:0:0:0:
192,192,39059,1,0,0:0:0:0:
448,192,39159,1,0,0:0:0:0:
64,192,39259,1,0,0:0:0:0:
192,192,39359,1,0,0:0:0:0:
320,192,39359,1,0,0:0:0:0:
448,192,39459,1,0,0:0:0:0:
320,192,39559,1,0,0:0:0:0:
448,192,39659,1,0,0:0:0:0:
64,192,39759,1,0,0:0:0:0:
192,192,39759,1,0,0:0:0:0:
320,192,39859,1,0,0:0:0:0:
64,192,39959,1,0,0:0:0:0:
448,192,40059,1,0,0:0:0:0:
64,0,40159,128,0,40184:1:0:0:0:
192,0,40159,128,0,40184:1:0:0:0:
64,0,40259,128,0,40284:1:0:0:0:
192,0,40259,128,0,40284:1:0:0:0:
64,0,40359,128,0,40384:1:0:0:0:
192,0,40359,128,0,40384:1:0:0:0:
64,0,40459,128,0,40484:1:0:0:0:
192,0,40459,128,0,40484:1:0:0:0:
320,192,40559,1,0,0:0:0:0:
448,192,40559,1,0,0:0:0:0:
64,192,40659,1,0,0:0:0:0:
192,192,40659,1,0,0:0:0:0:
448,192,40759,1,0,0:0:0:0:
64,192,40859,1,0,0:0:0:0:
192,192,40959,1,0,0:0:0:0:
320,192,40959,1,0,0:0:0:0:
448,192,41059,1,0,0:0:0:0:
320,192,41159,1,0,0:0:0:0:
448,192,41259,1,0,0:0:0:0:
64,192,41359,1,0,0:0:0:0:
192,192,41359,1,0,0:0:0:0:
320,192,41459,1,0,0:0:0:0:
192,192,41559,1,0,0:0:0:0:
448,192,41659,1,0,0:0:0:0:
192,192,41759,1,0,0:0:0:0:
320,192,41759,1,0,0:0:0:0:
64,192,41859,1,0,0:0:0:0:
192,192,41959,1,0,0:0:0:0:
64,192,42059,1,0,0:0:0:0:
320,192,42159,1,0,0:0:0:0:
448,192,42159,1,0,0:0:0:0:
64,192,42259,1,0,0:0:0:0:
192,192,42259,1,0,0:0:0:0:
320,192,42359,1,0,0:0:0:0:
64,192,42459,1,0,0:0:0:0:
192,192,42559,1,0,0:0:0:0:
320,192,42559,1,0,0:0:0:0:
448,192,42659,1,0,0:0:0:0:
320,192,42759,1,0,0:0:0:0:
448,192,42859,1,0,0:0:0:0:
64,192,42959,1,0,0:0:0:0:
192,192,42959,1,0,0:0:0:0:
320,192,43059,1,0,0:0:0:0:
192,192,43159,1,0,0:0:0:0:
448,192,43259,1,0,0:0:0:0:
192,192,43359,1,0,0:0:0:0:
320,192,43359,1,0,0:0:0:0:
64,192,43459,1,0,0:0:0:0:
192,192,43559,1,0,0:0:0:0:
64,192,43659,1,0,0:0:0:0:
320,192,43759,1,0,0:0:0:0:
448,192,43759,1,0,0:0:0:0:
64,192,43859,1,0,0:0:0:0:
192,192,43859,1,0,0:0:0:0:
320,192,43959,1,0,0:0:0:0:
64,192,44059,1,0,0:0:0:0:
192,192,44159,1,0,0:0:0:0:
320,192,44159,1,0,0:0:0:0:
448,192,44259,1,0,0:0:0:0:
320,192,44359,1,0,0:0:0:0:
448,192,44459,1,0,0:0:0:0:
64,192,44559,1,0,0:0:0:0:
192,192,44559,1,0,0:0:0:0:
320,192,44659,1,0,0:0:0:0:
192,192,44759,1,0,0:0:0:0:
448,192,44859,1,0,0:0:0:0:
192,192,44959,1,0,0:0:0:0:
320,192,44959,1,0,0:0:0:0:
64,192,45059,1,0,0:0:0:0:
192,192,45159,1,0,0:0:0:0:
64,192,45259,1,0,0:0:0:0:
320,192,45359,1,0,0:0:0:0:
448,192,45359,1,0,0:0:0:0:
64,192,45459,1,0,0:0:0:0:
192,192,45459,1,0,0:0:0:0:
448,192,45559,1,0,0:0:0:0:
64,192,45659,1,0,0:0:0:0:
192,192,45759,1,0,0:0:0:0:
320,192,45759,1,0,0:0:0:0:
448,192,45859,1,0,0:0:0:0:
320,192,45959,1,0,0:0:0:0:
448,192,46059,1,0,0:0:0:0:
64,192,46159,1,0,0:0:0:0:
192,192,46159,1,0,0:0:0:0:
320,192,46259,1,0,0:0:0:0:
192,192,46359,1,0,0:0:0:0:
448,192,46459,1,0,0:0:0:0:
192,192,46559,1,0,0:0:0:0:
320,192,46559,1,0,0:0:0:0:
64,192,46659,1,0,0:0:0:0:
320,192,46759,1,0,0:0:0:0:
64,192,46859,1,0,0:0:0:0:
320,192,46959,1,0,0:0:0:0:
448,192,46959,1,0,0:0:0:0:
64,192,47059,1,0,0:0:0:0:
192,192,47059,1,0,0:0:0:0:
320,192,47159,1,0,0:0:0:0:
64,192,47259,1,0,0:0:0:0:
192,192,47359,1,0,0:0:0:0:
320,192,47359,1,0,0:0:0:0:
448,192,47459,1,0,0:0:0:0:
320,192,47559,1,0,0:0:0:0:
448,192,47659,1,0,0:0:0:0:
64,192,47759,1,0,0:0:0:0:
192,192,47759,1,0,0:0:0:0:
320,192,47859,1,0,0:0:0:0:
192,192,47959,1,0,0:0:0:0:
448,192,48059,1,0,0:0:0:0:
192,192,48159,1,0,0:0:0:0:
320,192,48159,1,0,0:0:0:0:
64,192,48259,1,0,0:0:0:0:
192,192,48359,1,0,0:0:0:0:
64,192,48459,1,0,0:0:0:0:
320,192,48559,1,0,0:0:0:0:
448,192,48559,1,0,0:0:0:0:
64,192,48659,1,0,0:0:0:0:
192,192,48659,1,0,0:0:0:0:
448,192,48759,1,0,0:0:0:0:
64,192,48859,1,0,0:0:0:0:
192,192,48959,1,0,0:0:0:0:
320,192,48959,1,0,0:0:0:0:
448,192,49059,1,0,0:0:0:0:
320,192,49159,1,0,0:0:0:0:
448,192,49259,1,0,0:0:0:0:
64,192,49359,1,0,0:0:0:0:
192,192,49359,1,0,0:0:0:0:
320,192,49459,1,0,0:0:0:0:
192,192,49559,1,0,0:0:0:0:
448,192,49659,1,0,0:0:0:0:
192,192,49759,1,0,0:0:0:0:
320,192,49759,1,0,0:0:0:0:
64,192,49859,1,0,0:0:0:0:
192,192,49959,1,0,0:0:0:0:
64,192,50059,1,0,0:0:0:0:
320,192,50159,1,0,0:0:0:0:
448,192,50159,1,0,0:0:0:0:
64,192,50259,1,0,0:0:0:0:
192,192,50259,1,0,0:0:0:0:
320,192,50359,1,0,0:0:0:0:
64,192,50459,1,0,0:0:0:0:
192,192,50559,1,0,0:0:0:0:
320,192,50559,1,0,0:0:0:0:
448,192,50659,1,0,0:0:0:0:
320,192,50759,1,0,0:0:0:0:
448,192,50859,1,0,0:0:0:0:
64,192,50959,1,0,0:0:0:0:
192,192,50959,1,0,0:0:0:0:
320,192,51059,1,0,0:0:0:0:
192,192,51159,1,0,0:0:0:0:
448,192,51259,1,0,0:0:0:0:
192,192,51359,1,0,0:0:0:0:
320,192,51359,1,0,0:0:0:0:
64,192,51459,1,0,0:0:0:0:
192,192,51559,1,0,0:0:0:0:
320,192,51559,1,0,0:0:0:0:
64,192,51659,1,0,0:0:0:0:
448,192,51759,1,0,0:0:0:0:
320,192,51784,1,0,0:0:0:0:
192,192,51809,1,0,0:0:0:0:
64,192,51834,1,0,0:0:0:0:
448,192,51859,1,0,0:0:0:0:
320,192,51884,1,0,0:0:0:0:
192,192,51909,1,0,0:0:0:0:
64,192,51934,1,0,0:0:0:0:
448,192,51959,1,0,0:0:0:0:
320,192,52009,1,0,0:0:0:0:
192,192,52059,1,0,0:0:0:0:
64,192,52109,1,0,0:0:0:0:
448,192,52159,1,0,0:0:0:0:
320,192,52259,1,0,0:0:0:0:
192,192,52359,1,0,0:0:0:0:
64,192,52459,1,0,0:0:0:0:
192,0,52559,128,0,52909:1:0:0:0:
320,0,52559,128,0,52909:1:0:0:0:
448,0,52559,128,0,52909:1:0:0:0:
192,0,52959,128,0,53109:1:0:0:0:
320,0,52959,128,0,53109:1:0:0:0:
448,0,52959,128,0,53109:1:0:0:0:
64,0,53159,128,0,53309:1:0:0:0:
192,0,53159,128,0,53309:1:0:0:0:
320,0,53159,128,0,53309:1:0:0:0:
64,192,53359,1,0,0:0:0:0:
192,192,53359,1,0,0:0:0:0:
320,192,53359,1,0,0:0:0:0:
448,192,53459,1,0,0:0:0:0:
320,192,53559,1,0,0:0:0:0:
192,192,53659,1,0,0:0:0:0:
64,192,53759,1,0,0:0:0:0:
192,192,53859,1,0,0:0:0:0:
448,192,53959,1,0,0:0:0:0:
320,192,54059,1,0,0:0:0:0:
192,192,54159,1,0,0:0:0:0:
64,192,54259,1,0,0:0:0:0:
192,192,54359,1,0,0:0:0:0:
320,192,54459,1,0,0:0:0:0:
448,192,54559,1,0,0:0:0:0:
192,192,54659,1,0,0:0:0:0:
320,192,54759,1,0,0:0:0:0:
448,192,54859,1,0,0:0:0:0:
64,192,54959,1,0,0:0:0:0:
192,192,55059,1,0,0:0:0:0:
64,192,55159,1,0,0:0:0:0:
192,192,55259,1,0,0:0:0:0:
320,192,55359,1,0,0:0:0:0:
192,192,55459,1,0,0:0:0:0:
448,192,55559,1,0,0:0:0:0:
320,192,55659,1,0,0:0:0:0:
192,192,55759,1,0,0:0:0:0:
320,192,55859,1,0,0:0:0:0:
192,192,55959,1,0,0:0:0:0:
64,192,56059,1,0,0:0:0:0:
192,192,56159,1,0,0:0:0:0:
320,192,56259,1,0,0:0:0:0:
448,192,56359,1,0,0:0:0:0:
320,192,56459,1,0,0:0:0:0:
64,192,56559,1,0,0:0:0:0:
192,192,56659,1,0,0:0:0:0:
64,192,56759,1,0,0:0:0:0:
192,192,56859,1,0,0:0:0:0:
320,192,56959,1,0,0:0:0:0:
192,192,57059,1,0,0:0:0:0:
448,192,57159,1,0,0:0:0:0:
320,192,57259,1,0,0:0:0:0:
192,192,57359,1,0,0:0:0:0:
320,192,57459,1,0,0:0:0:0:
192,192,57559,1,0,0:0:0:0:
64,192,57659,1,0,0:0:0:0:
192,192,57759,1,0,0:0:0:0:
320,192,57859,1,0,0:0:0:0:
448,192,57959,1,0,0:0:0:0:
320,192,58059,1,0,0:0:0:0:
64,192,58159,1,0,0:0:0:0:
192,192,58259,1,0,0:0:0:0:
64,192,58359,1,0,0:0:0:0:
192,192,58459,1,0,0:0:0:0:
320,192,58559,1,0,0:0:0:0:
192,192,58659,1,0,0:0:0:0:
448,192,58759,1,0,0:0:0:0:
320,192,58859,1,0,0:0:0:0:
192,192,58959,1,0,0:0:0:0:
320,192,59059,1,0,0:0:0:0:
192,192,59159,1,0,0:0:0:0:
64,192,59259,1,0,0:0:0:0:
192,192,59359,1,0,0:0:0:0:
320,192,59459,1,0,0:0:0:0:
448,192,59559,1,0,0:0:0:0:
320,192,59659,1,0,0:0:0:0:
64,0,59759,128,0,59825:1:0:0:0:
448,0,59759,128,0,59825:1:0:0:0:
192,192,59859,1,0,0:0:0:0:
64,192,59959,1,0,0:0:0:0:
192,192,60059,1,0,0:0:0:0:
320,192,60159,1,0,0:0:0:0:
192,192,60259,1,0,0:0:0:0:
448,192,60359,1,0,0:0:0:0:
320,192,60459,1,0,0:0:0:0:
192,192,60559,1,0,0:0:0:0:
320,192,60659,1,0,0:0:0:0:
192,192,60759,1,0,0:0:0:0:
64,192,60859,1,0,0:0:0:0:
192,192,60959,1,0,0:0:0:0:
320,192,61059,1,0,0:0:0:0:
448,192,61159,1,0,0:0:0:0:
320,192,61259,1,0,0:0:0:0:
64,192,61359,1,0,0:0:0:0:
192,192,61459,1,0,0:0:0:0:
64,192,61559,1,0,0:0:0:0:
192,192,61659,1,0,0:0:0:0:
320,192,61759,1,0,0:0:0:0:
192,192,61859,1,0,0:0:0:0:
448,192,61959,1,0,0:0:0:0:
320,192,62059,1,0,0:0:0:0:
192,192,62159,1,0,0:0:0:0:
320,192,62259,1,0,0:0:0:0:
192,192,62359,1,0,0:0:0:0:
64,192,62459,1,0,0:0:0:0:
192,192,62559,1,0,0:0:0:0:
320,192,62659,1,0,0:0:0:0:
448,192,62759,1,0,0:0:0:0:
320,192,62859,1,0,0:0:0:0:
64,192,62959,1,0,0:0:0:0:
192,192,63059,1,0,0:0:0:0:
64,192,63159,1,0,0:0:0:0:
192,192,63259,1,0,0:0:0:0:
320,192,63359,1,0,0:0:0:0:
192,192,63459,1,0,0:0:0:0:
448,192,63559,1,0,0:0:0:0:
320,192,63659,1,0,0:0:0:0:
192,192,63759,1,0,0:0:0:0:
320,192,63859,1,0,0:0:0:0:
192,192,63959,1,0,0:0:0:0:
64,192,64059,1,0,0:0:0:0:
192,192,64159,1,0,0:0:0:0:
320,192,64259,1,0,0:0:0:0:
448,192,64359,1,0,0:0:0:0:
320,192,64459,1,0,0:0:0:0:
64,192,64559,1,0,0:0:0:0:
192,192,64659,1,0,0:0:0:0:
320,192,64759,1,0,0:0:0:0:
192,192,64859,1,0,0:0:0:0:
64,192,64959,1,0,0:0:0:0:
192,192,65059,1,0,0:0:0:0:
64,192,65159,1,0,0:0:0:0:
192,192,65259,1,0,0:0:0:0:
320,192,65359,1,0,0:0:0:0:
448,192,65359,1,0,0:0:0:0:
64,192,65659,1,0,0:0:0:0:
192,192,65659,1,0,0:0:0:0:
64,192,65859,1,0,0:0:0:0:
192,192,65859,1,0,0:0:0:0:
448,192,65959,1,0,0:0:0:0:
320,192,66009,1,0,0:0:0:0:
192,192,66059,1,0,0:0:0:0:
64,192,66109,1,0,0:0:0:0:
320,192,66159,1,0,0:0:0:0:
448,192,66159,1,0,0:0:0:0:
64,192,66259,1,0,0:0:0:0:
192,192,66259,1,0,0:0:0:0:
320,192,66359,1,0,0:0:0:0:
448,192,66459,1,0,0:0:0:0:
192,192,66559,1,0,0:0:0:0:
320,192,66559,1,0,0:0:0:0:
64,192,66659,1,0,0:0:0:0:
448,192,66759,1,0,0:0:0:0:
320,192,66859,1,0,0:0:0:0:
64,192,66959,1,0,0:0:0:0:
192,192,66959,1,0,0:0:0:0:
448,192,67059,1,0,0:0:0:0:
320,192,67159,1,0,0:0:0:0:
192,192,67259,1,0,0:0:0:0:
64,192,67359,1,0,0:0:0:0:
448,192,67359,1,0,0:0:0:0:
192,192,67459,1,0,0:0:0:0:
320,192,67559,1,0,0:0:0:0:
64,192,67659,1,0,0:0:0:0:
320,192,67759,1,0,0:0:0:0:
448,192,67759,1,0,0:0:0:0:
64,192,67859,1,0,0:0:0:0:
192,192,67859,1,0,0:0:0:0:
320,192,67959,1,0,0:0:0:0:
448,192,68059,1,0,0:0:0:0:
192,192,68159,1,0,0:0:0:0:
320,192,68159,1,0,0:0:0:0:
64,192,68259,1,0,0:0:0:0:
448,192,68359,1,0,0:0:0:0:
320,192,68459,1,0,0:0:0:0:
64,192,68559,1,0,0:0:0:0:
192,192,68559,1,0,0:0:0:0:
448,192,68659,1,0,0:0:0:0:
320,192,68759,1,0,0:0:0:0:
192,192,68859,1,0,0:0:0:0:
64,192,68959,1,0,0:0:0:0:
448,192,68959,1,0,0:0:0:0:
192,192,69059,1,0,0:0:0:0:
320,192,69159,1,0,0:0:0:0:
64,192,69259,1,0,0:0:0:0:
320,192,69359,1,0,0:0:0:0:
448,192,69359,1,0,0:0:0:0:
64,192,69459,1,0,0:0:0:0:
192,192,69459,1,0,0:0:0:0:
320,192,69559,1,0,0:0:0:0:
192,192,69659,1,0,0:0:0:0:
64,192,69759,1,0,0:0:0:0:
448,192,69759,1,0,0:0:0:0:
192,192,69859,1,0,0:0:0:0:
448,192,69959,1,0,0:0:0:0:
320,192,70059,1,0,0:0:0:0:
64,192,70159,1,0,0:0:0:0:
192,192,70159,1,0,0:0:0:0:
320,192,70259,1,0,0:0:0:0:
448,192,70359,1,0,0:0:0:0:
64,192,70459,1,0,0:0:0:0:
192,192,70559,1,0,0:0:0:0:
320,192,70559,1,0,0:0:0:0:
448,192,70659,1,0,0:0:0:0:
64,192,70759,1,0,0:0:0:0:
192,192,70859,1,0,0:0:0:0:
320,192,70959,1,0,0:0:0:0:
448,192,70959,1,0,0:0:0:0:
64,192,71059,1,0,0:0:0:0:
192,192,71059,1,0,0:0:0:0:
320,192,71159,1,0,0:0:0:0:
192,192,71259,1,0,0:0:0:0:
64,192,71359,1,0,0:0:0:0:
448,192,71359,1,0,0:0:0:0:
192,192,71459,1,0,0:0:0:0:
320,192,71559,1,0,0:0:0:0:
448,192,71659,1,0,0:0:0:0:
64,192,71759,1,0,0:0:0:0:
192,192,71759,1,0,0:0:0:0:
320,192,71859,1,0,0:0:0:0:
448,192,71959,1,0,0:0:0:0:
64,192,72059,1,0,0:0:0:0:
192,192,72159,1,0,0:0:0:0:
320,192,72159,1,0,0:0:0:0:
448,192,72259,1,0,0:0:0:0:
64,192,72359,1,0,0:0:0:0:
192,192,72459,1,0,0:0:0:0:
320,192,72559,1,0,0:0:0:0:
448,192,72559,1,0,0:0:0:0:
64,192,72659,1,0,0:0:0:0:
192,192,72659,1,0,0:0:0:0:
448,192,72759,1,0,0:0:0:0:
64,192,72859,1,0,0:0:0:0:
192,192,72959,1,0,0:0:0:0:
320,192,72959,1,0,0:0:0:0:
64,192,73059,1,0,0:0:0:0:
448,192,73159,1,0,0:0:0:0:
320,192,73259,1,0,0:0:0:0:
64,192,73359,1,0,0:0:0:0:
192,192,73359,1,0,0:0:0:0:
448,192,73459,1,0,0:0:0:0:
192,192,73559,1,0,0:0:0:0:
320,192,73659,1,0,0:0:0:0:
64,192,73759,1,0,0:0:0:0:
448,192,73759,1,0,0:0:0:0:
320,192,73859,1,0,0:0:0:0:
192,192,73959,1,0,0:0:0:0:
64,192,74059,1,0,0:0:0:0:
320,192,74159,1,0,0:0:0:0:
448,192,74159,1,0,0:0:0:0:
64,192,74259,1,0,0:0:0:0:
192,192,74259,1,0,0:0:0:0:
320,192,74359,1,0,0:0:0:0:
448,192,74459,1,0,0:0:0:0:
192,192,74559,1,0,0:0:0:0:
320,192,74559,1,0,0:0:0:0:
64,192,74659,1,0,0:0:0:0:
448,192,74759,1,0,0:0:0:0:
320,192,74859,1,0,0:0:0:0:
64,192,74959,1,0,0:0:0:0:
192,192,74959,1,0,0:0:0:0:
320,192,75059,1,0,0:0:0:0:
448,192,75159,1,0,0:0:0:0:
192,192,75259,1,0,0:0:0:0:
64,192,75359,1,0,0:0:0:0:
448,192,75359,1,0,0:0:0:0:
320,192,75459,1,0,0:0:0:0:
192,192,75559,1,0,0:0:0:0:
64,192,75659,1,0,0:0:0:0:
320,192,75759,1,0,0:0:0:0:
448,192,75759,1,0,0:0:0:0:
64,192,75859,1,0,0:0:0:0:
192,192,75859,1,0,0:0:0:0:
320,192,75959,1,0,0:0:0:0:
192,192,76059,1,0,0:0:0:0:
64,192,76159,1,0,0:0:0:0:
448,192,76159,1,0,0:0:0:0:
320,192,76259,1,0,0:0:0:0:
192,192,76359,1,0,0:0:0:0:
448,192,76459,1,0,0:0:0:0:
64,192,76559,1,0,0:0:0:0:
192,192,76559,1,0,0:0:0:0:
320,192,76659,1,0,0:0:0:0:
448,192,76759,1,0,0:0:0:0:
64,192,76859,1,0,0:0:0:0:
192,192,76959,1,0,0:0:0:0:
320,192,76959,1,0,0:0:0:0:
448,192,77059,1,0,0:0:0:0:
320,192,77159,1,0,0:0:0:0:
192,192,77259,1,0,0:0:0:0:
448,192,77359,1,0,0:0:0:0:
320,192,77384,1,0,0:0:0:0:
192,192,77409,1,0,0:0:0:0:
64,192,77434,1,0,0:0:0:0:
448,192,77459,1,0,0:0:0:0:
320,192,77484,1,0,0:0:0:0:
192,192,77509,1,0,0:0:0:0:
64,192,77534,1,0,0:0:0:0:
448,192,77559,1,0,0:0:0:0:
320,192,77609,1,0,0:0:0:0:
192,192,77659,1,0,0:0:0:0:
64,192,77709,1,0,0:0:0:0:
448,192,77759,1,0,0:0:0:0:
320,192,77859,1,0,0:0:0:0:
192,192,77959,1,0,0:0:0:0:
64,192,78059,1,0,0:0:0:0:
192,0,78159,128,0,78509:1:0:0:0:
320,0,78159,128,0,78509:1:0:0:0:
448,0,78159,128,0,78509:1:0:0:0:
192,0,78559,128,0,78709:1:0:0:0:
320,0,78559,128,0,78709:1:0:0:0:
448,0,78559,128,0,78709:1:0:0:0:
64,0,78759,128,0,78909:1:0:0:0:
192,0,78759,128,0,78909:1:0:0:0:
320,0,78759,128,0,78909:1:0:0:0:
64,192,78959,1,0,0:0:0:0:
192,192,78959,1,0,0:0:0:0:
320,192,79059,1,0,0:0:0:0:
448,192,79059,1,0,0:0:0:0:
192,192,79159,1,0,0:0:0:0:
320,192,79259,1,0,0:0:0:0:
64,192,79359,1,0,0:0:0:0:
448,192,79359,1,0,0:0:0:0:
320,192,79459,1,0,0:0:0:0:
192,192,79559,1,0,0:0:0:0:
64,192,79659,1,0,0:0:0:0:
320,192,79759,1,0,0:0:0:0:
448,192,79759,1,0,0:0:0:0:
192,192,79859,1,0,0:0:0:0:
64,192,79959,1,0,0:0:0:0:
448,192,80059,1,0,0:0:0:0:
192,192,80159,1,0,0:0:0:0:
320,192,80159,1,0,0:0:0:0:
64,192,80259,1,0,0:0:0:0:
192,192,80359,1,0,0:0:0:0:
320,192,80459,1,0,0:0:0:0:
64,192,80559,1,0,0:0:0:0:
192,192,80559,1,0,0:0:0:0:
320,192,80659,1,0,0:0:0:0:
448,192,80659,1,0,0:0:0:0:
192,192,80759,1,0,0:0:0:0:
320,192,80859,1,0,0:0:0:0:
64,192,80959,1,0,0:0:0:0:
448,192,80959,1,0,0:0:0:0:
320,192,81059,1,0,0:0:0:0:
192,192,81159,1,0,0:0:0:0:
64,192,81259,1,0,0:0:0:0:
320,192,81359,1,0,0:0:0:0:
448,192,81359,1,0,0:0:0:0:
192,192,81459,1,0,0:0:0:0:
320,192,81559,1,0,0:0:0:0:
448,192,81659,1,0,0:0:0:0:
192,192,81759,1,0,0:0:0:0:
320,192,81759,1,0,0:0:0:0:
448,192,81859,1,0,0:0:0:0:
320,192,81959,1,0,0:0:0:0:
448,192,82059,1,0,0:0:0:0:
64,192,82159,1,0,0:0:0:0:
192,192,82159,1,0,0:0:0:0:
320,192,82259,1,0,0:0:0:0:
448,192,82259,1,0,0:0:0:0:
192,192,82359,1,0,0:0:0:0:
64,192,82459,1,0,0:0:0:0:
192,192,82559,1,0,0:0:0:0:
320,192,82559,1,0,0:0:0:0:
448,192,82659,1,0,0:0:0:0:
192,192,82759,1,0,0:0:0:0:
64,192,82859,1,0,0:0:0:0:
320,192,82959,1,0,0:0:0:0:
448,192,82959,1,0,0:0:0:0:
64,192,83059,1,0,0:0:0:0:
320,192,83159,1,0,0:0:0:0:
192,192,83259,1,0,0:0:0:0:
64,192,83359,1,0,0:0:0:0:
448,192,83359,1,0,0:0:0:0:
320,192,83459,1,0,0:0:0:0:
192,192,83559,1,0,0:0:0:0:
448,192,83659,1,0,0:0:0:0:
64,192,83759,1,0,0:0:0:0:
192,192,83759,1,0,0:0:0:0:
320,192,83859,1,0,0:0:0:0:
448,192,83859,1,0,0:0:0:0:
192,192,83959,1,0,0:0:0:0:
64,192,84059,1,0,0:0:0:0:
192,192,84159,1,0,0:0:0:0:
320,192,84159,1,0,0:0:0:0:
448,192,84259,1,0,0:0:0:0:
320,192,84359,1,0,0:0:0:0:
192,192,84459,1,0,0:0:0:0:
320,192,84559,1,0,0:0:0:0:
448,192,84559,1,0,0:0:0:0:
64,192,84659,1,0,0:0:0:0:
192,192,84759,1,0,0:0:0:0:
320,192,84859,1,0,0:0:0:0:
64,192,84959,1,0,0:0:0:0:
448,192,84959,1,0,0:0:0:0:
192,192,85059,1,0,0:0:0:0:
320,192,85159,1,0,0:0:0:0:
448,192,85259,1,0,0:0:0:0:
64,192,85359,1,0,0:0:0:0:
192,192,85359,1,0,0:0:0:0:
320,192,85459,1,0,0:0:0:0:
448,192,85459,1,0,0:0:0:0:
192,192,85559,1,0,0:0:0:0:
320,192,85659,1,0,0:0:0:0:
64,192,85759,1,0,0:0:0:0:
448,192,85759,1,0,0:0:0:0:
320,192,85859,1,0,0:0:0:0:
192,192,85959,1,0,0:0:0:0:
64,192,86059,1,0,0:0:0:0:
320,192,86159,1,0,0:0:0:0:
448,192,86159,1,0,0:0:0:0:
192,192,86259,1,0,0:0:0:0:
64,192,86359,1,0,0:0:0:0:
448,192,86459,1,0,0:0:0:0:
192,192,86559,1,0,0:0:0:0:
320,192,86559,1,0,0:0:0:0:
448,192,86659,1,0,0:0:0:0:
64,192,86759,1,0,0:0:0:0:
320,192,86859,1,0,0:0:0:0:
64,192,86959,1,0,0:0:0:0:
192,192,86959,1,0,0:0:0:0:
320,192,87059,1,0,0:0:0:0:
448,192,87059,1,0,0:0:0:0:
192,192,87159,1,0,0:0:0:0:
320,192,87259,1,0,0:0:0:0:
64,192,87359,1,0,0:0:0:0:
448,192,87359,1,0,0:0:0:0:
320,192,87459,1,0,0:0:0:0:
192,192,87559,1,0,0:0:0:0:
64,192,87659,1,0,0:0:0:0:
320,192,87759,1,0,0:0:0:0:
448,192,87759,1,0,0:0:0:0:
192,192,87859,1,0,0:0:0:0:
448,192,87959,1,0,0:0:0:0:
64,192,88059,1,0,0:0:0:0:
192,192,88159,1,0,0:0:0:0:
320,192,88159,1,0,0:0:0:0:
64,192,88259,1,0,0:0:0:0:
448,192,88359,1,0,0:0:0:0:
320,192,88459,1,0,0:0:0:0:
64,192,88559,1,0,0:0:0:0:
192,192,88559,1,0,0:0:0:0:
320,192,88659,1,0,0:0:0:0:
448,192,88659,1,0,0:0:0:0:
192,192,88759,1,0,0:0:0:0:
64,192,88859,1,0,0:0:0:0:
192,192,88959,1,0,0:0:0:0:
320,192,88959,1,0,0:0:0:0:
64,192,89059,1,0,0:0:0:0:
192,192,89159,1,0,0:0:0:0:
64,192,89259,1,0,0:0:0:0:
320,192,89359,1,0,0:0:0:0:
448,192,89359,1,0,0:0:0:0:
64,192,89459,1,0,0:0:0:0:
192,192,89559,1,0,0:0:0:0:
320,192,89659,1,0,0:0:0:0:
64,192,89759,1,0,0:0:0:0:
448,192,89759,1,0,0:0:0:0:
192,192,89859,1,0,0:0:0:0:
320,192,89959,1,0,0:0:0:0:
448,192,90059,1,0,0:0:0:0:
64,192,90159,1,0,0:0:0:0:
192,192,90159,1,0,0:0:0:0:
320,192,90259,1,0,0:0:0:0:
448,192,90259,1,0,0:0:0:0:
192,192,90359,1,0,0:0:0:0:
64,192,90459,1,0,0:0:0:0:
192,192,90559,1,0,0:0:0:0:
320,192,90559,1,0,0:0:0:0:
448,192,90659,1,0,0:0:0:0:
64,192,90759,1,0,0:0:0:0:
192,192,90859,1,0,0:0:0:0:
320,192,90959,1,0,0:0:0:0:
448,192,90959,1,0,0:0:0:0:
192,192,91059,1,0,0:0:0:0:
64,192,91159,1,0,0:0:0:0:
320,192,91259,1,0,0:0:0:0:
64,192,91359,1,0,0:0:0:0:
448,192,91359,1,0,0:0:0:0:
192,192,91459,1,0,0:0:0:0:
320,192,91559,1,0,0:0:0:0:
448,192,91659,1,0,0:0:0:0:
64,192,91759,1,0,0:0:0:0:
192,192,91759,1,0,0:0:0:0:
320,192,91859,1,0,0:0:0:0:
64,192,91959,1,0,0:0:0:0:
448,192,91959,1,0,0:0:0:0:
192,192,92059,1,0,0:0:0:0:
320,192,92059,1,0,0:0:0:0:
64,192,92159,1,0,0:0:0:0:
448,192,92159,1,0,0:0:0:0:
192,192,92259,1,0,0:0:0:0:
320,192,92359,1,0,0:0:0:0:
448,192,92359,1,0,0:0:0:0:
64,192,92459,1,0,0:0:0:0:
192,192,92459,1,0,0:0:0:0:
320,192,92559,1,0,0:0:0:0:
448,192,92559,1,0,0:0:0:0:
64,192,92659,1,0,0:0:0:0:
192,192,92759,1,0,0:0:0:0:
320,192,92759,1,0,0:0:0:0:
64,192,92859,1,0,0:0:0:0:
448,192,92859,1,0,0:0:0:0:
192,192,92959,1,0,0:0:0:0:
320,192,92959,1,0,0:0:0:0:
448,192,93059,1,0,0:0:0:0:
64,192,93159,1,0,0:0:0:0:
192,192,93159,1,0,0:0:0:0:
320,192,93259,1,0,0:0:0:0:
448,192,93259,1,0,0:0:0:0:
64,192,93359,1,0,0:0:0:0:
192,192,93359,1,0,0:0:0:0:
320,192,93459,1,0,0:0:0:0:
64,192,93559,1,0,0:0:0:0:
448,192,93559,1,0,0:0:0:0:
192,192,93659,1,0,0:0:0:0:
320,192,93659,1,0,0:0:0:0:
64,192,93759,1,0,0:0:0:0:
448,192,93759,1,0,0:0:0:0:
192,192,93859,1,0,0:0:0:0:
320,192,93959,1,0,0:0:0:0:
448,192,93959,1,0,0:0:0:0:
64,192,94059,1,0,0:0:0:0:
192,192,94059,1,0,0:0:0:0:
320,192,94159,1,0,0:0:0:0:
448,192,94159,1,0,0:0:0:0:
64,192,94259,1,0,0:0:0:0:
192,192,94359,1,0,0:0:0:0:
320,192,94359,1,0,0:0:0:0:
64,192,94459,1,0,0:0:0:0:
448,192,94459,1,0,0:0:0:0:
192,192,94559,1,0,0:0:0:0:
320,192,94559,1,0,0:0:0:0:
448,192,94659,1,0,0:0:0:0:
64,192,94759,1,0,0:0:0:0:
192,192,94759,1,0,0:0:0:0:
320,192,94859,1,0,0:0:0:0:
448,192,94859,1,0,0:0:0:0:
64,192,94959,1,0,0:0:0:0:
192,192,94959,1,0,0:0:0:0:
448,192,95059,1,0,0:0:0:0:
192,192,95159,1,0,0:0:0:0:
320,192,95159,1,0,0:0:0:0:
64,192,95259,1,0,0:0:0:0:
448,192,95259,1,0,0:0:0:0:
192,192,95359,1,0,0:0:0:0:
320,192,95359,1,0,0:0:0:0:
64,192,95459,1,0,0:0:0:0:
320,192,95559,1,0,0:0:0:0:
448,192,95559,1,0,0:0:0:0:
64,192,95659,1,0,0:0:0:0:
192,192,95659,1,0,0:0:0:0:
320,192,95759,1,0,0:0:0:0:
448,192,95759,1,0,0:0:0:0:
192,192,95859,1,0,0:0:0:0:
64,192,95959,1,0,0:0:0:0:
448,192,95959,1,0,0:0:0:0:
192,192,96059,1,0,0:0:0:0:
320,192,96059,1,0,0:0:0:0:
64,192,96159,1,0,0:0:0:0:
448,192,96159,1,0,0:0:0:0:
320,192,96259,1,0,0:0:0:0:
64,192,96359,1,0,0:0:0:0:
192,192,96359,1,0,0:0:0:0:
320,192,96459,1,0,0:0:0:0:
448,192,96459,1,0,0:0:0:0:
64,192,96559,1,0,0:0:0:0:
192,192,96559,1,0,0:0:0:0:
448,192,96659,1,0,0:0:0:0:
192,192,96759,1,0,0:0:0:0:
320,192,96759,1,0,0:0:0:0:
64,192,96859,1,0,0:0:0:0:
448,192,96859,1,0,0:0:0:0:
192,192,96959,1,0,0:0:0:0:
320,192,96959,1,0,0:0:0:0:
64,192,97059,1,0,0:0:0:0:
320,192,97159,1,0,0:0:0:0:
448,192,97159,1,0,0:0:0:0:
64,192,97259,1,0,0:0:0:0:
192,192,97259,1,0,0:0:0:0:
320,192,97359,1,0,0:0:0:0:
448,192,97359,1,0,0:0:0:0:
192,192,97459,1,0,0:0:0:0:
64,192,97559,1,0,0:0:0:0:
448,192,97559,1,0,0:0:0:0:
192,192,97659,1,0,0:0:0:0:
320,192,97659,1,0,0:0:0:0:
64,192,97759,1,0,0:0:0:0:
448,192,97759,1,0,0:0:0:0:
320,192,97859,1,0,0:0:0:0:
64,192,97959,1,0,0:0:0:0:
192,192,97959,1,0,0:0:0:0:
320,192,98059,1,0,0:0:0:0:
448,192,98059,1,0,0:0:0:0:
64,192,98159,1,0,0:0:0:0:
192,192,98159,1,0,0:0:0:0:
320,192,98259,1,0,0:0:0:0:
448,192,98259,1,0,0:0:0:0:
64,192,98359,1,0,0:0:0:0:
192,192,98359,1,0,0:0:0:0:
320,192,98459,1,0,0:0:0:0:
448,192,98459,1,0,0:0:0:0:
64,192,98559,1,0,0:0:0:0:
192,192,98559,1,0,0:0:0:0:
320,192,98659,1,0,0:0:0:0:
192,192,98759,1,0,0:0:0:0:
448,192,98759,1,0,0:0:0:0:
64,192,98859,1,0,0:0:0:0:
320,192,98859,1,0,0:0:0:0:
192,192,98959,1,0,0:0:0:0:
448,192,98959,1,0,0:0:0:0:
64,192,99059,1,0,0:0:0:0:
192,192,99159,1,0,0:0:0:0:
320,192,99159,1,0,0:0:0:0:
64,192,99259,1,0,0:0:0:0:
448,192,99259,1,0,0:0:0:0:
192,192,99359,1,0,0:0:0:0:
320,192,99359,1,0,0:0:0:0:
448,192,99459,1,0,0:0:0:0:
64,192,99559,1,0,0:0:0:0:
192,192,99559,1,0,0:0:0:0:
320,192,99659,1,0,0:0:0:0:
448,192,99659,1,0,0:0:0:0:
64,192,99759,1,0,0:0:0:0:
192,192,99759,1,0,0:0:0:0:
320,192,99859,1,0,0:0:0:0:
448,192,99859,1,0,0:0:0:0:
64,192,99959,1,0,0:0:0:0:
192,192,99959,1,0,0:0:0:0:
320,192,100059,1,0,0:0:0:0:
448,192,100059,1,0,0:0:0:0:
64,192,100159,1,0,0:0:0:0:
192,192,100159,1,0,0:0:0:0:
320,192,100259,1,0,0:0:0:0:
192,192,100359,1,0,0:0:0:0:
448,192,100359,1,0,0:0:0:0:
64,192,100459,1,0,0:0:0:0:
320,192,100459,1,0,0:0:0:0:
192,192,100559,1,0,0:0:0:0:
448,192,100559,1,0,0:0:0:0:
64,192,100659,1,0,0:0:0:0:
192,192,100759,1,0,0:0:0:0:
320,192,100759,1,0,0:0:0:0:
64,192,100859,1,0,0:0:0:0:
448,192,100859,1,0,0:0:0:0:
192,192,100959,1,0,0:0:0:0:
320,192,100959,1,0,0:0:0:0:
448,192,101059,1,0,0:0:0:0:
64,192,101159,1,0,0:0:0:0:
192,192,101159,1,0,0:0:0:0:
320,192,101259,1,0,0:0:0:0:
448,192,101259,1,0,0:0:0:0:
64,192,101359,1,0,0:0:0:0:
192,192,101409,1,0,0:0:0:0:
320,192,101459,1,0,0:0:0:0:
448,192,101509,1,0,0:0:0:0:
64,192,101559,1,0,0:0:0:0:
192,192,101609,1,0,0:0:0:0:
320,192,101659,1,0,0:0:0:0:
448,192,101709,1,0,0:0:0:0:
64,192,101759,1,0,0:0:0:0:
192,192,101809,1,0,0:0:0:0:
320,192,101859,1,0,0:0:0:0:
448,192,101909,1,0,0:0:0:0:
64,192,101959,1,0,0:0:0:0:
192,192,102009,1,0,0:0:0:0:
320,192,102059,1,0,0:0:0:0:
448,192,102109,1,0,0:0:0:0:
64,192,102159,1,0,0:0:0:0:
192,192,102209,1,0,0:0:0:0:
320,192,102259,1,0,0:0:0:0:
448,192,102309,1,0,0:0:0:0:
64,192,102359,1,0,0:0:0:0:
192,192,102409,1,0,0:0:0:0:
320,192,102459,1,0,0:0:0:0:
448,192,102509,1,0,0:0:0:0:
64,192,102559,1,0,0:0:0:0:
192,192,102609,1,0,0:0:0:0:
320,192,102659,1,0,0:0:0:0:
448,192,102709,1,0,0:0:0:0:
64,192,102759,1,0,0:0:0:0:
192,192,102809,1,0,0:0:0:0:
320,192,102859,1,0,0:0:0:0:
448,192,102909,1,0,0:0:0:0:
64,192,102959,1,0,0:0:0:0:
192,192,102984,1,0,0:0:0:0:
320,192,103009,1,0,0:0:0:0:
448,192,103034,1,0,0:0:0:0:
64,192,103059,1,0,0:0:0:0:
192,192,103084,1,0,0:0:0:0:
320,192,103109,1,0,0:0:0:0:
448,192,103134,1,0,0:0:0:0:
64,192,103159,1,0,0:0:0:0:
192,192,103184,1,0,0:0:0:0:
320,192,103209,1,0,0:0:0:0:
448,192,103234,1,0,0:0:0:0:
64,192,103259,1,0,0:0:0:0:
192,192,103284,1,0,0:0:0:0:
320,192,103309,1,0,0:0:0:0:
448,192,103334,1,0,0:0:0:0:
64,192,103359,1,0,0:0:0:0:
192,192,103384,1,0,0:0:0:0:
320,192,103409,1,0,0:0:0:0:
448,192,103434,1,0,0:0:0:0:
64,192,103459,1,0,0:0:0:0:
192,192,103484,1,0,0:0:0:0:
320,192,103509,1,0,0:0:0:0:
448,192,103534,1,0,0:0:0:0:
64,192,103559,1,0,0:0:0:0:
192,192,103584,1,0,0:0:0:0:
320,192,103609,1,0,0:0:0:0:
448,192,103634,1,0,0:0:0:0:
64,192,103659,1,0,0:0:0:0:
192,192,103684,1,0,0:0:0:0:
320,192,103709,1,0,0:0:0:0:
448,192,103734,1,0,0:0:0:0:
64,192,103759,1,0,0:0:0:0:
192,192,103759,1,0,0:0:0:0:
320,192,104059,1,0,0:0:0:0:
448,192,104059,1,0,0:0:0:0:
320,192,104259,1,0,0:0:0:0:
448,192,104259,1,0,0:0:0:0:
448,192,104359,1,0,0:0:0:0:
320,192,104409,1,0,0:0:0:0:
192,192,104459,1,0,0:0:0:0:
64,192,104509,1,0,0:0:0:0:
320,192,104559,1,0,0:0:0:0:
448,192,104559,1,0,0:0:0:0:
192,192,108959,1,0,0:0:0:0:
320,192,109159,1,0,0:0:0:0:
448,192,109359,1,0,0:0:0:0:
320,192,109759,1,0,0:0:0:0:
192,192,110159,1,0,0:0:0:0:
64,192,110359,1,0,0:0:0:0:
192,192,110559,1,0,0:0:0:0:
320,192,110559,1,0,0:0:0:0:
64,192,110959,1,0,0:0:0:0:
192,192,110959,1,0,0:0:0:0:
64,192,111159,1,0,0:0:0:0:
64,192,111359,1,0,0:0:0:0:
192,192,111359,1,0,0:0:0:0:
192,192,111559,1,0,0:0:0:0:
320,192,111559,1,0,0:0:0:0:
320,192,111759,1,0,0:0:0:0:
448,192,111759,1,0,0:0:0:0:
192,192,112159,1,0,0:0:0:0:
448,192,112159,1,0,0:0:0:0:
192,192,112559,1,0,0:0:0:0:
320,192,112559,1,0,0:0:0:0:
192,192,112759,1,0,0:0:0:0:
64,192,112959,1,0,0:0:0:0:
320,192,112959,1,0,0:0:0:0:
192,192,113359,1,0,0:0:0:0:
448,192,113359,1,0,0:0:0:0:
320,192,113559,1,0,0:0:0:0:
64,192,113759,1,0,0:0:0:0:
192,192,113759,1,0,0:0:0:0:
64,192,114159,1,0,0:0:0:0:
192,192,114359,1,0,0:0:0:0:
320,192,114559,1,0,0:0:0:0:
448,192,114559,1,0,0:0:0:0:
192,192,114959,1,0,0:0:0:0:
448,192,114959,1,0,0:0:0:0:
192,192,115359,1,0,0:0:0:0:
320,192,115359,1,0,0:0:0:0:
192,192,115759,1,0,0:0:0:0:
448,192,115759,1,0,0:0:0:0:
64,192,115959,1,0,0:0:0:0:
192,192,116159,1,0,0:0:0:0:
320,192,116159,1,0,0:0:0:0:
448,192,116359,1,0,0:0:0:0:
320,192,116559,1,0,0:0:0:0:
448,192,116559,1,0,0:0:0:0:
192,192,116959,1,0,0:0:0:0:
448,192,116959,1,0,0:0:0:0:
192,192,117359,1,0,0:0:0:0:
320,192,117359,1,0,0:0:0:0:
192,192,117559,1,0,0:0:0:0:
64,192,117759,1,0,0:0:0:0:
320,192,117759,1,0,0:0:0:0:
64,192,118159,1,0,0:0:0:0:
192,192,118159,1,0,0:0:0:0:
320,192,118359,1,0,0:0:0:0:
64,192,118559,1,0,0:0:0:0:
192,192,118559,1,0,0:0:0:0:
192,192,118759,1,0,0:0:0:0:
320,192,118759,1,0,0:0:0:0:
320,192,118959,1,0,0:0:0:0:
448,192,118959,1,0,0:0:0:0:
192,192,119359,1,0,0:0:0:0:
448,192,119359,1,0,0:0:0:0:
64,192,119759,1,0,0:0:0:0:
320,192,119759,1,0,0:0:0:0:
320,192,119959,1,0,0:0:0:0:
192,192,120159,1,0,0:0:0:0:
320,192,120159,1,0,0:0:0:0:
320,192,120559,1,0,0:0:0:0:
448,192,120559,1,0,0:0:0:0:
64,192,120759,1,0,0:0:0:0:
192,192,120959,1,0,0:0:0:0:
320,192,121159,1,0,0:0:0:0:
448,192,121159,1,0,0:0:0:0:
192,192,121359,1,0,0:0:0:0:
448,192,121359,1,0,0:0:0:0:
192,192,121759,1,0,0:0:0:0:
320,192,121759,1,0,0:0:0:0:
192,192,122159,1,0,0:0:0:0:
320,192,122159,1,0,0:0:0:0:
64,192,122359,1,0,0:0:0:0:
64,192,122559,1,0,0:0:0:0:
320,192,122559,1,0,0:0:0:0:
192,192,122959,1,0,0:0:0:0:
320,192,122959,1,0,0:0:0:0:
448,192,123159,1,0,0:0:0:0:
64,192,123359,1,0,0:0:0:0:
320,192,123359,1,0,0:0:0:0:
192,192,123759,1,0,0:0:0:0:
320,192,123959,1,0,0:0:0:0:
64,192,124159,1,0,0:0:0:0:
448,192,124159,1,0,0:0:0:0:
64,192,124559,1,0,0:0:0:0:
192,192,124559,1,0,0:0:0:0:
192,192,124759,1,0,0:0:0:0:
320,192,124759,1,0,0:0:0:0:
192,192,124959,1,0,0:0:0:0:
448,192,124959,1,0,0:0:0:0:
320,192,125159,1,0,0:0:0:0:
448,192,125159,1,0,0:0:0:0:
64,192,125359,1,0,0:0:0:0:
192,192,125359,1,0,0:0:0:0:
64,192,125759,1,0,0:0:0:0:
192,192,125759,1,0,0:0:0:0:
192,192,126159,1,0,0:0:0:0:
320,192,126159,1,0,0:0:0:0:
320,192,126359,1,0,0:0:0:0:
448,192,126359,1,0,0:0:0:0:
192,192,126559,1,0,0:0:0:0:
320,192,126559,1,0,0:0:0:0:
192,192,126759,1,0,0:0:0:0:
448,192,126759,1,0,0:0:0:0:
64,192,126959,1,0,0:0:0:0:
320,192,126959,1,0,0:0:0:0:
192,192,127159,1,0,0:0:0:0:
448,192,127159,1,0,0:0:0:0:
64,192,127359,1,0,0:0:0:0:
192,192,127359,1,0,0:0:0:0:
320,192,127759,1,0,0:0:0:0:
448,192,127759,1,0,0:0:0:0:
192,192,127959,1,0,0:0:0:0:
64,192,128159,1,0,0:0:0:0:
320,192,128159,1,0,0:0:0:0:
192,192,128359,1,0,0:0:0:0:
320,192,128359,1,0,0:0:0:0:
64,192,128559,1,0,0:0:0:0:
192,192,128559,1,0,0:0:0:0:
192,192,128759,1,0,0:0:0:0:
320,192,128759,1,0,0:0:0:0:
192,192,128959,1,0,0:0:0:0:
448,192,128959,1,0,0:0:0:0:
64,192,129359,1,0,0:0:0:0:
192,192,129359,1,0,0:0:0:0:
192,192,129559,1,0,0:0:0:0:
320,192,129559,1,0,0:0:0:0:
192,192,129759,1,0,0:0:0:0:
448,192,129759,1,0,0:0:0:0:
320,192,129959,1,0,0:0:0:0:
448,192,129959,1,0,0:0:0:0:
64,192,130159,1,0,0:0:0:0:
320,192,130159,1,0,0:0:0:0:
64,192,130559,1,0,0:0:0:0:
192,192,130559,1,0,0:0:0:0:
192,192,130759,1,0,0:0:0:0:
320,192,130959,1,0,0:0:0:0:
448,192,130959,1,0,0:0:0:0:
320,192,131159,1,0,0:0:0:0:
192,192,131359,1,0,0:0:0:0:
448,192,131359,1,0,0:0:0:0:
448,192,131559,1,0,0:0:0:0:
192,192,131759,1,0,0:0:0:0:
320,192,131759,1,0,0:0:0:0:
448,192,131959,1,0,0:0:0:0:
192,192,132159,1,0,0:0:0:0:
320,192,132159,1,0,0:0:0:0:
320,192,132559,1,0,0:0:0:0:
448,192,132559,1,0,0:0:0:0:
64,192,132759,1,0,0:0:0:0:
192,192,132759,1,0,0:0:0:0:
64,192,132959,1,0,0:0:0:0:
320,192,132959,1,0,0:0:0:0:
192,192,133159,1,0,0:0:0:0:
320,192,133159,1,0,0:0:0:0:
64,192,133359,1,0,0:0:0:0:
320,192,133359,1,0,0:0:0:0:
64,192,133759,1,0,0:0:0:0:
192,192,133759,1,0,0:0:0:0:
320,192,133959,1,0,0:0:0:0:
192,192,134159,1,0,0:0:0:0:
448,192,134159,1,0,0:0:0:0:
192,192,134359,1,0,0:0:0:0:
320,192,134359,1,0,0:0:0:0:
320,192,134559,1,0,0:0:0:0:
448,192,134559,1,0,0:0:0:0:
320,192,134759,1,0,0:0:0:0:
448,192,134759,1,0,0:0:0:0:
192,192,134959,1,0,0:0:0:0:
448,192,134959,1,0,0:0:0:0:
64,192,135359,1,0,0:0:0:0:
320,192,135359,1,0,0:0:0:0:
448,192,135559,1,0,0:0:0:0:
64,192,135759,1,0,0:0:0:0:
320,192,135759,1,0,0:0:0:0:
192,192,135959,1,0,0:0:0:0:
448,192,135959,1,0,0:0:0:0:
192,192,136159,1,0,0:0:0:0:
320,192,136159,1,0,0:0:0:0:
64,192,136559,1,0,0:0:0:0:
320,192,136559,1,0,0:0:0:0:
448,192,136759,1,0,0:0:0:0:
64,192,136959,1,0,0:0:0:0:
192,192,136959,1,0,0:0:0:0:
192,192,137359,1,0,0:0:0:0:
448,192,137359,1,0,0:0:0:0:
192,192,137559,1,0,0:0:0:0:
320,192,137559,1,0,0:0:0:0:
192,192,137759,1,0,0:0:0:0:
448,192,137759,1,0,0:0:0:0:
320,192,137959,1,0,0:0:0:0:
64,192,138159,1,0,0:0:0:0:
192,192,138159,1,0,0:0:0:0:
64,192,138559,1,0,0:0:0:0:
320,192,138559,1,0,0:0:0:0:
192,192,138759,1,0,0:0:0:0:
320,192,138759,1,0,0:0:0:0:
64,192,138959,1,0,0:0:0:0:
320,192,138959,1,0,0:0:0:0:
192,192,139159,1,0,0:0:0:0:
320,192,139359,1,0,0:0:0:0:
448,192,139359,1,0,0:0:0:0:
320,192,139759,1,0,0:0:0:0:
448,192,139759,1,0,0:0:0:0:
64,192,139959,1,0,0:0:0:0:
192,192,139959,1,0,0:0:0:0:
192,192,140159,1,0,0:0:0:0:
448,192,140159,1,0,0:0:0:0:
320,192,140359,1,0,0:0:0:0:
192,192,140559,1,0,0:0:0:0:
448,192,140559,1,0,0:0:0:0:
192,192,140959,1,0,0:0:0:0:
320,192,140959,1,0,0:0:0:0:
64,192,141159,1,0,0:0:0:0:
448,192,141159,1,0,0:0:0:0:
192,192,141359,1,0,0:0:0:0:
320,192,141359,1,0,0:0:0:0:
192,192,141559,1,0,0:0:0:0:
192,192,141759,1,0,0:0:0:0:
320,192,141759,1,0,0:0:0:0:
192,192,142159,1,0,0:0:0:0:
320,192,142159,1,0,0:0:0:0:
320,192,142359,1,0,0:0:0:0:
448,192,142359,1,0,0:0:0:0:
64,192,142559,1,0,0:0:0:0:
192,192,142559,1,0,0:0:0:0:
64,192,142959,1,0,0:0:0:0:
192,192,142959,1,0,0:0:0:0:
192,192,143159,1,0,0:0:0:0:
192,192,143359,1,0,0:0:0:0:
320,192,143359,1,0,0:0:0:0:
320,192,143759,1,0,0:0:0:0:
448,192,143759,1,0,0:0:0:0:
192,0,144159,128,0,147758:1:0:0:0:
320,0,144159,128,0,147758:1:0:0:0:
64,192,147758,1,0,0:0:0:0:
448,192,147758,1,0,0:0:0:0:
64,192,150758,1,0,0:0:0:0:
192,192,150858,1,0,0:0:0:0:
320,0,150958,128,0,151025:1:0:0:0:
448,0,150958,128,0,151025:1:0:0:0:
448,192,151258,1,0,0:0:0:0:
320,192,151558,1,0,0:0:0:0:
320,192,151858,1,0,0:0:0:0:
192,192,152158,1,0,0:0:0:0:
192,192,152358,1,0,0:0:0:0:
448,192,152558,1,0,0:0:0:0:
448,192,152858,1,0,0:0:0:0:
320,192,153158,1,0,0:0:0:0:
64,192,153458,1,0,0:0:0:0:
192,192,153758,1,0,0:0:0:0:
192,192,153958,1,0,0:0:0:0:
320,192,154058,1,0,0:0:0:0:
192,192,154158,1,0,0:0:0:0:
448,192,154158,1,0,0:0:0:0:
448,192,154458,1,0,0:0:0:0:
320,192,154758,1,0,0:0:0:0:
320,192,155058,1,0,0:0:0:0:
192,192,155358,1,0,0:0:0:0:
192,192,155558,1,0,0:0:0:0:
448,192,155758,1,0,0:0:0:0:
448,192,156058,1,0,0:0:0:0:
320,192,156358,1,0,0:0:0:0:
64,192,156658,1,0,0:0:0:0:
192,192,156958,1,0,0:0:0:0:
192,192,157158,1,0,0:0:0:0:
320,192,157258,1,0,0:0:0:0:
64,192,157358,1,0,0:0:0:0:
448,192,157358,1,0,0:0:0:0:
448,192,157658,1,0,0:0:0:0:
320,192,157958,1,0,0:0:0:0:
320,192,158258,1,0,0:0:0:0:
192,192,158558,1,0,0:0:0:0:
192,192,158758,1,0,0:0:0:0:
448,192,158958,1,0,0:0:0:0:
448,192,159258,1,0,0:0:0:0:
320,192,159558,1,0,0:0:0:0:
64,192,159858,1,0,0:0:0:0:
192,192,160158,1,0,0:0:0:0:
192,192,160358,1,0,0:0:0:0:
320,192,160458,1,0,0:0:0:0:
64,192,160558,1,0,0:0:0:0:
448,192,160558,1,0,0:0:0:0:
448,192,160858,1,0,0:0:0:0:
320,192,161158,1,0,0:0:0:0:
320,192,161458,1,0,0:0:0:0:
192,192,161758,1,0,0:0:0:0:
192,192,161958,1,0,0:0:0:0:
448,192,162158,1,0,0:0:0:0:
448,192,162458,1,0,0:0:0:0:
320,192,162758,1,0,0:0:0:0:
64,192,163058,1,0,0:0:0:0:
192,192,163358,1,0,0:0:0:0:
192,192,163558,1,0,0:0:0:0:
320,192,163658,1,0,0:0:0:0:
448,192,163758,1,0,0:0:0:0:
64,0,163758,128,0,163808:1:0:0:0:
448,192,164058,1,0,0:0:0:0:
64,0,164158,128,0,164208:1:0:0:0:
320,192,164358,1,0,0:0:0:0:
192,0,164558,128,0,164608:1:0:0:0:
320,192,164658,1,0,0:0:0:0:
448,192,164958,1,0,0:0:0:0:
192,0,164958,128,0,165008:1:0:0:0:
192,192,165158,1,0,0:0:0:0:
448,192,165358,1,0,0:0:0:0:
320,0,165358,128,0,165408:1:0:0:0:
448,192,165658,1,0,0:0:0:0:
320,0,165758,128,0,165808:1:0:0:0:
320,192,165958,1,0,0:0:0:0:
448,0,166158,128,0,166208:1:0:0:0:
64,192,166258,1,0,0:0:0:0:
192,192,166558,1,0,0:0:0:0:
448,0,166558,128,0,166608:1:0:0:0:
192,192,166758,1,0,0:0:0:0:
320,192,166858,1,0,0:0:0:0:
448,192,166958,1,0,0:0:0:0:
64,0,166958,128,0,167008:1:0:0:0:
448,192,167258,1,0,0:0:0:0:
64,0,167358,128,0,167408:1:0:0:0:
320,192,167558,1,0,0:0:0:0:
192,0,167758,128,0,167808:1:0:0:0:
320,192,167858,1,0,0:0:0:0:
320,192,168158,1,0,0:0:0:0:
192,0,168158,128,0,168208:1:0:0:0:
192,192,168358,1,0,0:0:0:0:
448,192,168558,1,0,0:0:0:0:
320,0,168558,128,0,168608:1:0:0:0:
448,192,168858,1,0,0:0:0:0:
320,0,168958,128,0,169008:1:0:0:0:
320,192,169158,1,0,0:0:0:0:
448,0,169358,128,0,169408:1:0:0:0:
64,192,169458,1,0,0:0:0:0:
192,192,169758,1,0,0:0:0:0:
448,0,169758,128,0,169808:1:0:0:0:
192,192,169958,1,0,0:0:0:0:
320,192,170058,1,0,0:0:0:0:
448,192,170158,1,0,0:0:0:0:
64,0,170158,128,0,170208:1:0:0:0:
448,192,170458,1,0,0:0:0:0:
64,0,170558,128,0,170608:1:0:0:0:
320,192,170758,1,0,0:0:0:0:
192,0,170958,128,0,171008:1:0:0:0:
320,192,171058,1,0,0:0:0:0:
320,192,171358,1,0,0:0:0:0:
192,0,171358,128,0,171408:1:0:0:0:
192,192,171558,1,0,0:0:0:0:
448,192,171758,1,0,0:0:0:0:
320,0,171758,128,0,171808:1:0:0:0:
448,192,172058,1,0,0:0:0:0:
320,0,172158,128,0,172208:1:0:0:0:
320,192,172358,1,0,0:0:0:0:
448,0,172558,128,0,172608:1:0:0:0:
64,192,172658,1,0,0:0:0:0:
192,192,172958,1,0,0:0:0:0:
448,0,172958,128,0,173008:1:0:0:0:
192,192,173158,1,0,0:0:0:0:
320,192,173258,1,0,0:0:0:0:
64,192,173358,1,0,0:0:0:0:
192,192,173408,1,0,0:0:0:0:
320,192,173458,1,0,0:0:0:0:
448,192,173508,1,0,0:0:0:0:
64,192,173558,1,0,0:0:0:0:
192,192,173608,1,0,0:0:0:0:
320,192,173658,1,0,0:0:0:0:
448,192,173708,1,0,0:0:0:0:
64,192,173758,1,0,0:0:0:0:
192,192,173808,1,0,0:0:0:0:
320,192,173858,1,0,0:0:0:0:
448,192,173908,1,0,0:0:0:0:
64,192,173958,1,0,0:0:0:0:
192,192,174008,1,0,0:0:0:0:
320,192,174058,1,0,0:0:0:0:
448,192,174108,1,0,0:0:0:0:
64,192,174158,1,0,0:0:0:0:
192,192,174208,1,0,0:0:0:0:
320,192,174258,1,0,0:0:0:0:
448,192,174308,1,0,0:0:0:0:
64,192,174358,1,0,0:0:0:0:
192,192,174408,1,0,0:0:0:0:
320,192,174458,1,0,0:0:0:0:
448,192,174508,1,0,0:0:0:0:
64,192,174558,1,0,0:0:0:0:
192,192,174608,1,0,0:0:0:0:
320,192,174658,1,0,0:0:0:0:
448,192,174708,1,0,0:0:0:0:
64,192,174758,1,0,0:0:0:0:
192,192,174808,1,0,0:0:0:0:
320,192,174858,1,0,0:0:0:0:
448,192,174908,1,0,0:0:0:0:
64,192,174958,1,0,0:0:0:0:
192,192,174983,1,0,0:0:0:0:
320,192,175008,1,0,0:0:0:0:
448,192,175033,1,0,0:0:0:0:
64,192,175058,1,0,0:0:0:0:
192,192,175083,1,0,0:0:0:0:
320,192,175108,1,0,0:0:0:0:
448,192,175133,1,0,0:0:0:0:
64,192,175158,1,0,0:0:0:0:
192,192,175183,1,0,0:0:0:0:
320,192,175208,1,0,0:0:0:0:
448,192,175233,1,0,0:0:0:0:
64,192,175258,1,0,0:0:0:0:
192,192,175283,1,0,0:0:0:0:
320,192,175308,1,0,0:0:0:0:
448,192,175333,1,0,0:0:0:0:
64,192,175358,1,0,0:0:0:0:
192,192,175383,1,0,0:0:0:0:
320,192,175408,1,0,0:0:0:0:
448,192,175433,1,0,0:0:0:0:
64,192,175458,1,0,0:0:0:0:
192,192,175483,1,0,0:0:0:0:
320,192,175508,1,0,0:0:0:0:
448,192,175533,1,0,0:0:0:0:
64,192,175558,1,0,0:0:0:0:
192,192,175583,1,0,0:0:0:0:
320,192,175608,1,0,0:0:0:0:
448,192,175633,1,0,0:0:0:0:
64,192,175658,1,0,0:0:0:0:
192,192,175683,1,0,0:0:0:0:
320,192,175708,1,0,0:0:0:0:
448,192,175733,1,0,0:0:0:0:
64,192,175758,1,0,0:0:0:0:
192,192,175783,1,0,0:0:0:0:
320,192,175808,1,0,0:0:0:0:
448,192,175833,1,0,0:0:0:0:
64,192,175858,1,0,0:0:0:0:
192,192,175883,1,0,0:0:0:0:
320,192,175908,1,0,0:0:0:0:
448,192,175933,1,0,0:0:0:0:
64,192,175958,1,0,0:0:0:0:
192,192,175983,1,0,0:0:0:0:
320,192,176008,1,0,0:0:0:0:
448,192,176033,1,0,0:0:0:0:
64,192,176058,1,0,0:0:0:0:
192,192,176083,1,0,0:0:0:0:
320,192,176108,1,0,0:0:0:0:
448,192,176133,1,0,0:0:0:0:
64,192,176158,1,0,0:0:0:0:
192,192,176183,1,0,0:0:0:0:
320,192,176208,1,0,0:0:0:0:
448,192,176233,1,0,0:0:0:0:
64,192,176258,1,0,0:0:0:0:
192,192,176283,1,0,0:0:0:0:
320,192,176308,1,0,0:0:0:0:
448,192,176333,1,0,0:0:0:0:
64,192,176358,1,0,0:0:0:0:
192,192,176383,1,0,0:0:0:0:
320,192,176408,1,0,0:0:0:0:
448,192,176433,1,0,0:0:0:0:
64,192,176458,1,0,0:0:0:0:
192,192,176483,1,0,0:0:0:0:
320,192,176508,1,0,0:0:0:0:
448,192,176533,1,0,0:0:0:0:
64,0,178158,128,0,178358:1:0:0:0:
448,0,178158,128,0,178358:1:0:0:0:
192,192,178958,1,0,0:0:0:0:
320,192,178958,1,0,0:0:0:0:
448,192,178958,1,0,0:0:0:0:
192,192,179258,1,0,0:0:0:0:
320,192,179258,1,0,0:0:0:0:
448,192,179258,1,0,0:0:0:0:
192,192,179458,1,0,0:0:0:0:
320,192,179458,1,0,0:0:0:0:
448,192,179458,1,0,0:0:0:0:
64,192,179558,1,0,0:0:0:0:
192,192,179608,1,0,0:0:0:0:
320,192,179658,1,0,0:0:0:0:
448,192,179708,1,0,0:0:0:0:
64,0,179758,128,0,179808:1:0:0:0:
192,0,179758,128,0,179808:1:0:0:0:
320,0,179758,128,0,179808:1:0:0:0:
448,192,179858,1,0,0:0:0:0:
320,192,179958,1,0,0:0:0:0:
448,192,180058,1,0,0:0:0:0:
64,0,180158,128,0,180208:1:0:0:0:
192,0,180158,128,0,180208:1:0:0:0:
320,0,180158,128,0,180208:1:0:0:0:
448,192,180258,1,0,0:0:0:0:
192,192,180358,1,0,0:0:0:0:
320,192,180458,1,0,0:0:0:0:
64,0,180558,128,0,180608:1:0:0:0:
192,0,180558,128,0,180608:1:0:0:0:
448,0,180558,128,0,180608:1:0:0:0:
320,192,180658,1,0,0:0:0:0:
192,192,180758,1,0,0:0:0:0:
320,192,180858,1,0,0:0:0:0:
64,0,180958,128,0,181008:1:0:0:0:
192,0,180958,128,0,181008:1:0:0:0:
448,0,180958,128,0,181008:1:0:0:0:
320,192,181058,1,0,0:0:0:0:
64,192,181158,1,0,0:0:0:0:
192,192,181258,1,0,0:0:0:0:
64,0,181358,128,0,181408:1:0:0:0:
320,0,181358,128,0,181408:1:0:0:0:
448,0,181358,128,0,181408:1:0:0:0:
192,192,181458,1,0,0:0:0:0:
64,192,181558,1,0,0:0:0:0:
192,192,181658,1,0,0:0:0:0:
64,0,181758,128,0,181808:1:0:0:0:
320,0,181758,128,0,181808:1:0:0:0:
448,0,181758,128,0,181808:1:0:0:0:
192,192,181858,1,0,0:0:0:0:
320,192,181958,1,0,0:0:0:0:
64,192,182058,1,0,0:0:0:0:
192,0,182158,128,0,182208:1:0:0:0:
320,0,182158,128,0,182208:1:0:0:0:
448,0,182158,128,0,182208:1:0:0:0:
64,192,182258,1,0,0:0:0:0:
192,192,182358,1,0,0:0:0:0:
64,192,182458,1,0,0:0:0:0:
192,0,182558,128,0,182608:1:0:0:0:
320,0,182558,128,0,182608:1:0:0:0:
448,0,182558,128,0,182608:1:0:0:0:
64,192,182658,1,0,0:0:0:0:
192,192,182758,1,0,0:0:0:0:
320,192,182758,1,0,0:0:0:0:
448,192,182858,1,0,0:0:0:0:
64,0,182958,128,0,183008:1:0:0:0:
192,0,182958,128,0,183008:1:0:0:0:
320,0,182958,128,0,183008:1:0:0:0:
448,192,183058,1,0,0:0:0:0:
320,192,183158,1,0,0:0:0:0:
448,192,183258,1,0,0:0:0:0:
64,0,183358,128,0,183408:1:0:0:0:
192,0,183358,128,0,183408:1:0:0:0:
320,0,183358,128,0,183408:1:0:0:0:
448,192,183458,1,0,0:0:0:0:
192,192,183558,1,0,0:0:0:0:
320,192,183658,1,0,0:0:0:0:
64,0,183758,128,0,183808:1:0:0:0:
192,0,183758,128,0,183808:1:0:0:0:
448,0,183758,128,0,183808:1:0:0:0:
320,192,183858,1,0,0:0:0:0:
192,192,183958,1,0,0:0:0:0:
320,192,184058,1,0,0:0:0:0:
64,0,184158,128,0,184208:1:0:0:0:
192,0,184158,128,0,184208:1:0:0:0:
448,0,184158,128,0,184208:1:0:0:0:
320,192,184258,1,0,0:0:0:0:
64,192,184358,1,0,0:0:0:0:
192,192,184458,1,0,0:0:0:0:
64,0,184558,128,0,184608:1:0:0:0:
320,0,184558,128,0,184608:1:0:0:0:
448,0,184558,128,0,184608:1:0:0:0:
192,192,184658,1,0,0:0:0:0:
64,192,184758,1,0,0:0:0:0:
192,192,184858,1,0,0:0:0:0:
64,0,184958,128,0,185008:1:0:0:0:
320,0,184958,128,0,185008:1:0:0:0:
448,0,184958,128,0,185008:1:0:0:0:
192,192,185058,1,0,0:0:0:0:
320,192,185158,1,0,0:0:0:0:
64,192,185258,1,0,0:0:0:0:
192,0,185358,128,0,185408:1:0:0:0:
320,0,185358,128,0,185408:1:0:0:0:
448,0,185358,128,0,185408:1:0:0:0:
64,192,185458,1,0,0:0:0:0:
192,192,185558,1,0,0:0:0:0:
448,192,185658,1,0,0:0:0:0:
64,0,185758,128,0,185808:1:0:0:0:
192,0,185758,128,0,185808:1:0:0:0:
320,0,185758,128,0,185808:1:0:0:0:
448,192,185858,1,0,0:0:0:0:
192,192,185958,1,0,0:0:0:0:
320,192,185958,1,0,0:0:0:0:
448,192,186058,1,0,0:0:0:0:
64,0,186158,128,0,186208:1:0:0:0:
192,0,186158,128,0,186208:1:0:0:0:
320,0,186158,128,0,186208:1:0:0:0:
448,192,186258,1,0,0:0:0:0:
320,192,186358,1,0,0:0:0:0:
448,192,186458,1,0,0:0:0:0:
64,0,186558,128,0,186608:1:0:0:0:
192,0,186558,128,0,186608:1:0:0:0:
320,0,186558,128,0,186608:1:0:0:0:
448,192,186658,1,0,0:0:0:0:
192,192,186758,1,0,0:0:0:0:
320,192,186858,1,0,0:0:0:0:
64,0,186958,128,0,187008:1:0:0:0:
192,0,186958,128,0,187008:1:0:0:0:
448,0,186958,128,0,187008:1:0:0:0:
320,192,187058,1,0,0:0:0:0:
192,192,187158,1,0,0:0:0:0:
320,192,187258,1,0,0:0:0:0:
64,0,187358,128,0,187408:1:0:0:0:
192,0,187358,128,0,187408:1:0:0:0:
448,0,187358,128,0,187408:1:0:0:0:
320,192,187458,1,0,0:0:0:0:
64,192,187558,1,0,0:0:0:0:
192,192,187658,1,0,0:0:0:0:
64,0,187758,128,0,187808:1:0:0:0:
320,0,187758,128,0,187808:1:0:0:0:
448,0,187758,128,0,187808:1:0:0:0:
192,192,187858,1,0,0:0:0:0:
64,192,187958,1,0,0:0:0:0:
192,192,188058,1,0,0:0:0:0:
64,0,188158,128,0,188208:1:0:0:0:
320,0,188158,128,0,188208:1:0:0:0:
448,0,188158,128,0,188208:1:0:0:0:
192,192,188258,1,0,0:0:0:0:
320,192,188358,1,0,0:0:0:0:
64,192,188458,1,0,0:0:0:0:
192,0,188558,128,0,188608:1:0:0:0:
320,0,188558,128,0,188608:1:0:0:0:
448,0,188558,128,0,188608:1:0:0:0:
64,192,188658,1,0,0:0:0:0:
192,192,188758,1,0,0:0:0:0:
64,192,188858,1,0,0:0:0:0:
192,0,188958,128,0,189008:1:0:0:0:
320,0,188958,128,0,189008:1:0:0:0:
448,0,188958,128,0,189008:1:0:0:0:
64,192,189058,1,0,0:0:0:0:
192,192,189158,1,0,0:0:0:0:
320,192,189158,1,0,0:0:0:0:
448,192,189258,1,0,0:0:0:0:
64,0,189358,128,0,189408:1:0:0:0:
192,0,189358,128,0,189408:1:0:0:0:
320,0,189358,128,0,189408:1:0:0:0:
448,192,189458,1,0,0:0:0:0:
320,192,189558,1,0,0:0:0:0:
448,192,189658,1,0,0:0:0:0:
64,0,189758,128,0,189808:1:0:0:0:
192,0,189758,128,0,189808:1:0:0:0:
320,0,189758,128,0,189808:1:0:0:0:
448,192,189858,1,0,0:0:0:0:
192,192,189958,1,0,0:0:0:0:
320,192,190058,1,0,0:0:0:0:
64,0,190158,128,0,190208:1:0:0:0:
192,0,190158,128,0,190208:1:0:0:0:
448,0,190158,128,0,190208:1:0:0:0:
320,192,190258,1,0,0:0:0:0:
448,192,190358,1,0,0:0:0:0:
320,192,190458,1,0,0:0:0:0:
64,0,190558,128,0,190608:1:0:0:0:
192,0,190558,128,0,190608:1:0:0:0:
448,0,190558,128,0,190608:1:0:0:0:
320,192,190658,1,0,0:0:0:0:
64,192,190758,1,0,0:0:0:0:
192,192,190858,1,0,0:0:0:0:
64,0,190958,128,0,191008:1:0:0:0:
320,0,190958,128,0,191008:1:0:0:0:
448,0,190958,128,0,191008:1:0:0:0:
192,192,191058,1,0,0:0:0:0:
320,192,191158,1,0,0:0:0:0:
64,192,191258,1,0,0:0:0:0:
192,0,191358,128,0,191408:1:0:0:0:
320,0,191358,128,0,191408:1:0:0:0:
448,0,191358,128,0,191408:1:0:0:0:
64,192,191458,1,0,0:0:0:0:
320,192,191558,1,0,0:0:0:0:
192,192,191658,1,0,0:0:0:0:
64,0,191758,128,0,191808:1:0:0:0:
320,0,191758,128,0,191808:1:0:0:0:
448,0,191758,128,0,191808:1:0:0:0:
192,192,191858,1,0,0:0:0:0:
448,192,191958,1,0,0:0:0:0:
320,192,192058,1,0,0:0:0:0:
64,0,192158,128,0,192208:1:0:0:0:
192,0,192158,128,0,192208:1:0:0:0:
448,0,192158,128,0,192208:1:0:0:0:
320,192,192258,1,0,0:0:0:0:
64,192,192358,1,0,0:0:0:0:
192,192,192358,1,0,0:0:0:0:
448,192,192458,1,0,0:0:0:0:
64,0,192558,128,0,192608:1:0:0:0:
192,0,192558,128,0,192608:1:0:0:0:
320,0,192558,128,0,192608:1:0:0:0:
448,192,192658,1,0,0:0:0:0:
320,192,192758,1,0,0:0:0:0:
448,192,192858,1,0,0:0:0:0:
64,0,192958,128,0,193008:1:0:0:0:
192,0,192958,128,0,193008:1:0:0:0:
320,0,192958,128,0,193008:1:0:0:0:
448,192,193058,1,0,0:0:0:0:
192,192,193158,1,0,0:0:0:0:
320,192,193258,1,0,0:0:0:0:
64,0,193358,128,0,193408:1:0:0:0:
192,0,193358,128,0,193408:1:0:0:0:
448,0,193358,128,0,193408:1:0:0:0:
320,192,193458,1,0,0:0:0:0:
448,192,193558,1,0,0:0:0:0:
320,192,193658,1,0,0:0:0:0:
64,0,193758,128,0,193808:1:0:0:0:
192,0,193758,128,0,193808:1:0:0:0:
448,0,193758,128,0,193808:1:0:0:0:
320,192,193858,1,0,0:0:0:0:
448,192,193958,1,0,0:0:0:0:
192,192,194058,1,0,0:0:0:0:
64,0,194158,128,0,194208:1:0:0:0:
320,0,194158,128,0,194208:1:0:0:0:
448,0,194158,128,0,194208:1:0:0:0:
192,192,194258,1,0,0:0:0:0:
320,192,194358,1,0,0:0:0:0:
192,192,194458,1,0,0:0:0:0:
64,0,194558,128,0,194608:1:0:0:0:
320,0,194558,128,0,194608:1:0:0:0:
448,0,194558,128,0,194608:1:0:0:0:
192,192,194658,1,0,0:0:0:0:
320,192,194758,1,0,0:0:0:0:
64,192,194858,1,0,0:0:0:0:
192,0,194958,128,0,195008:1:0:0:0:
320,0,194958,128,0,195008:1:0:0:0:
448,0,194958,128,0,195008:1:0:0:0:
64,192,195058,1,0,0:0:0:0:
192,192,195158,1,0,0:0:0:0:
64,192,195258,1,0,0:0:0:0:
192,0,195358,128,0,195408:1:0:0:0:
320,0,195358,128,0,195408:1:0:0:0:
448,0,195358,128,0,195408:1:0:0:0:
64,192,195458,1,0,0:0:0:0:
192,192,195558,1,0,0:0:0:0:
320,192,195558,1,0,0:0:0:0:
448,192,195658,1,0,0:0:0:0:
64,0,195758,128,0,195808:1:0:0:0:
192,0,195758,128,0,195808:1:0:0:0:
320,0,195758,128,0,195808:1:0:0:0:
448,192,195858,1,0,0:0:0:0:
320,192,195958,1,0,0:0:0:0:
448,192,196058,1,0,0:0:0:0:
64,0,196158,128,0,196208:1:0:0:0:
192,0,196158,128,0,196208:1:0:0:0:
320,0,196158,128,0,196208:1:0:0:0:
448,192,196258,1,0,0:0:0:0:
192,192,196358,1,0,0:0:0:0:
320,192,196458,1,0,0:0:0:0:
64,0,196558,128,0,196608:1:0:0:0:
192,0,196558,128,0,196608:1:0:0:0:
448,0,196558,128,0,196608:1:0:0:0:
320,192,196658,1,0,0:0:0:0:
448,192,196758,1,0,0:0:0:0:
320,192,196858,1,0,0:0:0:0:
64,0,196958,128,0,197008:1:0:0:0:
192,0,196958,128,0,197008:1:0:0:0:
448,0,196958,128,0,197008:1:0:0:0:
320,192,197058,1,0,0:0:0:0:
64,192,197158,1,0,0:0:0:0:
192,192,197258,1,0,0:0:0:0:
64,0,197358,128,0,197408:1:0:0:0:
320,0,197358,128,0,197408:1:0:0:0:
448,0,197358,128,0,197408:1:0:0:0:
192,192,197458,1,0,0:0:0:0:
64,192,197558,1,0,0:0:0:0:
192,192,197658,1,0,0:0:0:0:
64,0,197758,128,0,197808:1:0:0:0:
320,0,197758,128,0,197808:1:0:0:0:
448,0,197758,128,0,197808:1:0:0:0:
192,192,197858,1,0,0:0:0:0:
320,192,197958,1,0,0:0:0:0:
64,192,198058,1,0,0:0:0:0:
192,0,198158,128,0,198208:1:0:0:0:
320,0,198158,128,0,198208:1:0:0:0:
448,0,198158,128,0,198208:1:0:0:0:
64,192,198258,1,0,0:0:0:0:
320,192,198358,1,0,0:0:0:0:
192,192,198458,1,0,0:0:0:0:
64,0,198558,128,0,198608:1:0:0:0:
320,0,198558,128,0,198608:1:0:0:0:
448,0,198558,128,0,198608:1:0:0:0:
192,192,198658,1,0,0:0:0:0:
64,192,198758,1,0,0:0:0:0:
320,192,198758,1,0,0:0:0:0:
448,192,198858,1,0,0:0:0:0:
64,0,198958,128,0,199008:1:0:0:0:
192,0,198958,128,0,199008:1:0:0:0:
320,0,198958,128,0,199008:1:0:0:0:
448,192,199058,1,0,0:0:0:0:
320,192,199158,1,0,0:0:0:0:
448,192,199258,1,0,0:0:0:0:
64,0,199358,128,0,199408:1:0:0:0:
192,0,199358,128,0,199408:1:0:0:0:
320,0,199358,128,0,199408:1:0:0:0:
448,192,199458,1,0,0:0:0:0:
192,192,199558,1,0,0:0:0:0:
320,192,199658,1,0,0:0:0:0:
64,0,199758,128,0,199808:1:0:0:0:
192,0,199758,128,0,199808:1:0:0:0:
448,0,199758,128,0,199808:1:0:0:0:
320,192,199858,1,0,0:0:0:0:
448,192,199958,1,0,0:0:0:0:
320,192,200058,1,0,0:0:0:0:
64,0,200158,128,0,200208:1:0:0:0:
192,0,200158,128,0,200208:1:0:0:0:
448,0,200158,128,0,200208:1:0:0:0:
320,192,200258,1,0,0:0:0:0:
64,192,200358,1,0,0:0:0:0:
192,192,200458,1,0,0:0:0:0:
64,0,200558,128,0,200608:1:0:0:0:
320,0,200558,128,0,200608:1:0:0:0:
448,0,200558,128,0,200608:1:0:0:0:
192,192,200658,1,0,0:0:0:0:
64,192,200758,1,0,0:0:0:0:
192,192,200858,1,0,0:0:0:0:
64,0,200958,128,0,201008:1:0:0:0:
320,0,200958,128,0,201008:1:0:0:0:
448,0,200958,128,0,201008:1:0:0:0:
192,192,201058,1,0,0:0:0:0:
320,192,201158,1,0,0:0:0:0:
64,192,201258,1,0,0:0:0:0:
192,0,201358,128,0,201408:1:0:0:0:
320,0,201358,128,0,201408:1:0:0:0:
448,0,201358,128,0,201408:1:0:0:0:
64,192,201458,1,0,0:0:0:0:
192,192,201558,1,0,0:0:0:0:
64,192,201658,1,0,0:0:0:0:
192,0,201758,128,0,201808:1:0:0:0:
320,0,201758,128,0,201808:1:0:0:0:
448,0,201758,128,0,201808:1:0:0:0:
64,192,201858,1,0,0:0:0:0:
192,192,201958,1,0,0:0:0:0:
320,192,201958,1,0,0:0:0:0:
448,192,202058,1,0,0:0:0:0:
64,0,202158,128,0,202208:1:0:0:0:
192,0,202158,128,0,202208:1:0:0:0:
320,0,202158,128,0,202208:1:0:0:0:
448,192,202258,1,0,0:0:0:0:
320,192,202358,1,0,0:0:0:0:
448,192,202458,1,0,0:0:0:0:
64,0,202558,128,0,202608:1:0:0:0:
192,0,202558,128,0,202608:1:0:0:0:
320,0,202558,128,0,202608:1:0:0:0:
448,192,202658,1,0,0:0:0:0:
192,192,202758,1,0,0:0:0:0:
320,192,202858,1,0,0:0:0:0:
64,0,202958,128,0,203008:1:0:0:0:
192,0,202958,128,0,203008:1:0:0:0:
448,0,202958,128,0,203008:1:0:0:0:
320,192,203058,1,0,0:0:0:0:
192,192,203158,1,0,0:0:0:0:
320,192,203258,1,0,0:0:0:0:
64,0,203358,128,0,203408:1:0:0:0:
192,0,203358,128,0,203408:1:0:0:0:
448,0,203358,128,0,203408:1:0:0:0:
320,192,203458,1,0,0:0:0:0:
64,192,203558,1,0,0:0:0:0:
192,192,203658,1,0,0:0:0:0:
64,0,203758,128,0,203808:1:0:0:0:
320,0,203758,128,0,203808:1:0:0:0:
448,0,203758,128,0,203808:1:0:0:0:
192,192,203858,1,0,0:0:0:0:
320,192,203958,1,0,0:0:0:0:
192,192,204058,1,0,0:0:0:0:
64,0,204158,128,0,204208:1:0:0:0:
320,0,204158,128,0,204208:1:0:0:0:
448,0,204158,128,0,204208:1:0:0:0:
192,192,204258,1,0,0:0:0:0:
64,192,204358,1,0,0:0:0:0:
192,192,204458,1,0,0:0:0:0:
320,192,204558,1,0,0:0:0:0:
448,192,204558,1,0,0:0:0:0:
320,192,204858,1,0,0:0:0:0:
448,192,204858,1,0,0:0:0:0:
320,192,205058,1,0,0:0:0:0:
448,192,205058,1,0,0:0:0:0:
64,192,205158,1,0,0:0:0:0:
192,192,205208,1,0,0:0:0:0:
320,192,205258,1,0,0:0:0:0:
448,192,205308,1,0,0:0:0:0:
64,0,205358,128,0,205408:1:0:0:0:
192,0,205358,128,0,205408:1:0:0:0:
320,0,205358,128,0,205408:1:0:0:0:
448,192,205458,1,0,0:0:0:0:
320,192,205558,1,0,0:0:0:0:
448,192,205658,1,0,0:0:0:0:
64,0,205758,128,0,205808:1:0:0:0:
192,0,205758,128,0,205808:1:0:0:0:
320,0,205758,128,0,205808:1:0:0:0:
448,192,205858,1,0,0:0:0:0:
192,192,205958,1,0,0:0:0:0:
320,192,206058,1,0,0:0:0:0:
64,0,206158,128,0,206208:1:0:0:0:
192,0,206158,128,0,206208:1:0:0:0:
448,0,206158,128,0,206208:1:0:0:0:
320,192,206258,1,0,0:0:0:0:
448,192,206358,1,0,0:0:0:0:
320,192,206458,1,0,0:0:0:0:
64,0,206558,128,0,206608:1:0:0:0:
192,0,206558,128,0,206608:1:0:0:0:
448,0,206558,128,0,206608:1:0:0:0:
320,192,206658,1,0,0:0:0:0:
64,192,206758,1,0,0:0:0:0:
192,192,206858,1,0,0:0:0:0:
64,0,206958,128,0,207008:1:0:0:0:
320,0,206958,128,0,207008:1:0:0:0:
448,0,206958,128,0,207008:1:0:0:0:
192,192,207058,1,0,0:0:0:0:
320,192,207158,1,0,0:0:0:0:
192,192,207258,1,0,0:0:0:0:
64,0,207358,128,0,207408:1:0:0:0:
320,0,207358,128,0,207408:1:0:0:0:
448,0,207358,128,0,207408:1:0:0:0:
192,192,207458,1,0,0:0:0:0:
320,192,207558,1,0,0:0:0:0:
64,192,207658,1,0,0:0:0:0:
192,0,207758,128,0,207808:1:0:0:0:
320,0,207758,128,0,207808:1:0:0:0:
448,0,207758,128,0,207808:1:0:0:0:
64,192,207858,1,0,0:0:0:0:
192,192,207958,1,0,0:0:0:0:
64,192,208058,1,0,0:0:0:0:
192,0,208158,128,0,208208:1:0:0:0:
320,0,208158,128,0,208208:1:0:0:0:
448,0,208158,128,0,208208:1:0:0:0:
64,192,208258,1,0,0:0:0:0:
192,192,208358,1,0,0:0:0:0:
320,192,208358,1,0,0:0:0:0:
448,192,208458,1,0,0:0:0:0:
64,0,208558,128,0,208608:1:0:0:0:
192,0,208558,128,0,208608:1:0:0:0:
320,0,208558,128,0,208608:1:0:0:0:
448,192,208658,1,0,0:0:0:0:
320,192,208758,1,0,0:0:0:0:
448,192,208858,1,0,0:0:0:0:
64,0,208958,128,0,209008:1:0:0:0:
192,0,208958,128,0,209008:1:0:0:0:
320,0,208958,128,0,209008:1:0:0:0:
448,192,209058,1,0,0:0:0:0:
192,192,209158,1,0,0:0:0:0:
320,192,209258,1,0,0:0:0:0:
64,0,209358,128,0,209408:1:0:0:0:
192,0,209358,128,0,209408:1:0:0:0:
448,0,209358,128,0,209408:1:0:0:0:
320,192,209458,1,0,0:0:0:0:
448,192,209558,1,0,0:0:0:0:
320,192,209658,1,0,0:0:0:0:
64,0,209758,128,0,209808:1:0:0:0:
192,0,209758,128,0,209808:1:0:0:0:
448,0,209758,128,0,209808:1:0:0:0:
320,192,209858,1,0,0:0:0:0:
64,192,209958,1,0,0:0:0:0:
192,192,210058,1,0,0:0:0:0:
64,0,210158,128,0,210208:1:0:0:0:
320,0,210158,128,0,210208:1:0:0:0:
448,0,210158,128,0,210208:1:0:0:0:
192,192,210258,1,0,0:0:0:0:
64,192,210358,1,0,0:0:0:0:
192,192,210458,1,0,0:0:0:0:
64,0,210558,128,0,210608:1:0:0:0:
320,0,210558,128,0,210608:1:0:0:0:
448,0,210558,128,0,210608:1:0:0:0:
192,192,210658,1,0,0:0:0:0:
320,192,210758,1,0,0:0:0:0:
64,192,210858,1,0,0:0:0:0:
192,0,210958,128,0,211008:1:0:0:0:
320,0,210958,128,0,211008:1:0:0:0:
448,0,210958,128,0,211008:1:0:0:0:
64,192,211058,1,0,0:0:0:0:
320,192,211158,1,0,0:0:0:0:
448,192,211258,1,0,0:0:0:0:
64,0,211358,128,0,211408:1:0:0:0:
192,0,211358,128,0,211408:1:0:0:0:
320,0,211358,128,0,211408:1:0:0:0:
448,192,211458,1,0,0:0:0:0:
192,192,211558,1,0,0:0:0:0:
320,192,211558,1,0,0:0:0:0:
448,192,211658,1,0,0:0:0:0:
64,0,211758,128,0,211808:1:0:0:0:
192,0,211758,128,0,211808:1:0:0:0:
320,0,211758,128,0,211808:1:0:0:0:
448,192,211858,1,0,0:0:0:0:
320,192,211958,1,0,0:0:0:0:
448,192,212058,1,0,0:0:0:0:
64,0,212158,128,0,212208:1:0:0:0:
192,0,212158,128,0,212208:1:0:0:0:
320,0,212158,128,0,212208:1:0:0:0:
448,192,212258,1,0,0:0:0:0:
192,192,212358,1,0,0:0:0:0:
320,192,212458,1,0,0:0:0:0:
64,0,212558,128,0,212608:1:0:0:0:
192,0,212558,128,0,212608:1:0:0:0:
448,0,212558,128,0,212608:1:0:0:0:
320,192,212658,1,0,0:0:0:0:
448,192,212758,1,0,0:0:0:0:
320,192,212858,1,0,0:0:0:0:
64,0,212958,128,0,213008:1:0:0:0:
192,0,212958,128,0,213008:1:0:0:0:
448,0,212958,128,0,213008:1:0:0:0:
320,192,213058,1,0,0:0:0:0:
64,192,213158,1,0,0:0:0:0:
192,192,213258,1,0,0:0:0:0:
64,0,213358,128,0,213408:1:0:0:0:
320,0,213358,128,0,213408:1:0:0:0:
448,0,213358,128,0,213408:1:0:0:0:
192,192,213458,1,0,0:0:0:0:
320,192,213558,1,0,0:0:0:0:
192,192,213658,1,0,0:0:0:0:
64,0,213758,128,0,213808:1:0:0:0:
320,0,213758,128,0,213808:1:0:0:0:
448,0,213758,128,0,213808:1:0:0:0:
192,192,213858,1,0,0:0:0:0:
320,192,213958,1,0,0:0:0:0:
64,192,214058,1,0,0:0:0:0:
192,0,214158,128,0,214208:1:0:0:0:
320,0,214158,128,0,214208:1:0:0:0:
448,0,214158,128,0,214208:1:0:0:0:
64,192,214258,1,0,0:0:0:0:
192,192,214358,1,0,0:0:0:0:
64,192,214458,1,0,0:0:0:0:
192,0,214558,128,0,214608:1:0:0:0:
320,0,214558,128,0,214608:1:0:0:0:
448,0,214558,128,0,214608:1:0:0:0:
64,192,214658,1,0,0:0:0:0:
192,192,214758,1,0,0:0:0:0:
320,192,214758,1,0,0:0:0:0:
448,192,214858,1,0,0:0:0:0:
64,0,214958,128,0,215008:1:0:0:0:
192,0,214958,128,0,215008:1:0:0:0:
320,0,214958,128,0,215008:1:0:0:0:
448,192,215058,1,0,0:0:0:0:
320,192,215158,1,0,0:0:0:0:
448,192,215258,1,0,0:0:0:0:
64,0,215358,128,0,215408:1:0:0:0:
192,0,215358,128,0,215408:1:0:0:0:
320,0,215358,128,0,215408:1:0:0:0:
448,192,215458,1,0,0:0:0:0:
192,192,215558,1,0,0:0:0:0:
320,192,215658,1,0,0:0:0:0:
64,0,215758,128,0,215808:1:0:0:0:
192,0,215758,128,0,215808:1:0:0:0:
448,0,215758,128,0,215808:1:0:0:0:
320,192,215858,1,0,0:0:0:0:
448,192,215958,1,0,0:0:0:0:
320,192,216058,1,0,0:0:0:0:
64,0,216158,128,0,216208:1:0:0:0:
192,0,216158,128,0,216208:1:0:0:0:
448,0,216158,128,0,216208:1:0:0:0:
320,192,216258,1,0,0:0:0:0:
64,192,216358,1,0,0:0:0:0:
192,192,216458,1,0,0:0:0:0:
64,0,216558,128,0,216608:1:0:0:0:
320,0,216558,128,0,216608:1:0:0:0:
448,0,216558,128,0,216608:1:0:0:0:
192,192,216658,1,0,0:0:0:0:
320,192,216758,1,0,0:0:0:0:
64,192,216858,1,0,0:0:0:0:
192,0,216958,128,0,217008:1:0:0:0:
320,0,216958,128,0,217008:1:0:0:0:
448,0,216958,128,0,217008:1:0:0:0:
64,192,217058,1,0,0:0:0:0:
320,192,217158,1,0,0:0:0:0:
192,192,217258,1,0,0:0:0:0:
64,0,217358,128,0,217408:1:0:0:0:
320,0,217358,128,0,217408:1:0:0:0:
448,0,217358,128,0,217408:1:0:0:0:
192,192,217458,1,0,0:0:0:0:
448,192,217558,1,0,0:0:0:0:
320,192,217658,1,0,0:0:0:0:
64,0,217758,128,0,217808:1:0:0:0:
192,0,217758,128,0,217808:1:0:0:0:
448,0,217758,128,0,217808:1:0:0:0:
320,192,217858,1,0,0:0:0:0:
64,192,217958,1,0,0:0:0:0:
192,192,217958,1,0,0:0:0:0:
448,192,218058,1,0,0:0:0:0:
64,0,218158,128,0,218208:1:0:0:0:
192,0,218158,128,0,218208:1:0:0:0:
320,0,218158,128,0,218208:1:0:0:0:
448,192,218258,1,0,0:0:0:0:
320,192,218358,1,0,0:0:0:0:
448,192,218458,1,0,0:0:0:0:
64,0,218558,128,0,218608:1:0:0:0:
192,0,218558,128,0,218608:1:0:0:0:
320,0,218558,128,0,218608:1:0:0:0:
448,192,218658,1,0,0:0:0:0:
192,192,218758,1,0,0:0:0:0:
320,192,218858,1,0,0:0:0:0:
64,0,218958,128,0,219008:1:0:0:0:
192,0,218958,128,0,219008:1:0:0:0:
448,0,218958,128,0,219008:1:0:0:0:
320,192,219058,1,0,0:0:0:0:
192,192,219158,1,0,0:0:0:0:
320,192,219258,1,0,0:0:0:0:
64,0,219358,128,0,219408:1:0:0:0:
192,0,219358,128,0,219408:1:0:0:0:
448,0,219358,128,0,219408:1:0:0:0:
320,192,219458,1,0,0:0:0:0:
64,192,219558,1,0,0:0:0:0:
192,192,219658,1,0,0:0:0:0:
64,0,219758,128,0,219808:1:0:0:0:
320,0,219758,128,0,219808:1:0:0:0:
448,0,219758,128,0,219808:1:0:0:0:
192,192,219858,1,0,0:0:0:0:
320,192,219958,1,0,0:0:0:0:
192,192,220058,1,0,0:0:0:0:
64,0,220158,128,0,220208:1:0:0:0:
320,0,220158,128,0,220208:1:0:0:0:
448,0,220158,128,0,220208:1:0:0:0:
192,192,220258,1,0,0:0:0:0:
320,192,220358,1,0,0:0:0:0:
64,192,220458,1,0,0:0:0:0:
192,0,220558,128,0,220608:1:0:0:0:
320,0,220558,128,0,220608:1:0:0:0:
448,0,220558,128,0,220608:1:0:0:0:
64,192,220658,1,0,0:0:0:0:
192,192,220758,1,0,0:0:0:0:
64,192,220858,1,0,0:0:0:0:
192,0,220958,128,0,221008:1:0:0:0:
320,0,220958,128,0,221008:1:0:0:0:
448,0,220958,128,0,221008:1:0:0:0:
64,192,221058,1,0,0:0:0:0:
192,192,221158,1,0,0:0:0:0:
320,192,221158,1,0,0:0:0:0:
448,192,221258,1,0,0:0:0:0:
64,0,221358,128,0,221408:1:0:0:0:
192,0,221358,128,0,221408:1:0:0:0:
320,0,221358,128,0,221408:1:0:0:0:
448,192,221458,1,0,0:0:0:0:
320,192,221558,1,0,0:0:0:0:
448,192,221658,1,0,0:0:0:0:
64,0,221758,128,0,221808:1:0:0:0:
192,0,221758,128,0,221808:1:0:0:0:
320,0,221758,128,0,221808:1:0:0:0:
448,192,221858,1,0,0:0:0:0:
192,192,221958,1,0,0:0:0:0:
320,192,222058,1,0,0:0:0:0:
64,0,222158,128,0,222208:1:0:0:0:
192,0,222158,128,0,222208:1:0:0:0:
448,0,222158,128,0,222208:1:0:0:0:
320,192,222258,1,0,0:0:0:0:
448,192,222358,1,0,0:0:0:0:
320,192,222458,1,0,0:0:0:0:
64,0,222558,128,0,222608:1:0:0:0:
192,0,222558,128,0,222608:1:0:0:0:
448,0,222558,128,0,222608:1:0:0:0:
320,192,222658,1,0,0:0:0:0:
64,192,222758,1,0,0:0:0:0:
192,192,222858,1,0,0:0:0:0:
64,0,222958,128,0,223008:1:0:0:0:
320,0,222958,128,0,223008:1:0:0:0:
448,0,222958,128,0,223008:1:0:0:0:
192,192,223058,1,0,0:0:0:0:
64,192,223158,1,0,0:0:0:0:
192,192,223258,1,0,0:0:0:0:
64,0,223358,128,0,223408:1:0:0:0:
320,0,223358,128,0,223408:1:0:0:0:
448,0,223358,128,0,223408:1:0:0:0:
192,192,223458,1,0,0:0:0:0:
320,192,223558,1,0,0:0:0:0:
64,192,223658,1,0,0:0:0:0:
192,0,223758,128,0,223808:1:0:0:0:
320,0,223758,128,0,223808:1:0:0:0:
448,0,223758,128,0,223808:1:0:0:0:
64,192,223858,1,0,0:0:0:0:
320,192,223958,1,0,0:0:0:0:
192,192,224058,1,0,0:0:0:0:
64,0,224158,128,0,224208:1:0:0:0:
320,0,224158,128,0,224208:1:0:0:0:
448,0,224158,128,0,224208:1:0:0:0:
192,192,224258,1,0,0:0:0:0:
64,192,224358,1,0,0:0:0:0:
320,192,224358,1,0,0:0:0:0:
448,192,224458,1,0,0:0:0:0:
64,0,224558,128,0,224608:1:0:0:0:
192,0,224558,128,0,224608:1:0:0:0:
448,192,224658,1,0,0:0:0:0:
320,192,224758,1,0,0:0:0:0:
448,192,224858,1,0,0:0:0:0:
64,0,224958,128,0,225008:1:0:0:0:
192,0,224958,128,0,225008:1:0:0:0:
448,192,225058,1,0,0:0:0:0:
192,192,225158,1,0,0:0:0:0:
320,192,225258,1,0,0:0:0:0:
192,0,225358,128,0,225408:1:0:0:0:
448,0,225358,128,0,225408:1:0:0:0:
320,192,225458,1,0,0:0:0:0:
192,192,225558,1,0,0:0:0:0:
320,192,225658,1,0,0:0:0:0:
192,0,225758,128,0,225808:1:0:0:0:
448,0,225758,128,0,225808:1:0:0:0:
320,192,225858,1,0,0:0:0:0:
64,192,225958,1,0,0:0:0:0:
192,192,226058,1,0,0:0:0:0:
320,0,226158,128,0,226208:1:0:0:0:
448,0,226158,128,0,226208:1:0:0:0:
192,192,226258,1,0,0:0:0:0:
64,192,226358,1,0,0:0:0:0:
192,192,226458,1,0,0:0:0:0:
320,0,226558,128,0,226608:1:0:0:0:
448,0,226558,128,0,226608:1:0:0:0:
192,192,226658,1,0,0:0:0:0:
320,192,226758,1,0,0:0:0:0:
64,192,226858,1,0,0:0:0:0:
192,0,226958,128,0,227008:1:0:0:0:
320,0,226958,128,0,227008:1:0:0:0:
64,192,227058,1,0,0:0:0:0:
192,192,227158,1,0,0:0:0:0:
448,192,227258,1,0,0:0:0:0:
192,0,227358,128,0,227408:1:0:0:0:
320,0,227358,128,0,227408:1:0:0:0:
448,192,227458,1,0,0:0:0:0:
64,192,227558,1,0,0:0:0:0:
192,192,227558,1,0,0:0:0:0:
320,192,227658,1,0,0:0:0:0:
448,192,227658,1,0,0:0:0:0:
64,0,227758,128,0,227808:1:0:0:0:
192,0,227758,128,0,227808:1:0:0:0:
448,192,227858,1,0,0:0:0:0:
320,192,227958,1,0,0:0:0:0:
448,192,228058,1,0,0:0:0:0:
64,0,228158,128,0,228208:1:0:0:0:
192,0,228158,128,0,228208:1:0:0:0:
448,192,228258,1,0,0:0:0:0:
192,192,228358,1,0,0:0:0:0:
320,192,228458,1,0,0:0:0:0:
192,0,228558,128,0,228608:1:0:0:0:
448,0,228558,128,0,228608:1:0:0:0:
320,192,228658,1,0,0:0:0:0:
64,192,228758,1,0,0:0:0:0:
320,192,228858,1,0,0:0:0:0:
192,0,228958,128,0,229008:1:0:0:0:
448,0,228958,128,0,229008:1:0:0:0:
320,192,229058,1,0,0:0:0:0:
64,192,229158,1,0,0:0:0:0:
192,192,229258,1,0,0:0:0:0:
448,192,229358,1,0,0:0:0:0:
320,192,229383,1,0,0:0:0:0:
192,192,229408,1,0,0:0:0:0:
64,192,229433,1,0,0:0:0:0:
448,192,229458,1,0,0:0:0:0:
320,192,229483,1,0,0:0:0:0:
192,192,229508,1,0,0:0:0:0:
64,192,229533,1,0,0:0:0:0:
448,192,229558,1,0,0:0:0:0:
320,192,229608,1,0,0:0:0:0:
192,192,229658,1,0,0:0:0:0:
64,192,229708,1,0,0:0:0:0:
448,192,229758,1,0,0:0:0:0:
320,192,229858,1,0,0:0:0:0:
192,192,229958,1,0,0:0:0:0:
64,192,230058,1,0,0:0:0:0:
64,0,230158,128,0,230508:1:0:0:0:
320,0,230158,128,0,230508:1:0:0:0:
448,0,230158,128,0,230508:1:0:0:0:
64,0,230558,128,0,230908:1:0:0:0:
192,0,230558,128,0,230908:1:0:0:0:
448,0,230558,128,0,230908:1:0:0:0:
64,192,230958,1,0,0:0:0:0:
192,192,230958,1,0,0:0:0:0:
448,192,230958,1,0,0:0:0:0:
320,192,231058,1,0,0:0:0:0:
64,192,231158,1,0,0:0:0:0:
192,192,231158,1,0,0:0:0:0:
64,192,231358,1,0,0:0:0:0:
192,192,231358,1,0,0:0:0:0:
448,192,231358,1,0,0:0:0:0:
320,192,231558,1,0,0:0:0:0:
64,192,231758,1,0,0:0:0:0:
192,192,231758,1,0,0:0:0:0:
448,192,231758,1,0,0:0:0:0:
320,192,231958,1,0,0:0:0:0:
64,192,232158,1,0,0:0:0:0:
320,192,232158,1,0,0:0:0:0:
448,192,232158,1,0,0:0:0:0:
192,192,232358,1,0,0:0:0:0:
64,192,232558,1,0,0:0:0:0:
320,192,232558,1,0,0:0:0:0:
448,192,232558,1,0,0:0:0:0:
192,192,232658,1,0,0:0:0:0:
64,192,232758,1,0,0:0:0:0:
320,192,232758,1,0,0:0:0:0:
64,192,232958,1,0,0:0:0:0:
192,192,232958,1,0,0:0:0:0:
448,192,232958,1,0,0:0:0:0:
320,192,233158,1,0,0:0:0:0:
64,192,233358,1,0,0:0:0:0:
192,192,233358,1,0,0:0:0:0:
448,192,233358,1,0,0:0:0:0:
192,192,233558,1,0,0:0:0:0:
64,192,233758,1,0,0:0:0:0:
320,192,233758,1,0,0:0:0:0:
448,192,233758,1,0,0:0:0:0:
192,192,233958,1,0,0:0:0:0:
64,192,234158,1,0,0:0:0:0:
320,192,234158,1,0,0:0:0:0:
448,192,234158,1,0,0:0:0:0:
192,192,234258,1,0,0:0:0:0:
64,192,234358,1,0,0:0:0:0:
448,192,234358,1,0,0:0:0:0:
64,192,234558,1,0,0:0:0:0:
192,192,234558,1,0,0:0:0:0:
448,192,234558,1,0,0:0:0:0:
320,192,234758,1,0,0:0:0:0:
64,192,234958,1,0,0:0:0:0:
192,192,234958,1,0,0:0:0:0:
448,192,234958,1,0,0:0:0:0:
320,192,235158,1,0,0:0:0:0:
64,192,235358,1,0,0:0:0:0:
320,192,235358,1,0,0:0:0:0:
448,192,235358,1,0,0:0:0:0:
192,192,235558,1,0,0:0:0:0:
64,192,235758,1,0,0:0:0:0:
320,192,235758,1,0,0:0:0:0:
448,192,235758,1,0,0:0:0:0:
192,192,235858,1,0,0:0:0:0:
320,192,235958,1,0,0:0:0:0:
448,192,235958,1,0,0:0:0:0:
64,192,236158,1,0,0:0:0:0:
192,192,236158,1,0,0:0:0:0:
448,192,236158,1,0,0:0:0:0:
320,192,236358,1,0,0:0:0:0:
64,192,236558,1,0,0:0:0:0:
192,192,236558,1,0,0:0:0:0:
448,192,236558,1,0,0:0:0:0:
320,192,236758,1,0,0:0:0:0:
64,192,236958,1,0,0:0:0:0:
320,192,236958,1,0,0:0:0:0:
448,192,236958,1,0,0:0:0:0:
192,192,237158,1,0,0:0:0:0:
64,192,237358,1,0,0:0:0:0:
320,192,237358,1,0,0:0:0:0:
448,192,237358,1,0,0:0:0:0:
192,192,237458,1,0,0:0:0:0:
64,192,237558,1,0,0:0:0:0:
448,192,237558,1,0,0:0:0:0:
64,192,237758,1,0,0:0:0:0:
192,192,237758,1,0,0:0:0:0:
448,192,237758,1,0,0:0:0:0:
320,192,237958,1,0,0:0:0:0:
64,192,238158,1,0,0:0:0:0:
192,192,238158,1,0,0:0:0:0:
448,192,238158,1,0,0:0:0:0:
320,192,238358,1,0,0:0:0:0:
64,192,238558,1,0,0:0:0:0:
320,192,238558,1,0,0:0:0:0:
448,192,238558,1,0,0:0:0:0:
192,192,238758,1,0,0:0:0:0:
64,192,238958,1,0,0:0:0:0:
192,192,238958,1,0,0:0:0:0:
448,192,238958,1,0,0:0:0:0:
320,192,239058,1,0,0:0:0:0:
192,192,239158,1,0,0:0:0:0:
448,192,239158,1,0,0:0:0:0:
64,192,239358,1,0,0:0:0:0:
192,192,239358,1,0,0:0:0:0:
448,192,239358,1,0,0:0:0:0:
320,192,239558,1,0,0:0:0:0:
64,192,239758,1,0,0:0:0:0:
192,192,239758,1,0,0:0:0:0:
448,192,239758,1,0,0:0:0:0:
192,192,239958,1,0,0:0:0:0:
64,192,240158,1,0,0:0:0:0:
320,192,240158,1,0,0:0:0:0:
448,192,240158,1,0,0:0:0:0:
192,192,240358,1,0,0:0:0:0:
64,192,240558,1,0,0:0:0:0:
192,192,240558,1,0,0:0:0:0:
448,192,240558,1,0,0:0:0:0:
320,192,240658,1,0,0:0:0:0:
64,192,240758,1,0,0:0:0:0:
192,192,240758,1,0,0:0:0:0:
64,192,240958,1,0,0:0:0:0:
192,192,240958,1,0,0:0:0:0:
448,192,240958,1,0,0:0:0:0:
320,192,241158,1,0,0:0:0:0:
64,192,241358,1,0,0:0:0:0:
192,192,241358,1,0,0:0:0:0:
448,192,241358,1,0,0:0:0:0:
320,192,241558,1,0,0:0:0:0:
64,192,241758,1,0,0:0:0:0:
320,192,241758,1,0,0:0:0:0:
448,192,241758,1,0,0:0:0:0:
192,192,241958,1,0,0:0:0:0:
64,192,242158,1,0,0:0:0:0:
320,192,242158,1,0,0:0:0:0:
448,192,242158,1,0,0:0:0:0:
192,192,242258,1,0,0:0:0:0:
320,192,242358,1,0,0:0:0:0:
448,192,242358,1,0,0:0:0:0:
64,192,242558,1,0,0:0:0:0:
192,192,242558,1,0,0:0:0:0:
448,192,242558,1,0,0:0:0:0:
192,192,242758,1,0,0:0:0:0:
64,192,242958,1,0,0:0:0:0:
192,192,242958,1,0,0:0:0:0:
448,192,242958,1,0,0:0:0:0:
320,192,243158,1,0,0:0:0:0:
320,192,243358,1,0,0:0:0:0:
64,0,243358,128,0,243383:1:0:0:0:
448,0,243358,128,0,243383:1:0:0:0:
64,0,243458,128,0,243483:1:0:0:0:
448,0,243458,128,0,243483:1:0:0:0:
64,0,243558,128,0,243583:1:0:0:0:
448,0,243558,128,0,243583:1:0:0:0:
64,0,243658,128,0,243683:1:0:0:0:
448,0,243658,128,0,243683:1:0:0:0:
64,192,243758,1,0,0:0:0:0:
320,192,243758,1,0,0:0:0:0:
448,0,243758,128,0,243808:1:0:0:0:
192,192,243858,1,0,0:0:0:0:
64,192,243958,1,0,0:0:0:0:
320,192,244058,1,0,0:0:0:0:
448,0,244058,128,0,244108:1:0:0:0:
64,192,244158,1,0,0:0:0:0:
192,192,244158,1,0,0:0:0:0:
448,192,244258,1,0,0:0:0:0:
64,192,244358,1,0,0:0:0:0:
320,0,244358,128,0,244408:1:0:0:0:
192,192,244458,1,0,0:0:0:0:
64,192,244558,1,0,0:0:0:0:
448,192,244558,1,0,0:0:0:0:
192,192,244658,1,0,0:0:0:0:
320,0,244658,128,0,244708:1:0:0:0:
448,192,244758,1,0,0:0:0:0:
64,192,244858,1,0,0:0:0:0:
320,192,244958,1,0,0:0:0:0:
192,0,244958,128,0,245008:1:0:0:0:
448,192,245058,1,0,0:0:0:0:
64,192,245158,1,0,0:0:0:0:
192,0,245158,128,0,245208:1:0:0:0:
320,192,245258,1,0,0:0:0:0:
64,192,245358,1,0,0:0:0:0:
448,0,245358,128,0,245408:1:0:0:0:
320,192,245458,1,0,0:0:0:0:
192,192,245558,1,0,0:0:0:0:
320,192,245658,1,0,0:0:0:0:
448,0,245658,128,0,245708:1:0:0:0:
64,192,245758,1,0,0:0:0:0:
192,192,245758,1,0,0:0:0:0:
448,192,245858,1,0,0:0:0:0:
64,192,245958,1,0,0:0:0:0:
320,0,245958,128,0,246008:1:0:0:0:
192,192,246058,1,0,0:0:0:0:
64,192,246158,1,0,0:0:0:0:
448,192,246158,1,0,0:0:0:0:
192,192,246258,1,0,0:0:0:0:
320,0,246258,128,0,246308:1:0:0:0:
448,192,246358,1,0,0:0:0:0:
64,192,246458,1,0,0:0:0:0:
448,192,246558,1,0,0:0:0:0:
192,0,246558,128,0,246608:1:0:0:0:
320,192,246658,1,0,0:0:0:0:
448,192,246758,1,0,0:0:0:0:
192,0,246758,128,0,246808:1:0:0:0:
64,192,246858,1,0,0:0:0:0:
320,192,246958,1,0,0:0:0:0:
448,0,246958,128,0,247008:1:0:0:0:
192,192,247058,1,0,0:0:0:0:
320,192,247158,1,0,0:0:0:0:
64,192,247258,1,0,0:0:0:0:
448,0,247258,128,0,247308:1:0:0:0:
192,192,247358,1,0,0:0:0:0:
320,192,247358,1,0,0:0:0:0:
64,192,247458,1,0,0:0:0:0:
192,192,247558,1,0,0:0:0:0:
320,0,247558,128,0,247608:1:0:0:0:
448,192,247658,1,0,0:0:0:0:
64,192,247758,1,0,0:0:0:0:
192,192,247758,1,0,0:0:0:0:
448,192,247858,1,0,0:0:0:0:
320,0,247858,128,0,247908:1:0:0:0:
192,192,247958,1,0,0:0:0:0:
64,192,248058,1,0,0:0:0:0:
320,192,248158,1,0,0:0:0:0:
192,0,248158,128,0,248208:1:0:0:0:
448,192,248258,1,0,0:0:0:0:
320,192,248358,1,0,0:0:0:0:
192,0,248358,128,0,248408:1:0:0:0:
64,192,248458,1,0,0:0:0:0:
320,192,248558,1,0,0:0:0:0:
448,0,248558,128,0,248608:1:0:0:0:
192,192,248658,1,0,0:0:0:0:
64,192,248758,1,0,0:0:0:0:
192,192,248858,1,0,0:0:0:0:
448,0,248858,128,0,248908:1:0:0:0:
64,192,248958,1,0,0:0:0:0:
320,192,248958,1,0,0:0:0:0:
192,192,249058,1,0,0:0:0:0:
448,192,249158,1,0,0:0:0:0:
320,0,249158,128,0,249208:1:0:0:0:
192,192,249258,1,0,0:0:0:0:
64,192,249358,1,0,0:0:0:0:
448,192,249358,1,0,0:0:0:0:
192,192,249458,1,0,0:0:0:0:
320,0,249458,128,0,249508:1:0:0:0:
448,192,249558,1,0,0:0:0:0:
320,192,249658,1,0,0:0:0:0:
64,192,249758,1,0,0:0:0:0:
192,0,249758,128,0,249808:1:0:0:0:
320,192,249858,1,0,0:0:0:0:
448,192,249958,1,0,0:0:0:0:
192,0,249958,128,0,250008:1:0:0:0:
64,192,250058,1,0,0:0:0:0:
320,192,250158,1,0,0:0:0:0:
448,0,250158,128,0,250208:1:0:0:0:
192,192,250258,1,0,0:0:0:0:
320,192,250358,1,0,0:0:0:0:
64,192,250458,1,0,0:0:0:0:
448,0,250458,128,0,250508:1:0:0:0:
192,192,250558,1,0,0:0:0:0:
320,192,250558,1,0,0:0:0:0:
448,192,250658,1,0,0:0:0:0:
64,192,250758,1,0,0:0:0:0:
320,0,250758,128,0,250808:1:0:0:0:
192,192,250858,1,0,0:0:0:0:
64,192,250958,1,0,0:0:0:0:
448,192,250958,1,0,0:0:0:0:
192,192,251058,1,0,0:0:0:0:
320,0,251058,128,0,251108:1:0:0:0:
448,192,251158,1,0,0:0:0:0:
64,192,251258,1,0,0:0:0:0:
320,192,251358,1,0,0:0:0:0:
192,0,251358,128,0,251408:1:0:0:0:
448,192,251458,1,0,0:0:0:0:
64,192,251558,1,0,0:0:0:0:
320,192,251558,1,0,0:0:0:0:
192,192,251658,1,0,0:0:0:0:
64,192,251758,1,0,0:0:0:0:
448,0,251758,128,0,251808:1:0:0:0:
320,192,251858,1,0,0:0:0:0:
64,192,251958,1,0,0:0:0:0:
192,192,252058,1,0,0:0:0:0:
448,0,252058,128,0,252108:1:0:0:0:
64,192,252158,1,0,0:0:0:0:
320,192,252158,1,0,0:0:0:0:
192,192,252258,1,0,0:0:0:0:
448,192,252358,1,0,0:0:0:0:
320,0,252358,128,0,252408:1:0:0:0:
192,192,252458,1,0,0:0:0:0:
64,192,252558,1,0,0:0:0:0:
448,192,252558,1,0,0:0:0:0:
192,192,252658,1,0,0:0:0:0:
320,0,252658,128,0,252708:1:0:0:0:
448,192,252758,1,0,0:0:0:0:
320,192,252858,1,0,0:0:0:0:
64,192,252958,1,0,0:0:0:0:
192,0,252958,128,0,253008:1:0:0:0:
320,192,253058,1,0,0:0:0:0:
448,192,253158,1,0,0:0:0:0:
192,0,253158,128,0,253208:1:0:0:0:
64,192,253258,1,0,0:0:0:0:
320,192,253358,1,0,0:0:0:0:
448,0,253358,128,0,253408:1:0:0:0:
192,192,253458,1,0,0:0:0:0:
64,192,253558,1,0,0:0:0:0:
320,192,253658,1,0,0:0:0:0:
448,0,253658,128,0,253708:1:0:0:0:
64,192,253758,1,0,0:0:0:0:
192,192,253758,1,0,0:0:0:0:
448,192,253858,1,0,0:0:0:0:
64,192,253958,1,0,0:0:0:0:
320,0,253958,128,0,254008:1:0:0:0:
192,192,254058,1,0,0:0:0:0:
64,192,254158,1,0,0:0:0:0:
448,192,254158,1,0,0:0:0:0:
192,192,254258,1,0,0:0:0:0:
320,0,254258,128,0,254308:1:0:0:0:
448,192,254358,1,0,0:0:0:0:
320,192,254458,1,0,0:0:0:0:
448,192,254558,1,0,0:0:0:0:
192,0,254558,128,0,254608:1:0:0:0:
320,192,254658,1,0,0:0:0:0:
448,192,254758,1,0,0:0:0:0:
192,0,254758,128,0,254808:1:0:0:0:
64,192,254858,1,0,0:0:0:0:
320,192,254958,1,0,0:0:0:0:
448,0,254958,128,0,255008:1:0:0:0:
192,192,255058,1,0,0:0:0:0:
320,192,255158,1,0,0:0:0:0:
64,192,255258,1,0,0:0:0:0:
448,0,255258,128,0,255308:1:0:0:0:
192,192,255358,1,0,0:0:0:0:
320,192,255358,1,0,0:0:0:0:
448,192,255458,1,0,0:0:0:0:
64,192,255558,1,0,0:0:0:0:
320,0,255558,128,0,255608:1:0:0:0:
192,192,255658,1,0,0:0:0:0:
64,192,255758,1,0,0:0:0:0:
448,192,255758,1,0,0:0:0:0:
192,192,255858,1,0,0:0:0:0:
320,0,255858,128,0,255908:1:0:0:0:
448,192,255958,1,0,0:0:0:0:
64,192,256058,1,0,0:0:0:0:
320,192,256158,1,0,0:0:0:0:
192,0,256158,128,0,256208:1:0:0:0:
64,192,256258,1,0,0:0:0:0:
448,192,256358,1,0,0:0:0:0:
192,0,256358,128,0,256408:1:0:0:0:
320,192,256458,1,0,0:0:0:0:
64,192,256558,1,0,0:0:0:0:
448,0,256558,128,0,256608:1:0:0:0:
320,192,256658,1,0,0:0:0:0:
192,192,256758,1,0,0:0:0:0:
320,192,256858,1,0,0:0:0:0:
448,0,256858,128,0,256908:1:0:0:0:
64,192,256958,1,0,0:0:0:0:
192,192,256958,1,0,0:0:0:0:
448,192,257058,1,0,0:0:0:0:
64,192,257158,1,0,0:0:0:0:
320,0,257158,128,0,257208:1:0:0:0:
192,192,257258,1,0,0:0:0:0:
64,192,257358,1,0,0:0:0:0:
448,192,257358,1,0,0:0:0:0:
192,192,257458,1,0,0:0:0:0:
320,0,257458,128,0,257508:1:0:0:0:
448,192,257558,1,0,0:0:0:0:
64,192,257658,1,0,0:0:0:0:
320,192,257758,1,0,0:0:0:0:
192,0,257758,128,0,257808:1:0:0:0:
64,192,257858,1,0,0:0:0:0:
448,192,257958,1,0,0:0:0:0:
192,0,257958,128,0,258008:1:0:0:0:
320,192,258058,1,0,0:0:0:0:
64,192,258158,1,0,0:0:0:0:
448,0,258158,128,0,258208:1:0:0:0:
192,192,258258,1,0,0:0:0:0:
320,192,258358,1,0,0:0:0:0:
64,192,258458,1,0,0:0:0:0:
448,0,258458,128,0,258508:1:0:0:0:
192,192,258558,1,0,0:0:0:0:
320,192,258558,1,0,0:0:0:0:
448,192,258658,1,0,0:0:0:0:
64,192,258758,1,0,0:0:0:0:
320,0,258758,128,0,258808:1:0:0:0:
192,192,258858,1,0,0:0:0:0:
64,192,258958,1,0,0:0:0:0:
448,192,258958,1,0,0:0:0:0:
192,192,259058,1,0,0:0:0:0:
320,0,259058,128,0,259108:1:0:0:0:
448,192,259158,1,0,0:0:0:0:
64,192,259258,1,0,0:0:0:0:
320,192,259358,1,0,0:0:0:0:
192,0,259358,128,0,259408:1:0:0:0:
64,192,259458,1,0,0:0:0:0:
448,192,259558,1,0,0:0:0:0:
192,0,259558,128,0,259608:1:0:0:0:
320,192,259658,1,0,0:0:0:0:
64,192,259758,1,0,0:0:0:0:
448,0,259758,128,0,259808:1:0:0:0:
192,192,259858,1,0,0:0:0:0:
64,192,259958,1,0,0:0:0:0:
320,192,260058,1,0,0:0:0:0:
448,0,260058,128,0,260108:1:0:0:0:
64,192,260158,1,0,0:0:0:0:
192,192,260158,1,0,0:0:0:0:
448,192,260258,1,0,0:0:0:0:
64,192,260358,1,0,0:0:0:0:
320,0,260358,128,0,260408:1:0:0:0:
192,192,260458,1,0,0:0:0:0:
64,192,260558,1,0,0:0:0:0:
448,192,260558,1,0,0:0:0:0:
192,192,260658,1,0,0:0:0:0:
320,0,260658,128,0,260708:1:0:0:0:
448,192,260758,1,0,0:0:0:0:
64,192,260858,1,0,0:0:0:0:
320,192,260958,1,0,0:0:0:0:
192,0,260958,128,0,261008:1:0:0:0:
64,192,261058,1,0,0:0:0:0:
448,192,261158,1,0,0:0:0:0:
192,0,261158,128,0,261208:1:0:0:0:
320,192,261258,1,0,0:0:0:0:
64,192,261358,1,0,0:0:0:0:
448,0,261358,128,0,261408:1:0:0:0:
192,192,261458,1,0,0:0:0:0:
64,192,261558,1,0,0:0:0:0:
320,192,261658,1,0,0:0:0:0:
448,0,261658,128,0,261708:1:0:0:0:
64,192,261758,1,0,0:0:0:0:
192,192,261758,1,0,0:0:0:0:
448,192,261858,1,0,0:0:0:0:
192,192,261958,1,0,0:0:0:0:
320,0,261958,128,0,262008:1:0:0:0:
448,192,262058,1,0,0:0:0:0:
64,192,262158,1,0,0:0:0:0:
192,192,262158,1,0,0:0:0:0:
448,192,262258,1,0,0:0:0:0:
320,0,262258,128,0,262308:1:0:0:0:
192,192,262358,1,0,0:0:0:0:
64,192,262458,1,0,0:0:0:0:
448,192,262558,1,0,0:0:0:0:
192,0,262558,128,0,262608:1:0:0:0:
320,192,262658,1,0,0:0:0:0:
448,192,262758,1,0,0:0:0:0:
192,0,262758,128,0,262808:1:0:0:0:
64,192,262858,1,0,0:0:0:0:
320,192,262958,1,0,0:0:0:0:
448,0,262958,128,0,263008:1:0:0:0:
64,192,263058,1,0,0:0:0:0:
192,192,263158,1,0,0:0:0:0:
320,192,263258,1,0,0:0:0:0:
448,0,263258,128,0,263308:1:0:0:0:
64,192,263358,1,0,0:0:0:0:
192,192,263358,1,0,0:0:0:0:
448,192,263458,1,0,0:0:0:0:
64,192,263558,1,0,0:0:0:0:
320,0,263558,128,0,263608:1:0:0:0:
192,192,263658,1,0,0:0:0:0:
64,192,263758,1,0,0:0:0:0:
448,192,263758,1,0,0:0:0:0:
192,192,263858,1,0,0:0:0:0:
320,0,263858,128,0,263908:1:0:0:0:
448,192,263958,1,0,0:0:0:0:
64,192,264058,1,0,0:0:0:0:
320,192,264158,1,0,0:0:0:0:
192,0,264158,128,0,264208:1:0:0:0:
64,192,264258,1,0,0:0:0:0:
448,192,264358,1,0,0:0:0:0:
192,0,264358,128,0,264408:1:0:0:0:
320,192,264458,1,0,0:0:0:0:
64,192,264558,1,0,0:0:0:0:
448,0,264558,128,0,264608:1:0:0:0:
320,192,264658,1,0,0:0:0:0:
192,192,264758,1,0,0:0:0:0:
320,192,264858,1,0,0:0:0:0:
448,0,264858,128,0,264908:1:0:0:0:
64,192,264958,1,0,0:0:0:0:
192,192,264958,1,0,0:0:0:0:
448,192,265058,1,0,0:0:0:0:
64,192,265158,1,0,0:0:0:0:
320,0,265158,128,0,265208:1:0:0:0:
192,192,265258,1,0,0:0:0:0:
320,192,265358,1,0,0:0:0:0:
448,192,265358,1,0,0:0:0:0:
64,192,265458,1,0,0:0:0:0:
192,192,265458,1,0,0:0:0:0:
320,192,265558,1,0,0:0:0:0:
448,192,265658,1,0,0:0:0:0:
320,192,265758,1,0,0:0:0:0:
192,0,265758,128,0,265808:1:0:0:0:
64,192,265858,1,0,0:0:0:0:
448,192,265958,1,0,0:0:0:0:
192,0,265958,128,0,266008:1:0:0:0:
320,192,266058,1,0,0:0:0:0:
64,192,266158,1,0,0:0:0:0:
448,0,266158,128,0,266208:1:0:0:0:
320,192,266258,1,0,0:0:0:0:
192,192,266358,1,0,0:0:0:0:
320,192,266458,1,0,0:0:0:0:
448,0,266458,128,0,266508:1:0:0:0:
64,192,266558,1,0,0:0:0:0:
192,192,266558,1,0,0:0:0:0:
448,192,266658,1,0,0:0:0:0:
64,192,266758,1,0,0:0:0:0:
320,0,266758,128,0,266808:1:0:0:0:
192,192,266858,1,0,0:0:0:0:
64,192,266958,1,0,0:0:0:0:
448,192,266958,1,0,0:0:0:0:
192,192,267058,1,0,0:0:0:0:
320,0,267058,128,0,267108:1:0:0:0:
64,192,267158,1,0,0:0:0:0:
448,192,267258,1,0,0:0:0:0:
320,192,267358,1,0,0:0:0:0:
192,0,267358,128,0,267408:1:0:0:0:
64,192,267458,1,0,0:0:0:0:
448,192,267558,1,0,0:0:0:0:
192,0,267558,128,0,267608:1:0:0:0:
320,192,267658,1,0,0:0:0:0:
64,192,267758,1,0,0:0:0:0:
448,0,267758,128,0,267808:1:0:0:0:
192,192,267858,1,0,0:0:0:0:
64,192,267958,1,0,0:0:0:0:
320,192,268058,1,0,0:0:0:0:
448,0,268058,128,0,268108:1:0:0:0:
64,192,268158,1,0,0:0:0:0:
192,192,268158,1,0,0:0:0:0:
448,192,268258,1,0,0:0:0:0:
64,192,268358,1,0,0:0:0:0:
320,0,268358,128,0,268408:1:0:0:0:
192,192,268458,1,0,0:0:0:0:
64,192,268558,1,0,0:0:0:0:
448,192,268558,1,0,0:0:0:0:
192,192,268658,1,0,0:0:0:0:
320,0,268658,128,0,268708:1:0:0:0:
64,192,268758,1,0,0:0:0:0:
448,192,268858,1,0,0:0:0:0:
320,192,268958,1,0,0:0:0:0:
192,0,268958,128,0,269008:1:0:0:0:
64,192,269058,1,0,0:0:0:0:
448,192,269158,1,0,0:0:0:0:
192,0,269158,128,0,269208:1:0:0:0:
320,192,269258,1,0,0:0:0:0:
64,192,269358,1,0,0:0:0:0:
448,0,269358,128,0,269408:1:0:0:0:
320,192,269458,1,0,0:0:0:0:
192,192,269558,1,0,0:0:0:0:
320,192,269658,1,0,0:0:0:0:
448,0,269658,128,0,269708:1:0:0:0:
64,192,269758,1,0,0:0:0:0:
192,192,269758,1,0,0:0:0:0:
448,192,269858,1,0,0:0:0:0:
192,192,269958,1,0,0:0:0:0:
320,0,269958,128,0,270008:1:0:0:0:
64,192,270058,1,0,0:0:0:0:
192,192,270158,1,0,0:0:0:0:
448,192,270158,1,0,0:0:0:0:
64,192,270258,1,0,0:0:0:0:
320,0,270258,128,0,270308:1:0:0:0:
192,192,270358,1,0,0:0:0:0:
64,192,270458,1,0,0:0:0:0:
320,192,270558,1,0,0:0:0:0:
192,0,270558,128,0,270608:1:0:0:0:
448,192,270658,1,0,0:0:0:0:
64,192,270758,1,0,0:0:0:0:
192,0,270758,128,0,270808:1:0:0:0:
320,192,270858,1,0,0:0:0:0:
64,192,270958,1,0,0:0:0:0:
448,0,270958,128,0,271008:1:0:0:0:
320,192,271058,1,0,0:0:0:0:
192,192,271158,1,0,0:0:0:0:
320,192,271258,1,0,0:0:0:0:
448,0,271258,128,0,271308:1:0:0:0:
64,192,271358,1,0,0:0:0:0:
192,192,271358,1,0,0:0:0:0:
448,192,271458,1,0,0:0:0:0:
64,192,271558,1,0,0:0:0:0:
320,0,271558,128,0,271608:1:0:0:0:
192,192,271658,1,0,0:0:0:0:
320,192,271758,1,0,0:0:0:0:
448,192,271758,1,0,0:0:0:0:
64,192,271858,1,0,0:0:0:0:
192,0,271858,128,0,271908:1:0:0:0:
320,192,271958,1,0,0:0:0:0:
64,192,272058,1,0,0:0:0:0:
320,192,272158,1,0,0:0:0:0:
192,0,272158,128,0,272208:1:0:0:0:
448,192,272258,1,0,0:0:0:0:
64,192,272358,1,0,0:0:0:0:
192,0,272358,128,0,272408:1:0:0:0:
320,192,272458,1,0,0:0:0:0:
64,192,272558,1,0,0:0:0:0:
448,0,272558,128,0,272608:1:0:0:0:
192,192,272658,1,0,0:0:0:0:
64,192,272758,1,0,0:0:0:0:
320,192,272858,1,0,0:0:0:0:
448,0,272858,128,0,272908:1:0:0:0:
64,192,272958,1,0,0:0:0:0:
192,192,272958,1,0,0:0:0:0:
448,192,273058,1,0,0:0:0:0:
64,192,273158,1,0,0:0:0:0:
320,0,273158,128,0,273208:1:0:0:0:
192,192,273258,1,0,0:0:0:0:
64,192,273358,1,0,0:0:0:0:
448,192,273358,1,0,0:0:0:0:
192,192,273458,1,0,0:0:0:0:
320,0,273458,128,0,273508:1:0:0:0:
448,192,273558,1,0,0:0:0:0:
64,192,273658,1,0,0:0:0:0:
320,192,273758,1,0,0:0:0:0:
192,0,273758,128,0,273808:1:0:0:0:
64,192,273858,1,0,0:0:0:0:
448,192,273958,1,0,0:0:0:0:
192,0,273958,128,0,274008:1:0:0:0:
320,192,274058,1,0,0:0:0:0:
64,192,274158,1,0,0:0:0:0:
448,0,274158,128,0,274208:1:0:0:0:
320,192,274258,1,0,0:0:0:0:
192,192,274358,1,0,0:0:0:0:
320,192,274458,1,0,0:0:0:0:
448,0,274458,128,0,274508:1:0:0:0:
64,192,274558,1,0,0:0:0:0:
192,192,274558,1,0,0:0:0:0:
448,192,274658,1,0,0:0:0:0:
192,192,274758,1,0,0:0:0:0:
320,0,274758,128,0,274808:1:0:0:0:
64,192,274858,1,0,0:0:0:0:
192,192,274958,1,0,0:0:0:0:
448,192,274958,1,0,0:0:0:0:
64,192,275058,1,0,0:0:0:0:
320,0,275058,128,0,275108:1:0:0:0:
448,192,275158,1,0,0:0:0:0:
64,192,275258,1,0,0:0:0:0:
320,192,275358,1,0,0:0:0:0:
192,0,275358,128,0,275408:1:0:0:0:
64,192,275458,1,0,0:0:0:0:
448,192,275558,1,0,0:0:0:0:
192,0,275558,128,0,275608:1:0:0:0:
320,192,275658,1,0,0:0:0:0:
64,192,275758,1,0,0:0:0:0:
448,0,275758,128,0,275808:1:0:0:0:
320,192,275858,1,0,0:0:0:0:
192,192,275958,1,0,0:0:0:0:
320,192,276058,1,0,0:0:0:0:
448,0,276058,128,0,276108:1:0:0:0:
64,192,276158,1,0,0:0:0:0:
192,192,276158,1,0,0:0:0:0:
448,192,276258,1,0,0:0:0:0:
192,192,276358,1,0,0:0:0:0:
320,0,276358,128,0,276408:1:0:0:0:
64,192,276458,1,0,0:0:0:0:
192,192,276558,1,0,0:0:0:0:
448,192,276558,1,0,0:0:0:0:
64,192,276658,1,0,0:0:0:0:
320,0,276658,128,0,276708:1:0:0:0:
192,192,276758,1,0,0:0:0:0:
448,192,276858,1,0,0:0:0:0:
320,192,276958,1,0,0:0:0:0:
192,0,276958,128,0,277008:1:0:0:0:
64,192,277058,1,0,0:0:0:0:
448,192,277158,1,0,0:0:0:0:
192,0,277158,128,0,277208:1:0:0:0:
320,192,277258,1,0,0:0:0:0:
64,192,277358,1,0,0:0:0:0:
448,0,277358,128,0,277408:1:0:0:0:
192,192,277458,1,0,0:0:0:0:
64,192,277558,1,0,0:0:0:0:
320,192,277658,1,0,0:0:0:0:
448,0,277658,128,0,277708:1:0:0:0:
64,192,277758,1,0,0:0:0:0:
192,192,277758,1,0,0:0:0:0:
448,192,277858,1,0,0:0:0:0:
64,192,277958,1,0,0:0:0:0:
320,0,277958,128,0,278008:1:0:0:0:
192,192,278058,1,0,0:0:0:0:
64,192,278158,1,0,0:0:0:0:
448,192,278158,1,0,0:0:0:0:
192,192,278258,1,0,0:0:0:0:
320,0,278258,128,0,278308:1:0:0:0:
448,192,278358,1,0,0:0:0:0:
64,192,278458,1,0,0:0:0:0:
320,192,278558,1,0,0:0:0:0:
192,0,278558,128,0,278608:1:0:0:0:
64,192,278658,1,0,0:0:0:0:
448,192,278758,1,0,0:0:0:0:
192,0,278758,128,0,278808:1:0:0:0:
320,192,278858,1,0,0:0:0:0:
64,192,278958,1,0,0:0:0:0:
192,192,279008,1,0,0:0:0:0:
320,192,279058,1,0,0:0:0:0:
448,192,279108,1,0,0:0:0:0:
64,192,279158,1,0,0:0:0:0:
192,192,279208,1,0,0:0:0:0:
320,192,279258,1,0,0:0:0:0:
448,192,279308,1,0,0:0:0:0:
64,192,279358,1,0,0:0:0:0:
192,192,279408,1,0,0:0:0:0:
320,192,279458,1,0,0:0:0:0:
448,192,279508,1,0,0:0:0:0:
64,192,279558,1,0,0:0:0:0:
192,192,279608,1,0,0:0:0:0:
320,192,279658,1,0,0:0:0:0:
448,192,279708,1,0,0:0:0:0:
64,192,279758,1,0,0:0:0:0:
192,192,279808,1,0,0:0:0:0:
320,192,279858,1,0,0:0:0:0:
448,192,279908,1,0,0:0:0:0:
64,192,279958,1,0,0:0:0:0:
192,192,280008,1,0,0:0:0:0:
320,192,280058,1,0,0:0:0:0:
448,192,280108,1,0,0:0:0:0:
64,192,280158,1,0,0:0:0:0:
192,192,280208,1,0,0:0:0:0:
320,192,280258,1,0,0:0:0:0:
448,192,280308,1,0,0:0:0:0:
64,192,280358,1,0,0:0:0:0:
192,192,280408,1,0,0:0:0:0:
320,192,280458,1,0,0:0:0:0:
448,192,280508,1,0,0:0:0:0:
64,192,280558,1,0,0:0:0:0:
192,192,280583,1,0,0:0:0:0:
320,192,280608,1,0,0:0:0:0:
448,192,280633,1,0,0:0:0:0:
64,192,280658,1,0,0:0:0:0:
192,192,280683,1,0,0:0:0:0:
320,192,280708,1,0,0:0:0:0:
448,192,280733,1,0,0:0:0:0:
64,192,280758,1,0,0:0:0:0:
192,192,280783,1,0,0:0:0:0:
320,192,280808,1,0,0:0:0:0:
448,192,280833,1,0,0:0:0:0:
64,192,280858,1,0,0:0:0:0:
192,192,280883,1,0,0:0:0:0:
320,192,280908,1,0,0:0:0:0:
448,192,280933,1,0,0:0:0:0:
64,192,280958,1,0,0:0:0:0:
192,192,280983,1,0,0:0:0:0:
320,192,281008,1,0,0:0:0:0:
448,192,281033,1,0,0:0:0:0:
64,192,281058,1,0,0:0:0:0:
192,192,281083,1,0,0:0:0:0:
320,192,281108,1,0,0:0:0:0:
448,192,281133,1,0,0:0:0:0:
64,192,281158,1,0,0:0:0:0:
192,192,281183,1,0,0:0:0:0:
320,192,281208,1,0,0:0:0:0:
448,192,281233,1,0,0:0:0:0:
64,192,281258,1,0,0:0:0:0:
192,192,281283,1,0,0:0:0:0:
320,192,281308,1,0,0:0:0:0:
448,192,281333,1,0,0:0:0:0:
64,192,281358,1,0,0:0:0:0:
192,192,281383,1,0,0:0:0:0:
320,192,281408,1,0,0:0:0:0:
448,192,281433,1,0,0:0:0:0:
64,192,281458,1,0,0:0:0:0:
192,192,281483,1,0,0:0:0:0:
320,192,281508,1,0,0:0:0:0:
448,192,281533,1,0,0:0:0:0:
64,192,281558,1,0,0:0:0:0:
192,192,281583,1,0,0:0:0:0:
320,192,281608,1,0,0:0:0:0:
448,192,281633,1,0,0:0:0:0:
64,192,281658,1,0,0:0:0:0:
192,192,281683,1,0,0:0:0:0:
320,192,281708,1,0,0:0:0:0:
448,192,281733,1,0,0:0:0:0:
64,192,281758,1,0,0:0:0:0:
192,192,281783,1,0,0:0:0:0:
320,192,281808,1,0,0:0:0:0:
448,192,281833,1,0,0:0:0:0:
64,192,281858,1,0,0:0:0:0:
192,192,281883,1,0,0:0:0:0:
320,192,281908,1,0,0:0:0:0:
448,192,281933,1,0,0:0:0:0:
64,192,281958,1,0,0:0:0:0:
192,192,281983,1,0,0:0:0:0:
320,192,282008,1,0,0:0:0:0:
448,192,282033,1,0,0:0:0:0:
64,192,282058,1,0,0:0:0:0:
192,192,282083,1,0,0:0:0:0:
320,192,282108,1,0,0:0:0:0:
448,192,282133,1,0,0:0:0:0:
64,192,282158,1,0,0:0:0:0:
192,192,282158,1,0,0:0:0:0:
64,192,283758,1,0,0:0:0:0:
192,192,283783,1,0,0:0:0:0:
320,192,283808,1,0,0:0:0:0:
448,192,283833,1,0,0:0:0:0:
64,192,283858,1,0,0:0:0:0:
192,192,283883,1,0,0:0:0:0:
320,192,283908,1,0,0:0:0:0:
448,192,283933,1,0,0:0:0:0:
64,192,283958,1,0,0:0:0:0:
192,192,284008,1,0,0:0:0:0:
320,192,284058,1,0,0:0:0:0:
448,192,284108,1,0,0:0:0:0:
64,192,284158,1,0,0:0:0:0:
192,192,284258,1,0,0:0:0:0:
320,192,284358,1,0,0:0:0:0:
448,192,284458,1,0,0:0:0:0:
192,192,288558,1,0,0:0:0:0:
320,192,288558,1,0,0:0:0:0:
64,192,288758,1,0,0:0:0:0:
64,192,288958,1,0,0:0:0:0:
192,192,288958,1,0,0:0:0:0:
320,192,288958,1,0,0:0:0:0:
192,192,289158,1,0,0:0:0:0:
448,192,289158,1,0,0:0:0:0:
192,192,289358,1,0,0:0:0:0:
320,192,289358,1,0,0:0:0:0:
448,192,289358,1,0,0:0:0:0:
192,192,289758,1,0,0:0:0:0:
320,192,289758,1,0,0:0:0:0:
448,192,289758,1,0,0:0:0:0:
64,192,289858,1,0,0:0:0:0:
64,192,290158,1,0,0:0:0:0:
320,192,290158,1,0,0:0:0:0:
448,192,290158,1,0,0:0:0:0:
192,192,290358,1,0,0:0:0:0:
64,192,290558,1,0,0:0:0:0:
320,192,290558,1,0,0:0:0:0:
448,192,290558,1,0,0:0:0:0:
192,192,290958,1,0,0:0:0:0:
320,192,290958,1,0,0:0:0:0:
448,192,290958,1,0,0:0:0:0:
64,192,291058,1,0,0:0:0:0:
192,192,291158,1,0,0:0:0:0:
192,192,291358,1,0,0:0:0:0:
320,192,291358,1,0,0:0:0:0:
448,192,291358,1,0,0:0:0:0:
192,192,291558,1,0,0:0:0:0:
448,192,291558,1,0,0:0:0:0:
64,192,291758,1,0,0:0:0:0:
320,192,291758,1,0,0:0:0:0:
448,192,291758,1,0,0:0:0:0:
192,192,292158,1,0,0:0:0:0:
320,192,292158,1,0,0:0:0:0:
448,192,292158,1,0,0:0:0:0:
64,192,292258,1,0,0:0:0:0:
64,192,292558,1,0,0:0:0:0:
320,192,292558,1,0,0:0:0:0:
448,192,292558,1,0,0:0:0:0:
192,192,292758,1,0,0:0:0:0:
192,192,292958,1,0,0:0:0:0:
320,192,292958,1,0,0:0:0:0:
448,192,292958,1,0,0:0:0:0:
192,192,293358,1,0,0:0:0:0:
320,192,293358,1,0,0:0:0:0:
448,192,293358,1,0,0:0:0:0:
64,192,293458,1,0,0:0:0:0:
192,192,293558,1,0,0:0:0:0:
64,192,293758,1,0,0:0:0:0:
192,192,293758,1,0,0:0:0:0:
320,192,293758,1,0,0:0:0:0:
192,192,293958,1,0,0:0:0:0:
448,192,293958,1,0,0:0:0:0:
64,192,294158,1,0,0:0:0:0:
320,192,294158,1,0,0:0:0:0:
448,192,294158,1,0,0:0:0:0:
192,192,294558,1,0,0:0:0:0:
320,192,294558,1,0,0:0:0:0:
448,192,294558,1,0,0:0:0:0:
64,192,294658,1,0,0:0:0:0:
192,192,294958,1,0,0:0:0:0:
320,192,294958,1,0,0:0:0:0:
448,192,294958,1,0,0:0:0:0:
64,192,295158,1,0,0:0:0:0:
64,192,295358,1,0,0:0:0:0:
192,192,295358,1,0,0:0:0:0:
320,192,295358,1,0,0:0:0:0:
64,192,295758,1,0,0:0:0:0:
192,192,295758,1,0,0:0:0:0:
320,192,295758,1,0,0:0:0:0:
448,192,295858,1,0,0:0:0:0:
320,192,295958,1,0,0:0:0:0:
64,192,296158,1,0,0:0:0:0:
192,192,296158,1,0,0:0:0:0:
448,192,296158,1,0,0:0:0:0:
192,192,296558,1,0,0:0:0:0:
448,192,296558,1,0,0:0:0:0:
320,192,296758,1,0,0:0:0:0:
192,192,296958,1,0,0:0:0:0:
448,192,296958,1,0,0:0:0:0:
64,192,297058,1,0,0:0:0:0:
192,192,297358,1,0,0:0:0:0:
320,192,297358,1,0,0:0:0:0:
448,192,297358,1,0,0:0:0:0:
64,192,297758,1,0,0:0:0:0:
192,192,297758,1,0,0:0:0:0:
320,192,297758,1,0,0:0:0:0:
192,192,298158,1,0,0:0:0:0:
320,192,298158,1,0,0:0:0:0:
448,192,298158,1,0,0:0:0:0:
64,192,298258,1,0,0:0:0:0:
192,192,298358,1,0,0:0:0:0:
64,192,298558,1,0,0:0:0:0:
192,192,298558,1,0,0:0:0:0:
320,192,298558,1,0,0:0:0:0:
192,192,298758,1,0,0:0:0:0:
448,192,298758,1,0,0:0:0:0:
192,192,298958,1,0,0:0:0:0:
320,192,298958,1,0,0:0:0:0:
448,192,298958,1,0,0:0:0:0:
192,192,299358,1,0,0:0:0:0:
320,192,299358,1,0,0:0:0:0:
448,192,299358,1,0,0:0:0:0:
64,192,299458,1,0,0:0:0:0:
64,192,299758,1,0,0:0:0:0:
320,192,299758,1,0,0:0:0:0:
448,192,299758,1,0,0:0:0:0:
192,192,299958,1,0,0:0:0:0:
64,192,300158,1,0,0:0:0:0:
192,192,300158,1,0,0:0:0:0:
448,192,300158,1,0,0:0:0:0:
192,192,300558,1,0,0:0:0:0:
320,192,300558,1,0,0:0:0:0:
448,192,300558,1,0,0:0:0:0:
64,192,300658,1,0,0:0:0:0:
192,192,300758,1,0,0:0:0:0:
64,192,300958,1,0,0:0:0:0:
192,192,300958,1,0,0:0:0:0:
320,192,300958,1,0,0:0:0:0:
192,192,301158,1,0,0:0:0:0:
448,192,301158,1,0,0:0:0:0:
192,192,301358,1,0,0:0:0:0:
320,192,301358,1,0,0:0:0:0:
448,192,301358,1,0,0:0:0:0:
192,192,301758,1,0,0:0:0:0:
320,192,301758,1,0,0:0:0:0:
448,192,301758,1,0,0:0:0:0:
64,192,301858,1,0,0:0:0:0:
64,192,302158,1,0,0:0:0:0:
320,192,302158,1,0,0:0:0:0:
448,192,302158,1,0,0:0:0:0:
192,192,302358,1,0,0:0:0:0:
64,192,302558,1,0,0:0:0:0:
192,192,302558,1,0,0:0:0:0:
320,192,302558,1,0,0:0:0:0:
64,192,302958,1,0,0:0:0:0:
192,192,302958,1,0,0:0:0:0:
320,192,302958,1,0,0:0:0:0:
448,192,303058,1,0,0:0:0:0:
64,192,303158,1,0,0:0:0:0:
192,192,303358,1,0,0:0:0:0:
320,192,303358,1,0,0:0:0:0:
448,192,303358,1,0,0:0:0:0:
192,192,303558,1,0,0:0:0:0:
448,192,303558,1,0,0:0:0:0:
192,192,303758,1,0,0:0:0:0:
320,192,303758,1,0,0:0:0:0:
448,192,303758,1,0,0:0:0:0:
64,192,304158,1,0,0:0:0:0:
192,192,304158,1,0,0:0:0:0:
448,192,304158,1,0,0:0:0:0:
320,192,304258,1,0,0:0:0:0:
64,192,304558,1,0,0:0:0:0:
192,192,304558,1,0,0:0:0:0:
320,192,304558,1,0,0:0:0:0:
448,192,304758,1,0,0:0:0:0:
64,192,304958,1,0,0:0:0:0:
192,192,304958,1,0,0:0:0:0:
320,192,304958,1,0,0:0:0:0:
192,192,305358,1,0,0:0:0:0:
320,192,305358,1,0,0:0:0:0:
448,192,305358,1,0,0:0:0:0:
64,192,305458,1,0,0:0:0:0:
448,192,305558,1,0,0:0:0:0:
64,192,305758,1,0,0:0:0:0:
192,192,305758,1,0,0:0:0:0:
320,192,305758,1,0,0:0:0:0:
192,192,306158,1,0,0:0:0:0:
320,192,306158,1,0,0:0:0:0:
320,192,306358,1,0,0:0:0:0:
64,192,306558,1,0,0:0:0:0:
448,192,306558,1,0,0:0:0:0:
192,192,306658,1,0,0:0:0:0:
64,192,306958,1,0,0:0:0:0:
192,192,306958,1,0,0:0:0:0:
448,192,306958,1,0,0:0:0:0:
64,192,307158,1,0,0:0:0:0:
320,192,307158,1,0,0:0:0:0:
64,192,307358,1,0,0:0:0:0:
192,192,307358,1,0,0:0:0:0:
320,192,307358,1,0,0:0:0:0:
192,192,307558,1,0,0:0:0:0:
448,192,307558,1,0,0:0:0:0:
192,192,307758,1,0,0:0:0:0:
320,192,307758,1,0,0:0:0:0:
448,192,307758,1,0,0:0:0:0:
64,192,307858,1,0,0:0:0:0:
64,192,308158,1,0,0:0:0:0:
192,192,308158,1,0,0:0:0:0:
320,192,308158,1,0,0:0:0:0:
64,192,308558,1,0,0:0:0:0:
192,192,308558,1,0,0:0:0:0:
448,192,308758,1,0,0:0:0:0:
64,192,308958,1,0,0:0:0:0:
192,192,308958,1,0,0:0:0:0:
320,192,308958,1,0,0:0:0:0:
448,192,309058,1,0,0:0:0:0:
320,192,309158,1,0,0:0:0:0:
192,192,309358,1,0,0:0:0:0:
320,192,309358,1,0,0:0:0:0:
448,192,309358,1,0,0:0:0:0:
64,192,309558,1,0,0:0:0:0:
64,192,309758,1,0,0:0:0:0:
192,192,309758,1,0,0:0:0:0:
320,192,309758,1,0,0:0:0:0:
64,192,310158,1,0,0:0:0:0:
192,192,310158,1,0,0:0:0:0:
320,192,310158,1,0,0:0:0:0:
448,192,310258,1,0,0:0:0:0:
320,192,310358,1,0,0:0:0:0:
64,192,310558,1,0,0:0:0:0:
192,192,310558,1,0,0:0:0:0:
320,192,310558,1,0,0:0:0:0:
448,192,310758,1,0,0:0:0:0:
320,192,310958,1,0,0:0:0:0:
448,192,310958,1,0,0:0:0:0:
448,192,311158,1,0,0:0:0:0:
64,192,311358,1,0,0:0:0:0:
192,192,311358,1,0,0:0:0:0:
448,192,311358,1,0,0:0:0:0:
320,192,311458,1,0,0:0:0:0:
64,192,311758,1,0,0:0:0:0:
192,192,311758,1,0,0:0:0:0:
448,192,311758,1,0,0:0:0:0:
64,192,311958,1,0,0:0:0:0:
320,192,311958,1,0,0:0:0:0:
64,192,312158,1,0,0:0:0:0:
192,192,312158,1,0,0:0:0:0:
320,192,312158,1,0,0:0:0:0:
192,192,312358,1,0,0:0:0:0:
448,192,312358,1,0,0:0:0:0:
192,192,312558,1,0,0:0:0:0:
320,192,312558,1,0,0:0:0:0:
448,192,312558,1,0,0:0:0:0:
64,192,312658,1,0,0:0:0:0:
64,192,312958,1,0,0:0:0:0:
192,192,312958,1,0,0:0:0:0:
320,192,312958,1,0,0:0:0:0:
64,192,313358,1,0,0:0:0:0:
192,192,313358,1,0,0:0:0:0:
320,192,313358,1,0,0:0:0:0:
448,192,313558,1,0,0:0:0:0:
192,192,313758,1,0,0:0:0:0:
320,192,313758,1,0,0:0:0:0:
448,192,313758,1,0,0:0:0:0:
64,192,313858,1,0,0:0:0:0:
192,192,313958,1,0,0:0:0:0:
64,192,314158,1,0,0:0:0:0:
320,192,314158,1,0,0:0:0:0:
448,192,314158,1,0,0:0:0:0:
64,192,314558,1,0,0:0:0:0:
192,192,314558,1,0,0:0:0:0:
448,192,314558,1,0,0:0:0:0:
192,192,314958,1,0,0:0:0:0:
320,192,314958,1,0,0:0:0:0:
448,192,314958,1,0,0:0:0:0:
64,192,315058,1,0,0:0:0:0:
64,192,315358,1,0,0:0:0:0:
320,192,315358,1,0,0:0:0:0:
448,192,315358,1,0,0:0:0:0:
64,192,315758,1,0,0:0:0:0:
192,192,315758,1,0,0:0:0:0:
320,192,315758,1,0,0:0:0:0:
64,192,316158,1,0,0:0:0:0:
448,192,316158,1,0,0:0:0:0:
320,192,316258,1,0,0:0:0:0:
192,192,316358,1,0,0:0:0:0:
64,192,316558,1,0,0:0:0:0:
192,192,316558,1,0,0:0:0:0:
448,192,316558,1,0,0:0:0:0:
64,192,316758,1,0,0:0:0:0:
320,192,316758,1,0,0:0:0:0:
64,192,316958,1,0,0:0:0:0:
192,192,316958,1,0,0:0:0:0:
320,192,316958,1,0,0:0:0:0:
192,192,317158,1,0,0:0:0:0:
448,192,317158,1,0,0:0:0:0:
64,192,317358,1,0,0:0:0:0:
320,192,317358,1,0,0:0:0:0:
448,192,317358,1,0,0:0:0:0:
192,192,317458,1,0,0:0:0:0:
64,192,317758,1,0,0:0:0:0:
192,192,317758,1,0,0:0:0:0:
448,192,317758,1,0,0:0:0:0:
320,192,318158,1,0,0:0:0:0:
448,192,318358,1,0,0:0:0:0:
64,192,318558,1,0,0:0:0:0:
192,192,318558,1,0,0:0:0:0:
320,192,318558,1,0,0:0:0:0:
448,192,318658,1,0,0:0:0:0:
64,192,318958,1,0,0:0:0:0:
320,192,318958,1,0,0:0:0:0:
448,192,318958,1,0,0:0:0:0:
64,192,319358,1,0,0:0:0:0:
192,192,319358,1,0,0:0:0:0:
320,192,319358,1,0,0:0:0:0:
64,192,319758,1,0,0:0:0:0:
192,192,319758,1,0,0:0:0:0:
320,192,319758,1,0,0:0:0:0:
448,192,319858,1,0,0:0:0:0:
320,192,319958,1,0,0:0:0:0:
64,192,320158,1,0,0:0:0:0:
192,192,320158,1,0,0:0:0:0:
320,192,320158,1,0,0:0:0:0:
448,192,320358,1,0,0:0:0:0:
192,192,320558,1,0,0:0:0:0:
320,192,320558,1,0,0:0:0:0:
448,192,320558,1,0,0:0:0:0:
64,192,320958,1,0,0:0:0:0:
192,192,320958,1,0,0:0:0:0:
448,192,320958,1,0,0:0:0:0:
320,192,321058,1,0,0:0:0:0:
192,192,321158,1,0,0:0:0:0:
64,192,321358,1,0,0:0:0:0:
192,192,321358,1,0,0:0:0:0:
448,192,321358,1,0,0:0:0:0:
320,192,321558,1,0,0:0:0:0:
64,192,321758,1,0,0:0:0:0:
192,192,321758,1,0,0:0:0:0:
320,192,321758,1,0,0:0:0:0:
64,192,322158,1,0,0:0:0:0:
320,192,322158,1,0,0:0:0:0:
448,192,322158,1,0,0:0:0:0:
192,192,322258,1,0,0:0:0:0:
320,192,322358,1,0,0:0:0:0:
64,192,322558,1,0,0:0:0:0:
320,192,322558,1,0,0:0:0:0:
448,192,322558,1,0,0:0:0:0:
192,192,322758,1,0,0:0:0:0:
64,192,322958,1,0,0:0:0:0:
192,192,322958,1,0,0:0:0:0:
320,192,322958,1,0,0:0:0:0:
192,192,323358,1,0,0:0:0:0:
320,192,323358,1,0,0:0:0:0:
448,192,323358,1,0,0:0:0:0:
64,192,323458,1,0,0:0:0:0:
192,192,323558,1,0,0:0:0:0:
192,192,323758,1,0,0:0:0:0:
320,192,323758,1,0,0:0:0:0:
448,192,323758,1,0,0:0:0:0:
64,192,323958,1,0,0:0:0:0:
64,192,324158,1,0,0:0:0:0:
192,192,324158,1,0,0:0:0:0:
320,192,324158,1,0,0:0:0:0:
64,192,324558,1,0,0:0:0:0:
192,192,324558,1,0,0:0:0:0:
448,192,324558,1,0,0:0:0:0:
320,192,324658,1,0,0:0:0:0:
192,192,324758,1,0,0:0:0:0:
64,192,324958,1,0,0:0:0:0:
192,192,324958,1,0,0:0:0:0:
448,192,324958,1,0,0:0:0:0:
64,192,325358,1,0,0:0:0:0:
192,192,325358,1,0,0:0:0:0:
320,192,325358,1,0,0:0:0:0:
320,192,325558,1,0,0:0:0:0:
64,192,325758,1,0,0:0:0:0:
192,192,325758,1,0,0:0:0:0:
448,192,325758,1,0,0:0:0:0:
320,192,325858,1,0,0:0:0:0:
192,192,326158,1,0,0:0:0:0:
320,192,326158,1,0,0:0:0:0:
448,192,326158,1,0,0:0:0:0:
64,192,326558,1,0,0:0:0:0:
192,192,326558,1,0,0:0:0:0:
448,192,326558,1,0,0:0:0:0:
64,192,326958,1,0,0:0:0:0:
448,192,327358,1,0,0:0:0:0:
320,192,327558,1,0,0:0:0:0:
192,192,327758,1,0,0:0:0:0:
320,192,327958,1,0,0:0:0:0:
448,192,328158,1,0,0:0:0:0:
192,192,328558,1,0,0:0:0:0:
64,192,328958,1,0,0:0:0:0:
64,0,329358,128,0,333358:1:0:0:0:
448,0,329358,128,0,333358:1:0:0:0:
192,192,333358,1,0,0:0:0:0:
320,192,333358,1,0,0:0:0:0:
