osu file format v5

[General]
AudioFilename: 11 StrangeProgram.mp3
AudioLeadIn: 0
PreviewTime: 71485
Countdown: 0
SampleSet: Normal
StackLeniency: 0.3
Mode: 1
LetterboxInBreaks: 0

[Editor]
Bookmarks: 36046,98560,195676,200141
DistanceSpacing: 1
BeatDivisor: 1
GridSize: 8

[Metadata]
Title:StrangeProgram
Artist:DJ Sharpnel
Creator:happy30
Version:Roko-Don's Taiko
Source:
Tags:

[Difficulty]
HPDrainRate:10
CircleSize:5
OverallDifficulty:7
SliderMultiplier:1.4
SliderTickRate:0.5

[Events]
//Background and Video events
0,0,"StrangeProgram_taiko.png"
//Break Periods
//Storyboard Layer 0 (Background)
//Storyboard Layer 1 (Fail)
//Storyboard Layer 2 (Pass)
//Storyboard Layer 3 (Foreground)
//Storyboard Sound Samples
//Background Colour Transformations
3,100,0,0,0

[TimingPoints]
13723,279.06976744186,4,1,0,79,1,0
71769,-100,4,1,0,100,0,1
89629,-100,4,1,0,100,0,0
98560,-200,4,1,0,100,0,0
115862,558.139534883721,4,1,0,80,1,0
116420,-50,4,1,0,100,0,0

[HitObjects]
32,32,13722,1,0
32,80,13792,1,8
32,128,13862,1,8
32,192,14002,1,0
32,256,14141,1,8
96,240,14420,5,0
96,160,14560,1,0
32,32,14839,5,0
32,80,14909,1,8
32,128,14979,1,8
32,192,15119,1,0
32,256,15258,1,8
96,240,15537,5,0
96,160,15677,1,0
32,32,15955,5,0
32,80,16025,1,8
32,128,16095,1,8
32,192,16235,1,0
32,256,16374,1,8
96,240,16653,5,0
96,160,16793,1,0
176,144,17071,5,0
240,144,17141,1,8
304,144,17211,1,8
368,144,17281,1,8
368,208,17350,1,0
368,272,17420,1,8
304,256,17490,1,0
224,240,17560,1,8
224,304,17629,1,0
304,336,17769,5,0
384,352,17909,1,0
448,336,18048,1,0
448,256,18188,1,0
448,184,18257,1,0
448,112,18327,1,8
392,72,18467,1,0
328,72,18606,1,8
256,72,18885,5,0
208,104,19025,1,0
192,184,19164,1,0
192,248,19304,1,0
176,312,19374,1,0
112,280,19443,1,8
96,216,19583,1,0
120,152,19722,1,8
120,88,20002,5,8
168,64,20141,1,0
224,48,20281,1,0
272,96,20420,1,0
288,160,20513,1,0
288,224,20606,1,0
288,296,20699,1,8
272,96,20978,5,0
288,160,21071,1,0
288,224,21164,1,0
288,296,21257,1,8
272,96,21536,5,0
288,160,21629,1,0
288,224,21722,1,0
288,296,21815,1,8
176,104,21955,1,0
176,176,22095,1,8
360,200,22234,1,8
368,136,22374,1,0
408,80,22513,1,0
40,40,22653,5,0
40,112,22722,1,0
40,184,22792,1,0
40,256,22862,1,0
40,336,22932,1,0
232,152,23071,1,0
288,104,23211,1,0
40,336,23351,1,0
40,40,23490,5,0
40,112,23559,1,0
40,184,23629,1,0
40,256,23699,1,0
40,336,23769,1,0
40,40,23909,1,0
40,184,24048,1,0
40,336,24188,1,0
40,40,24327,5,0
40,112,24396,1,0
40,184,24466,1,0
40,256,24536,1,0
40,336,24606,1,0
40,40,24746,1,0
40,184,24885,1,0
40,336,25025,1,0
40,40,25164,5,0
40,112,25233,1,0
40,184,25303,1,0
40,256,25373,1,0
40,336,25443,1,0
40,40,25583,1,8
40,184,25722,1,8
40,336,25862,1,8
120,40,26002,1,8
120,104,26141,1,0
120,168,26281,1,0
112,232,26420,1,8
184,224,26560,1,0
192,144,26699,5,8
272,152,26839,1,0
280,232,26978,1,8
272,296,27118,1,0
344,296,27257,5,0
368,232,27397,1,8
392,160,27536,1,0
384,88,27676,1,8
312,88,27955,5,0
224,112,28234,1,0
208,160,28374,1,0
192,216,28513,1,8
184,288,28653,1,0
128,312,28792,1,8
112,256,29071,5,0
224,112,29350,1,0
208,160,29490,1,0
192,216,29629,1,8
184,288,29769,1,0
128,312,29908,1,8
112,256,30188,5,0
256,192,30467,12,0,35769
64,56,36048,5,0
64,136,36118,1,0
64,232,36188,1,0
64,56,36327,1,0
64,232,36467,1,0
64,56,36606,5,0
64,136,36676,1,0
64,232,36746,1,0
64,56,36885,1,0
64,232,37025,1,0
64,56,37164,5,0
64,136,37234,1,0
64,232,37304,1,0
64,56,37443,1,0
64,232,37583,1,0
64,56,37722,5,0
64,136,37792,1,0
64,232,37862,1,0
64,56,38002,1,0
64,232,38142,1,0
136,56,38281,5,8
136,120,38350,1,8
136,184,38420,1,8
136,56,38560,1,8
136,184,38699,1,8
136,56,38839,5,0
136,120,38908,1,0
136,184,38978,1,0
136,56,39118,1,0
136,184,39257,1,0
208,64,39397,5,0
216,128,39467,1,0
224,192,39536,1,8
296,208,39676,1,0
296,280,39816,5,8
248,328,39885,1,8
192,320,39955,1,0
136,280,40095,1,0
88,232,40234,1,8
360,272,40374,5,8
368,200,40443,1,8
368,136,40513,1,8
312,104,40653,1,0
360,72,40792,1,8
360,272,40933,5,8
368,200,41002,1,8
368,136,41072,1,8
312,104,41212,1,0
360,72,41350,1,8
360,272,41490,5,8
368,200,41559,1,8
368,136,41629,1,8
312,104,41769,1,0
360,72,41909,1,8
360,272,42048,5,8
368,200,42117,1,8
368,136,42187,1,8
312,104,42327,1,0
360,72,42466,1,8
256,160,42606,5,0
240,224,42676,1,0
232,288,42746,1,0
160,272,42885,1,8
128,216,43025,1,0
96,160,43164,1,8
72,80,43304,5,0
128,80,43443,1,8
184,96,43583,1,0
240,96,43722,1,0
16,192,43862,2,0,B|304:320,1,280
192,184,44978,5,0
256,208,45118,1,8
312,224,45188,1,8
336,160,45257,1,0
344,88,45397,1,8
192,184,45536,5,0
256,208,45676,1,8
312,224,45746,1,8
336,160,45815,1,0
344,88,45955,1,8
192,184,46095,5,0
256,208,46235,1,8
312,224,46305,1,8
336,160,46374,1,0
344,88,46514,1,8
192,184,46653,5,0
256,208,46793,1,8
312,224,46863,1,8
336,160,46932,1,0
344,88,47072,1,8
192,184,47211,5,0
256,208,47351,1,8
312,224,47421,1,8
336,160,47490,1,0
344,88,47630,1,8
192,184,47769,5,0
256,208,47909,1,8
312,224,47979,1,8
336,160,48048,1,0
344,88,48188,1,8
416,96,48327,5,8
408,152,48467,1,0
408,216,48606,1,0
408,272,48746,1,0
368,320,48885,5,8
304,304,49025,1,0
240,264,49164,1,0
176,224,49304,1,0
8,56,49443,2,8,B|280:160,1,280
64,152,50420,5,8
72,232,50560,1,8
136,160,50839,1,8
144,224,50978,1,8
208,216,51257,5,8
216,160,51397,1,8
280,264,51676,1,0
352,272,51816,1,0
360,208,52095,5,8
352,136,52234,1,8
328,80,52513,1,8
256,80,52653,1,0
256,192,52792,12,0,53629
24,80,53909,6,0,B|288:224,1,280
344,96,54746,5,4
16,152,55025,2,0,B|256:304,1,280
352,160,55862,5,4
360,56,56141,2,0,B|144:288,1,280
424,104,56978,5,4
288,48,57257,2,0,B|112:288,1,280
256,192,58374,12,0,62560
24,32,62839,5,0
24,104,62932,1,0
24,176,63025,1,0
24,248,63118,1,0
88,248,63211,1,0
96,176,63397,1,8
104,96,63676,1,8
24,32,63955,5,0
24,104,64048,1,0
24,176,64141,1,0
24,248,64234,1,0
88,248,64327,1,0
96,176,64513,1,8
104,96,64792,1,8
24,32,65071,5,0
24,104,65164,1,0
24,176,65257,1,0
24,248,65350,1,0
88,248,65443,1,0
96,176,65629,1,8
104,96,65908,1,8
24,32,66188,5,0
24,104,66281,1,0
24,176,66374,1,0
24,248,66467,1,0
88,248,66560,1,0
96,176,66746,1,8
216,48,67304,5,0
216,112,67374,1,0
208,168,67443,1,0
200,224,67513,1,0
208,288,67583,1,8
264,296,67722,1,0
216,48,67862,5,0
216,112,67932,1,0
208,168,68001,1,0
200,224,68071,1,0
208,288,68141,1,8
264,296,68280,1,0
216,48,68420,5,0
216,112,68490,1,0
208,168,68559,1,0
200,224,68629,1,0
208,288,68699,1,8
264,296,68838,1,0
216,48,68978,5,0
216,112,69048,1,0
208,168,69117,1,0
200,224,69187,1,0
208,288,69257,1,8
264,296,69396,1,0
328,264,69536,5,8
344,192,69629,1,8
360,120,69722,1,8
360,48,69816,1,8
424,88,69909,1,8
432,216,70095,1,8
16,96,71769,5,0
24,168,71839,1,0
24,232,71909,1,8
80,256,71978,1,0
144,256,72048,1,0
208,256,72188,1,0
232,184,72327,5,0
288,168,72397,1,8
288,120,72467,1,0
312,232,72606,1,0
312,296,72746,1,0
392,296,72885,1,8
400,232,73025,5,8
400,168,73095,1,8
392,96,73164,1,0
336,64,73304,1,8
248,48,73443,1,0
184,72,73583,1,8
184,136,73722,1,0
184,192,73862,1,0
112,232,74002,5,0
112,304,74071,1,8
192,312,74141,1,8
248,320,74211,1,8
248,248,74281,1,0
296,216,74420,5,8
288,152,74490,1,8
256,104,74560,1,0
368,112,74699,5,8
368,168,74839,1,0
368,240,74978,1,8
352,304,75118,1,0
408,312,75257,5,0
184,176,75397,1,8
160,120,75536,1,8
136,184,75676,1,0
128,264,75816,5,8
176,264,75955,1,0
224,280,76095,1,0
320,80,76234,5,8
312,144,76304,1,8
304,200,76374,1,8
304,256,76443,1,8
312,312,76513,1,0
392,232,76653,5,8
400,160,76722,1,0
408,104,76792,1,0
464,168,76932,1,8
464,240,77071,1,0
448,304,77211,5,8
72,120,77350,1,8
80,32,77490,1,0
136,40,77560,1,0
192,48,77629,1,0
264,32,77769,1,8
72,296,77909,1,8
160,136,78048,5,8
168,192,78188,1,8
168,264,78327,1,8
240,152,78467,1,0
240,224,78606,1,8
240,280,78746,5,8
320,280,78885,1,0
312,208,79025,1,8
320,128,79164,1,8
368,152,79304,1,0
392,216,79443,5,8
392,288,79583,1,0
464,288,79722,1,0
464,208,79862,1,0
64,88,80280,5,8
64,168,80420,1,8
56,240,80559,1,8
144,72,80699,1,8
144,272,80839,5,8
168,208,80908,1,0
176,144,80978,1,0
248,168,81118,5,8
240,232,81257,1,8
248,312,81397,5,8
216,72,81467,1,0
272,80,81536,1,0
336,120,81676,5,0
352,176,81816,1,0
360,232,81955,1,8
376,312,82095,5,0
432,272,82234,1,8
440,160,82374,1,0
424,72,82513,5,8
216,200,82653,1,0
184,256,82792,5,0
72,128,82932,1,8
80,184,83002,1,8
80,248,83071,1,8
144,216,83211,5,0
152,160,83350,1,0
200,112,83490,1,8
272,104,83560,1,8
288,168,83629,1,0
288,232,83769,5,8
360,256,83909,1,8
376,176,83978,1,8
384,112,84048,1,0
456,152,84188,5,8
456,224,84327,1,0
456,280,84467,1,8
432,328,84606,1,0
320,352,84746,5,8
256,336,84885,1,0
200,296,85025,1,0
40,88,85164,1,0
64,176,85304,5,0
88,256,85374,1,0
144,224,85443,1,8
216,216,85583,1,0
40,88,85722,1,0
64,176,85862,5,0
88,256,85932,1,0
144,224,86001,1,8
216,216,86141,1,0
40,88,86281,1,0
64,176,86421,5,0
88,256,86491,1,0
144,224,86560,1,8
216,216,86700,1,0
40,88,86839,1,0
64,176,86979,5,0
88,256,87049,1,8
144,224,87118,1,8
216,216,87258,1,0
136,88,87397,1,0
280,104,87536,5,8
312,232,87676,1,8
384,184,87816,5,8
392,64,87955,1,8
464,144,88095,5,8
472,280,88234,1,8
104,152,88374,5,0
56,208,88513,1,0
96,272,88653,5,8
160,280,88792,1,0
56,56,88932,2,0,B|280:88,1,210
288,208,89629,5,0
128,120,89909,1,0
344,280,90188,1,0
120,232,90467,1,8
120,288,90607,1,8
160,136,90885,5,8
224,144,91025,1,8
296,128,91164,1,8
376,136,91304,1,0
432,200,91513,1,0
448,272,91722,1,0
64,88,91862,1,8
72,176,92141,5,0
88,248,92420,1,0
168,216,92699,1,8
192,288,92839,1,8
296,288,93118,5,0
256,208,93257,1,0
296,144,93397,1,8
400,184,93536,1,0
440,128,93746,1,8
352,88,93955,5,8
40,64,94095,1,0
48,136,94234,1,0
48,216,94374,1,8
104,272,94513,1,0
168,296,94653,1,8
40,64,95211,5,0
48,136,95350,1,0
48,216,95490,1,8
104,272,95629,1,0
168,296,95769,1,8
176,72,96327,5,0
232,112,96467,1,8
280,184,96606,1,0
352,216,96746,1,8
424,216,96885,1,0
440,136,97025,1,0
392,144,97164,1,8
344,128,97304,1,8
200,200,97443,1,0
40,40,98560,5,0
48,112,98839,1,0
48,192,99118,1,0
56,256,99397,1,0
64,336,99536,1,0
136,344,99676,1,0
224,328,99955,5,0
216,256,100095,1,0
280,264,100374,1,0
304,328,100513,1,0
392,336,100653,1,0
392,248,100792,1,0
312,176,101071,1,0
248,168,101350,1,0
128,320,101629,5,0
208,344,101769,1,0
208,272,101909,1,0
168,224,102048,1,8
144,144,102327,1,8
144,96,102606,1,8
224,120,102746,1,0
288,152,102885,1,0
312,232,103025,1,0
48,192,103304,5,8
48,264,103583,1,8
104,296,103862,1,0
160,304,104002,1,0
160,232,104141,1,8
152,160,104281,1,8
224,152,104560,1,8
232,224,104839,1,8
240,288,104978,1,0
312,304,105257,5,0
328,224,105397,1,0
328,160,105536,1,8
328,88,105676,1,0
400,112,105816,1,0
408,192,105955,1,8
408,264,106095,1,0
400,328,106234,5,0
472,328,106374,1,8
488,248,106513,1,0
480,160,106653,1,0
216,320,106792,5,8
176,264,106932,1,8
176,184,107071,1,8
240,208,107211,1,8
40,40,107490,5,4
296,56,107769,2,0,B|352:136,1,70
152,64,108327,5,8
136,152,108467,1,8
144,224,108606,1,8
240,120,108885,5,0
232,176,109025,1,0
248,256,109164,1,0
344,96,109443,5,0
352,176,109722,1,12
104,192,110002,1,0
136,256,110141,1,8
160,304,110281,1,8
184,160,110560,1,0
200,224,110699,1,8
224,272,110839,1,8
272,168,111118,5,0
288,232,111257,1,8
296,296,111397,1,8
376,328,111676,1,8
56,88,111955,1,4
72,176,112513,5,4
88,256,113071,5,4
176,136,113629,5,4
224,288,114188,5,4
344,304,115025,5,4
344,232,115304,5,4
40,144,116420,5,0
48,208,116489,1,0
64,272,116559,1,0
168,160,116838,1,0
184,224,116978,1,10
240,280,117257,5,0
280,344,117396,1,8
40,144,117536,1,0
48,208,117605,1,0
64,272,117675,1,0
240,280,118373,5,0
280,344,118512,1,8
40,144,118652,1,0
48,208,118721,1,0
64,272,118791,1,0
168,160,119070,5,0
176,232,119210,1,8
240,280,119489,5,0
280,344,119628,1,8
288,152,119768,1,0
296,216,119908,5,8
336,272,119978,1,8
408,264,120048,1,0
296,216,120187,5,8
336,272,120257,1,8
408,264,120327,1,0
512,168,120885,5,0
488,112,120955,1,8
472,56,121024,1,8
168,72,121303,5,8
160,144,121443,1,0
160,224,121722,5,0
160,288,121862,1,8
512,168,122001,1,0
488,112,122071,1,8
472,56,122140,1,8
160,224,122838,5,0
160,288,122978,1,8
512,168,123117,1,0
488,112,123187,1,8
472,56,123256,1,8
168,72,123535,5,8
160,144,123675,1,0
160,224,123954,5,0
256,184,124094,1,8
40,112,124234,1,8
40,192,124303,1,8
56,272,124373,1,8
400,248,124513,1,8
392,136,124652,5,0
344,184,124722,1,0
320,120,124792,1,8
328,64,124931,1,0
400,72,125071,1,8
112,296,125210,1,8
160,136,125350,1,4
400,320,126048,5,0
448,280,126187,1,8
216,168,126327,1,0
280,192,126396,1,0
336,216,126466,1,0
232,256,126745,1,0
304,296,126884,1,8
400,320,127164,5,0
448,280,127303,1,8
216,168,127443,1,0
280,192,127512,1,0
336,216,127582,1,0
400,320,128281,5,0
448,280,128420,1,8
216,168,128560,1,0
280,192,128629,1,0
336,216,128699,1,0
232,256,128978,1,12
304,296,129117,1,12
400,320,129397,5,8
448,280,129536,1,8
392,152,129675,1,0
136,248,129816,1,8
144,168,129885,1,8
152,120,129955,1,8
64,136,130094,1,0
56,216,130234,1,8
64,280,130373,1,0
240,312,130931,5,0
320,264,131071,1,8
400,272,131210,1,8
376,352,131350,1,0
432,344,131489,5,0
456,280,131629,1,0
440,184,131768,1,0
184,232,131908,1,0
72,80,132048,2,0,B|280:336|384:48,1,420
80,104,136513,5,0
80,184,136582,1,0
80,240,136652,1,0
80,312,136792,1,8
152,304,137071,5,0
144,240,137141,1,0
152,184,137210,1,0
192,112,137350,1,8
240,208,137629,5,0
248,280,137699,1,0
256,336,137768,1,0
312,336,137908,1,8
312,256,138048,5,0
312,200,138117,1,0
320,144,138187,1,0
384,152,138327,1,0
384,224,138466,1,8
80,104,138745,5,0
80,184,138814,1,0
80,240,138884,1,0
80,312,139024,1,8
152,304,139303,5,0
144,240,139373,1,0
152,184,139442,1,0
192,112,139582,1,8
264,176,139862,5,0
272,248,139931,1,0
280,312,140001,1,0
360,320,140141,1,8
376,232,140280,1,8
360,168,140350,1,0
368,96,140420,1,8
296,72,140559,1,0
240,112,140699,1,8
144,240,140978,5,0
96,176,141257,1,8
160,176,141396,1,0
240,256,141675,5,8
320,304,141815,1,0
344,240,141955,1,0
368,152,142094,1,0
208,112,142373,5,8
264,152,142513,1,0
112,136,142792,5,8
136,216,142931,1,0
184,280,143071,1,0
40,32,145443,5,4
40,104,146559,5,4
24,40,148792,5,4
24,120,149350,5,4
256,192,154373,12,4,159675
40,40,159955,5,0
48,120,160094,1,0
56,200,160234,1,8
40,40,160513,5,0
48,120,160652,1,0
56,200,160792,1,8
112,48,161071,5,0
128,112,161210,1,0
144,176,161280,1,0
160,232,161350,1,8
224,248,161489,5,0
312,248,161629,1,8
312,176,161768,1,0
352,80,161908,1,8
40,40,162187,5,0
48,120,162326,1,0
56,200,162466,1,8
40,40,162745,5,0
48,120,162884,1,0
56,200,163024,1,8
136,280,163303,5,0
216,304,163373,1,0
200,232,163443,1,0
200,160,163513,1,0
272,144,163582,5,0
288,192,163652,1,0
320,256,163722,1,0
344,320,163792,1,0
400,272,163862,1,8
384,208,164001,5,0
392,152,164141,1,8
96,128,164420,5,0
144,88,164559,1,8
208,96,164699,1,8
152,208,164978,5,0
216,216,165117,1,8
264,160,165257,1,8
152,296,165536,5,0
224,328,165675,1,0
304,328,165745,1,0
352,312,165815,1,0
360,264,165955,1,0
384,184,166094,5,0
392,96,166234,1,8
336,104,166373,1,0
96,128,166652,5,0
144,88,166791,1,8
208,96,166931,1,8
152,208,167210,5,0
216,216,167349,1,8
264,160,167489,1,8
320,216,167768,5,8
320,264,167838,1,0
312,328,167908,1,8
384,336,168048,1,8
392,264,168187,5,8
400,200,168257,1,8
392,136,168327,1,8
344,112,168466,1,8
288,72,168606,1,0
256,192,168885,12,0,173071
48,80,173350,5,0
56,152,173489,1,0
56,232,173629,1,0
48,80,173908,5,0
56,152,174047,1,0
56,232,174187,1,0
184,272,174466,5,0
264,264,174606,1,8
280,192,174675,1,8
312,136,174745,1,0
368,208,174885,5,8
384,272,175024,1,0
336,312,175164,1,8
280,344,175303,1,0
48,80,175582,5,0
56,152,175721,1,0
56,232,175861,1,0
48,80,176140,5,0
56,152,176279,1,0
56,232,176419,1,0
184,272,176698,5,0
320,256,176838,1,0
320,184,176908,1,0
296,120,176977,1,8
152,144,177256,5,8
168,88,177396,1,0
232,72,177535,1,8
392,224,177815,5,0
384,288,177955,1,0
384,344,178024,1,0
448,344,178094,1,0
440,272,178234,1,8
448,200,178373,1,0
376,128,178652,5,0
328,192,178792,1,0
296,256,178931,1,0
264,320,179071,1,0
192,304,179141,1,0
136,256,179210,1,0
152,176,179350,1,8
232,168,179489,1,0
360,208,179768,5,0
376,248,179908,1,0
96,96,180048,1,0
152,112,180117,1,0
208,120,180187,1,8
312,152,180327,1,0
424,152,180466,1,8
416,216,180606,1,0
376,304,180885,5,0
304,312,181024,1,0
240,288,181164,1,0
176,272,181303,5,0
136,224,181373,1,0
88,184,181443,1,8
176,272,181582,5,0
136,224,181652,1,0
88,184,181722,1,8
176,272,181862,5,0
136,224,181932,1,0
88,184,182002,1,8
240,136,182280,5,0
280,176,182420,1,8
344,232,182559,1,8
416,200,182699,5,8
368,144,182838,1,0
304,104,182978,5,8
208,64,183117,1,8
240,136,183396,5,0
280,176,183536,1,8
344,232,183675,1,8
416,200,183815,5,8
368,144,183954,1,0
304,104,184094,5,8
208,64,184233,1,8
120,160,184513,5,4
152,232,184792,5,4
184,296,185071,5,4
240,320,185350,5,4
304,320,185629,5,4
24,32,186745,5,0
24,112,187024,5,0
32,192,187303,5,0
32,272,187582,5,0
104,296,187862,5,0
120,216,188141,5,0
128,144,188420,5,0
112,64,188699,5,0
200,64,188978,5,8
200,128,189257,5,8
208,192,189536,5,8
248,256,189815,5,8
320,288,190094,5,0
336,208,190373,5,0
328,144,190652,5,0
400,104,190931,5,0
16,56,191210,2,0,B|480:392,1,560
48,40,193443,5,0
56,112,193536,1,0
56,176,193629,1,0
80,240,193722,1,8
48,40,194001,5,0
56,112,194094,1,0
56,176,194187,1,0
80,240,194280,1,8
176,264,194559,5,0
248,256,194838,1,0
344,272,195117,1,8
40,24,195675,1,0
40,96,195745,1,0
48,160,195815,1,0
56,256,195955,1,0
40,24,196234,5,0
40,96,196304,1,0
48,160,196374,1,0
56,256,196514,1,0
40,24,196791,5,0
40,96,196861,1,0
48,160,196931,1,0
56,256,197071,1,0
40,24,197908,5,0
40,96,197978,1,0
48,160,198048,1,0
56,256,198188,1,0
40,24,198467,5,0
40,96,198537,1,0
48,160,198607,1,0
56,256,198747,1,0
40,24,199024,5,0
40,96,199094,1,0
48,160,199164,1,0
56,256,199304,1,0
144,296,200141,5,0
144,248,200210,1,0
152,184,200280,1,8
216,200,200420,1,0
248,264,200559,1,8
144,296,200699,5,0
144,248,200768,1,0
152,184,200838,1,8
216,200,200978,1,0
248,264,201117,1,8
312,136,201257,5,0
344,224,201327,1,0
368,312,201396,1,0
432,312,201466,1,0
448,240,201536,1,8
144,296,202373,5,0
144,248,202442,1,0
152,184,202512,1,8
216,200,202652,1,0
248,264,202791,1,8
144,296,202932,5,0
144,248,203001,1,0
152,184,203071,1,8
216,200,203211,1,0
312,272,203350,1,8
144,296,203489,5,0
144,248,203558,1,0
152,184,203628,1,8
216,200,203768,1,0
248,264,203907,1,8
160,120,204048,1,0
224,136,204187,5,0
288,160,204327,1,0
304,96,204466,1,0
32,48,204606,5,0
32,120,204675,1,0
40,168,204745,5,0
64,240,204815,1,0
104,296,204885,1,0
144,328,204955,5,0
216,344,205024,1,0
256,344,205094,1,0
32,48,205164,1,0
32,120,205233,5,0
40,168,205303,1,0
64,240,205373,5,0
104,296,205443,1,0
144,328,205513,1,0
216,344,205582,1,0
256,344,205652,1,0
296,288,206001,5,0
320,224,206280,5,0
320,152,206559,5,0
160,144,206838,5,0
232,152,206978,1,8
264,96,207117,1,8
312,88,207257,5,8
376,96,207396,1,8
416,136,207536,1,8
432,200,207675,5,8
432,240,207815,1,8
448,304,207955,1,0
296,288,208233,5,0
320,224,208512,5,0
320,152,208791,5,0
32,48,209071,5,0
32,120,209140,1,0
40,168,209210,1,0
64,240,209280,5,0
104,296,209350,1,0
144,328,209420,1,0
216,344,209489,1,0
256,344,209559,5,0
32,48,209629,1,0
32,120,209698,1,0
40,168,209768,1,0
64,240,209838,5,0
104,296,209908,1,0
144,328,209978,1,0
216,344,210047,1,0
256,344,210117,1,0
296,288,210466,5,0
320,224,210745,1,0
320,152,211024,5,0
32,48,211303,5,0
32,120,211372,1,0
40,168,211442,1,0
64,240,211512,1,0
104,296,211582,1,0
144,328,211652,5,0
216,344,211721,1,0
256,344,211791,1,0
32,48,211861,1,0
32,120,211930,1,0
40,168,212000,5,0
64,240,212070,1,0
104,296,212140,1,0
144,328,212210,5,0
216,344,212279,1,0
256,344,212349,1,0
296,288,212698,5,0
320,224,212977,5,0
32,40,213257,5,4
40,56,223862,5,8
32,128,223931,1,8
48,192,224001,5,8
64,264,224071,1,8
104,304,224141,5,0
