osu file format v7

[General]
AudioFilename: 11 StrangeProgram.mp3
AudioLeadIn: 0
PreviewTime: 71485
Countdown: 0
SampleSet: Normal
StackLeniency: 0.2
Mode: 0
LetterboxInBreaks: 0
EpilepsyWarning: 1

[Editor]
Bookmarks: 36046,98560
DistanceSpacing: 0.5
BeatDivisor: 8
GridSize: 8

[Metadata]
Title:StrangeProgram
Artist:DJ Sharpnel
Creator:happy30
Version:Lesjuh's TAG
Source:
Tags:

[Difficulty]
HPDrainRate:4
CircleSize:5
OverallDifficulty:8
SliderMultiplier:2.6
SliderTickRate:1

[Events]
//Background and Video events
0,0,"sprogbg.jpg"
//Break Periods
2,31783,35298
2,89271,97810
2,145643,155298
//Storyboard Layer 0 (Background)
Sprite,Background,Centre,"black.JPG",320,240 F,0,224005,225206,1
Sprite,Background,Centre,"black.JPG",320,240 S,0,159955,,2.3312 F,0,159955,165972,1,0.99488 F,0,165972,177554,0.99488,1
//Storyboard Layer 1 (Fail)
//Storyboard Layer 2 (Pass)
//Storyboard Layer 3 (Foreground)
Sprite,Foreground,Centre,"sprogbg.jpg",321,240 S,0,186746,,5 S,0,186746,,5 S,0,186746,186781,5,1.02688 S,0,187025,187060,5,1.010204 S,0,187304,187339,5,1.0064 S,0,187583,187618,3.630766,0.9990857 S,0,187862,187897,5,0.9990857 S,0,188141,188176,5,0.9990857 S,0,188420,188455,5,0.9990857 S,0,188699,188734,5,0.9990857 S,0,188978,189013,5,0.9990857 S,0,189257,189292,5,0.9990857 S,0,189536,189571,5,0.9990857 S,0,189816,189850,5,0.9961598 S,0,190095,190129,5,0.9961598 S,0,190374,190409,5,0.9961598 S,0,190653,190688,5,0.9961598 S,0,190932,190967,5,0.9961598 S,0,191211,191246,5,0.9961598 S,0,191490,191525,5,0.9961598 S,0,191769,191804,5,0.9961598 S,0,192048,192083,5,0.9961598 S,0,192327,192362,5,0.9961598 S,0,192606,192641,5,0.9961598 S,0,192885,192920,5,0.9961598 S,0,193164,193199,5,0.9961598 S,0,193443,193478,5,0.9961598 S,0,193722,193757,5,0.9961598 S,0,194002,194036,5,0.9961598 S,0,194281,194316,5,0.9961598 S,0,194560,194595,5,0.9961598 S,0,194839,194874,5,0.9961598 S,0,195118,195153,5,0.9961598 S,0,195397,195432,5,0.9961598
Sprite,Foreground,Centre,"sprogbg.jpg",320,240 S,0,195676,195711,5,1 S,0,195816,195850,5,1 S,0,195955,,5 S,0,195955,195990,5,1.01664 S,0,196095,,5 S,0,196095,196129,5,1.02688 S,0,196234,196269,5,1.0064 S,0,196374,196409,5,1.00405 S,0,196513,196548,5,1.02048 S,0,196653,196688,5,0.9991696 S,0,196792,196827,5,1.013986 S,0,196932,196967,5,1.022237 S,0,197071,197106,5,1.020075 S,0,197211,197246,5,1.02688 S,0,197350,197385,5,1.00481 S,0,197490,197525,5,1.032588 S,0,197629,197664,5,1.029323 S,0,197769,197804,5,1.005144 S,0,197909,197943,5,1.023342 S,0,198048,198083,5,1.026912 S,0,198188,198222,5,1 S,0,198222,,1,0.1 S,0,198327,,5 S,0,198327,198362,5,1.0064 S,0,198467,198502,5,0.9971151 S,0,198606,198641,5,1.02688 S,0,198746,198781,5,1.048535 S,0,198885,198920,5,1.024424 S,0,199025,199060,5,1.006465 S,0,199164,199199,5,1.033895 S,0,199304,199339,5,1 S,0,199339,,1,0.1398401 S,0,199443,,5 S,0,199443,199478,5,1.02688 S,0,199583,199618,5,1.0064 S,0,199722,199757,5,1.0064 S,0,199862,199897,5,1.02688 S,0,200002,200036,5,1.0064 S,0,200036,200097,1.0064,1.838852
Sprite,Foreground,Centre,"sprogbg.jpg",320,240 S,0,200141,200211,5,1.02688 S,0,200211,200281,5 S,0,200211,200350,1.02688,5 S,0,200281,200350,5,1.0064 S,0,200350,200420,5 S,0,200350,200490,1.0064,5 S,0,200420,200490,5,0.9961601 S,0,200490,200560,5 S,0,200490,200629,0.9961601,5 S,0,200560,200629,5,1.0064 S,0,200629,200699,5 S,0,200629,200769,1.0064,5 S,0,200699,200769,5,1.01664 S,0,200769,200839,5 S,0,200769,200909,1.01664,5 S,0,200839,200909,5,1.01664 S,0,200909,200978,5 S,0,200909,201048,1.01664,5 S,0,200978,201048,5,1.01664 S,0,201048,201118,5 S,0,201048,201188,1.01664,5 S,0,201118,201188,5,1.02688 S,0,201188,201257,5 S,0,201188,201327,1.02688,5 S,0,201257,201327,5,1.0064 S,0,201327,201397,5 S,0,201327,201467,1.0064,5 S,0,201397,201467,5,1.03712 S,0,201467,201536,5 S,0,201467,201606,1.03712,5 S,0,201536,201606,5,1.04736 S,0,201606,201676,5 S,0,201606,201746,1.04736,5 S,0,201676,201746,5,1.0064 S,0,201746,201816,5 S,0,201746,201885,1.0064,5 S,0,201816,201885,5,1.04736 S,0,201885,201955,5 S,0,201885,202025,1.04736,5 S,0,201955,202025,5,1.01664 S,0,202025,202095,5 S,0,202025,202164,1.01664,5 S,0,202095,202164,5,1.02688 S,0,202164,202234,5 S,0,202164,202304,1.02688,5 S,0,202234,202304,5,1.02688 S,0,202304,202374,5 S,0,202304,202443,1.02688,5 S,0,202374,202443,5,1.02688 S,0,202443,202513,5 S,0,202443,202583,1.02688,5 S,0,202513,202583,5,1.01664 S,0,202583,202653,5 S,0,202583,202722,1.01664,5 S,0,202653,202722,5,1.02688 S,0,202722,202792,5 S,0,202722,202862,1.02688,5 S,0,202792,202862,5,1.01664 S,0,202862,202932,5 S,0,202862,203002,1.01664,5 S,0,202932,203002,5,1.02688 S,0,203002,203071,5 S,0,203002,203141,1.02688,5 S,0,203071,203141,5,1.03712 S,0,203141,203211,5 S,0,203141,203281,1.03712,5 S,0,203211,203281,5,1.03712 S,0,203281,203350,5 S,0,203281,203420,1.03712,5 S,0,203350,203420,5,1.03712 S,0,203420,203490,5 S,0,203420,203560,1.03712,5 S,0,203490,203560,5,1.04736 S,0,203560,203629,5 S,0,203560,203699,1.04736,5 S,0,203629,203699,5,1.04736 S,0,203699,203769,5 S,0,203699,203839,1.04736,5 S,0,203769,203839,5,1.03712 S,0,203839,203909,5 S,0,203839,203978,1.03712,5 S,0,203909,203978,5,1.0064 S,0,203978,204048,5 S,0,203978,204048,1.0064,5
Sprite,Foreground,Centre,"sprogbg.jpg",320,240 S,0,204606,204641,5,1.01024 S,0,204641,204676,1.01024,5 S,0,204676,204711,5,1.01024 S,0,204711,204746,1.01024,5 S,0,204746,204752,5,3.383616 S,0,204752,204781,3.383616,1.01024 S,0,204781,204816,1.01024,3.373377 S,0,204816,204850,3.373377,1.01024 S,0,204850,204885,1.01024,5 S,0,204885,204920,5,1.01024 S,0,204920,204955,1.01024,5 S,0,204955,204990,5,1.01024 S,0,204990,205025,1.01024,5 S,0,205025,205060,5,1.01024 S,0,205060,205095,1.01024,5 S,0,205095,205129,5,1.01024 S,0,205129,205164,1.01024,5 S,0,205164,205199,5,1.01024 S,0,205199,205234,1.01024,5 S,0,205234,205269,5,1.01024 S,0,205269,205304,1.01024,5 S,0,205304,205339,5,1.01024 S,0,205339,205374,1.01024,5 S,0,205374,205409,5,1.01024 S,0,205409,205443,1.01024,5 S,0,205443,205478,5,1.01024 S,0,205478,205513,1.01024,4.92192 S,0,205513,205548,4.92192,1.01024 S,0,205548,205583,1.01024,5 S,0,205583,205618,5,1.01024 S,0,205618,205639,1.01024,3.734482 S,0,205639,205640,3.734482 S,0,205640,205653,3.734482,5 S,0,205653,205688,5,0.9961603 S,0,205688,205722,0.9961603,5 S,0,205722,205757,5,1.01024 S,0,205757,205792,1.01024,5 S,0,205792,205827,5,1.01024 S,0,205827,205862,1.01024,5 S,0,205862,205897,5,1.01024 S,0,205897,205932,1.01024 S,0,205932,205949,1.01024,5 S,0,205949,205967,5,1.01024 S,0,205967,206002,1.01024,5 S,0,206002,206036,5,1.01024 S,0,206036,206071,1.01024,5 S,0,206071,206106,5,1.01024 S,0,206106,206141,1.01024,5 S,0,206141,206176,5,1.01024 S,0,206176,206211,1.01024,5 S,0,206211,206246,5,1.01024 S,0,206246,206281,1.01024,5 S,0,206281,206316,5,1.01024 S,0,206316,206350,1.01024,5 S,0,206350,206368,5 S,0,206368,206385,5 S,0,206385,206420,5,1.01024 S,0,206420,206455,1.01024,5 S,0,206455,206490,5,1.03712 S,0,206490,206525,1.03712,5 S,0,206525,206560,5,1.02688 S,0,206560,206577,1.02688,5 S,0,206577,206595,5,1.01024 S,0,206595,206629,1.01024,5 S,0,206629,206664,5,1.01024 S,0,206664,206699,1.01024,5 S,0,206699,206734,5,1.01024 S,0,206734,206769,1.01024,5 S,0,206769,206786,5 S,0,206786,206804,5 S,0,206804,206839,5,1.01024 S,0,206839,206874,1.01024,5 S,0,206874,206909,5,1.01024 S,0,206909,206943,1.01024,5 S,0,206943,206978,5,1.01024 S,0,206978,206996,1.01024,5 S,0,206996,207013,5,1.01024 S,0,207013,207048,1.01024,5 S,0,207048,207083,5,1.01024 S,0,207083,207118,1.01024,5 S,0,207118,207153,5,1.01024 S,0,207153,207188,1.01024,5 S,0,207188,207205,5 S,0,207205,207222,5 S,0,207222,207257,5,1.01024 S,0,207257,207292,1.01024,5 S,0,207292,207327,5,1.01024 S,0,207327,207362,1.01024,5 S,0,207362,207397,5,1.01024 S,0,207397,207414,1.01024,5 S,0,207414,207432,5,1.01024 S,0,207432,207467,1.01024,5 S,0,207467,207502,5,1.01024 S,0,207502,207536,1.01024,5 S,0,207536,207571,5,1.01024 S,0,207571,207606,1.01024,5 S,0,207606,207624,5 S,0,207624,207641,5 S,0,207641,207676,5,1.01024 S,0,207676,207711,1.01024,5 S,0,207711,207746,5,1.01024 S,0,207746,207781,1.01024,5 S,0,207781,207816,5,1.01024 S,0,207816,207833,1.01024,5 S,0,207833,207850,5,1.01024 S,0,207850,207885,1.01024,5 S,0,207885,207920,5,1.01024 S,0,207920,207955,1.01024,5 S,0,207955,207990,5,1.01024 S,0,207990,208025,1.01024,5 S,0,208025,208042,5 S,0,208042,208060,5 S,0,208060,208095,5,1.01024 S,0,208095,208129,1.01024,5 S,0,208129,208164,5,1.01024 S,0,208164,208199,1.01024,5 S,0,208199,208234,5,1.01024 S,0,208234,208269,1.01024,5 S,0,208269,208304,5,1.01024 S,0,208304,208339,1.01024,5 S,0,208339,208374,5,1.01024 S,0,208374,208409,1.01024,5 S,0,208409,208443,5,1.01024 S,0,208443,208478,1.01024,5 S,0,208478,208513,5,1.01024 S,0,208513,208548,1.01024,5 S,0,208548,208583,5,1.01024 S,0,208583,208618,1.01024,5 S,0,208618,208653,5,1.01024
Sprite,Foreground,Centre,"sprogbg.jpg",320,240 S,0,209071,209106,5,1.01664 S,0,209106,209141,1.01664,5 S,0,209141,209176,5,1.01664 S,0,209176,209211,1.01664,5 S,0,209211,209246,5,1.03712 S,0,209246,209281,1.03712,5 S,0,209281,209316,5,1.03712 S,0,209316,209350,1.03712,5 S,0,209350,209385,5,1.02688 S,0,209385,209420,1.02688,5 S,0,209420,209455,5,1.03712 S,0,209455,209490,1.03712,5 S,0,209490,209525,5,1.03712 S,0,209525,209560,1.03712,5 S,0,209560,209595,5,1.02688 S,0,209595,209629,1.02688,5 S,0,209629,209647,5,0.9961597 S,0,209647,209664,0.9961597,5 S,0,209664,209699,5,1.0064 S,0,209699,209717,1.0064 S,0,209717,209734,1.0064,5 S,0,209734,209752,5,2.81888 S,0,209752,209769,2.81888,1.0064 S,0,209769,209804,1.0064,5 S,0,209804,209839,5,1.01664 S,0,209839,209874,1.01664,5 S,0,209874,209909,5,1.02688 S,0,209909,209943,1.02688,5 S,0,209943,209978,5,1.02688 S,0,209978,210013,1.02688,5 S,0,210013,210048,5,1.01664 S,0,210048,210083,1.01664,5 S,0,210083,210118,5,1.02688 S,0,210118,210153,1.02688,5 S,0,210153,210188,5,1.0064 S,0,210188,210222,1.0064,5 S,0,210222,210257,5,1.04736 S,0,210257,210292,1.04736,5 S,0,210292,210327,5,1.03712 S,0,210327,210362,1.03712,5 S,0,210362,210397,5,0.98592 S,0,210397,210432,0.98592,5 S,0,210432,210467,5,1.01664 S,0,210467,210502,1.01664,5 S,0,210502,210536,5,1.03712 S,0,210536,210571,1.03712,5 S,0,210571,210606,5,1.02688 S,0,210606,210641,1.02688,5 S,0,210641,210676,5,1.02688 S,0,210676,210711,1.02688,5 S,0,210711,210746,5,1.03712 S,0,210746,210781,1.03712,5 S,0,210781,210816,5,0.9961598 S,0,210816,210850,0.9961598,5 S,0,210850,210885,5,1.01664 S,0,210885,210920,1.01664,5 S,0,210920,210955,5,1.04736 S,0,210955,210990,1.04736,5 S,0,210990,211025,5,1.02688 S,0,211025,211060,1.02688,5 S,0,211060,211095,5,1.01664 S,0,211095,211129,1.01664,5 S,0,211129,211164,5,1.04736 S,0,211164,211199,1.04736 S,0,211199,211234,1.04736,5 S,0,211234,211269,5,1.02688 S,0,211269,211304,1.02688,5 S,0,211304,211339,5,1.03712 S,0,211339,211374,1.03712,5 S,0,211374,211409,5,1.01664 S,0,211409,211443,1.01664,5 S,0,211443,211478,5,1.0576 S,0,211478,211513,1.0576,5 S,0,211513,211548,5,1.0576 S,0,211548,211583,1.0576,5 S,0,211583,211618,5,1.03712 S,0,211618,211653,1.03712,5 S,0,211653,211688,5 S,0,211688,211722,5,1.02688 S,0,211722,211757,1.02688,5 S,0,211757,211792,5,1.02688 S,0,211792,211827,1.02688,5 S,0,211827,211862,5 S,0,211862,211879,5,1.03712 S,0,211879,211897,1.03712,5 S,0,211897,211932,5 S,0,211932,211967,5,1.02688 S,0,211967,212002,1.02688,5 S,0,212002,212036,5,1.04736 S,0,212036,212071,1.04736,5 S,0,212071,212106,5,1.02688 S,0,212106,212141,1.02688,5 S,0,212141,212176,5,1.12928 S,0,212176,212211,1.12928,5 S,0,212211,212246,5,1.01664 S,0,212246,212281,1.01664,5 S,0,212281,212316,5,1.02688 S,0,212316,212350,1.02688,5 S,0,212350,212385,5,1.06784 S,0,212385,212420,1.06784,5 S,0,212420,212455,5,1.01664 S,0,212455,212490,1.01664,5 S,0,212490,212525,5,1.03712 S,0,212525,212560,1.03712,4.83616 S,0,212560,212595,4.83616,0.9961601 S,0,212595,212629,0.9961601,5 S,0,212629,212664,5,1.03712 S,0,212664,212699,1.03712,5 S,0,212699,212734,5,1.0576 S,0,212734,212769,1.0576,5 S,0,212769,212804,5,1.03712 S,0,212804,212839,1.03712,5 S,0,212839,212874,5,1.02688 S,0,212874,212909,1.02688,5 S,0,212909,212943,5,1.0576 S,0,212943,212978,1.0576,5 S,0,212978,213013,5,1.03712 S,0,213013,213048,1.03712,5 S,0,213048,213083,5,1.02688 S,0,213083,213118,1.02688,5 S,0,213118,213153,5,1.03712 S,0,213153,213188,1.03712,5 S,0,213188,213222,5,1.01664 S,0,213222,213257,1.01664,5 S,0,213257,213292,5,1.02688
Sprite,Foreground,Centre,"sprogbg.jpg",319,250 M,0,20420,20560,320,240,320,730 F,0,20420,20560,1,0 F,0,20560,20629,0,1 M,0,20560,20699,320,730,319,-251 F,0,20629,20699,1,0 M,0,20699,20839,319,-251,320,240 F,0,20699,20839,0,1
Sprite,Foreground,Centre,"sprogbg.jpg",320,240 M,0,18885,19025,320,240,320,-249 F,0,18885,19025,1,0 M,0,19025,,320,-249
Sprite,Foreground,Centre,"sprogbg.jpg",320,240 M,0,20002,20141,320,240,318,-249 F,0,20002,20141,1,0
Sprite,Foreground,Centre,"white2.png",320,240 M,0,22722,,320,240 F,0,22722,27118,0,0.38912
Sprite,Foreground,Centre,"sprogbg.jpg",320,240 S,0,29350,29490,1.21504,5 R,0,29350,29490,0.1024,1.98656 S,0,29490,29629,5,1.24192 R,0,29490,29629,1.98656,-4.95616 S,0,29629,29769,1.24192,5 R,0,29629,29769,-4.95616,2.68288 S,0,29769,29909,5,1.07808 R,0,29769,29909,2.68288,-3.19488 S,0,29909,30048,1.07808,5 R,0,29909,30048,-3.19488,-14.848 S,0,30048,30188,5,0.1 R,0,30048,30188,-14.848,-8.355841 F,0,30153,30188,1,0
Sprite,Foreground,Centre,"sprogbg.jpg",320,240 S,0,62839,63362,1.44032,1.00929 F,0,62839,67339,0.3087999,0.48288 S,0,63362,63397,1.00929,1.544486 S,0,63397,63920,1.544486,1.006642 S,0,63920,63955,1.006642,1.473211 S,0,63955,64478,1.473211,1.007046 S,0,64478,64513,1.007046,1.453135 S,0,64513,65036,1.453135,0.9972107 S,0,65036,65071,0.9972107,1.509869 S,0,65071,65595,1.509869,1.007728 S,0,65595,65629,1.007728,1.443704 S,0,65629,66153,1.443704,1.008132 S,0,66153,66188,1.008132,1.474702 S,0,66188,66711,1.474702,1.008537 S,0,66711,66746,1.008537,1.516066 S,0,66746,67304,1.516066,1.014711 S,0,67304,67339,1.014711,1.04096
Sprite,Foreground,Centre,"white2.png",320,240 F,0,97583,97618,0.99488,0 F,0,97862,97897,0.99488,0 F,0,98106,98141,1,0 F,0,98141,,0
Sprite,Foreground,Centre,"sprogbg.jpg",320,240
Sprite,Foreground,Centre,"sprogbg.jpg",318,241 M,0,15536,15676,318,241,321,724 F,0,15536,15676,1,0
Sprite,Foreground,Centre,"sprogbg.jpg",320,240 M,0,45257,45397,320,240,990,240 F,0,45257,46095,1 S,0,45257,48327,1.0064 M,0,45397,45536,990,240,-329,240 M,0,45536,45676,-329,240,966,240 M,0,45676,45816,966,240,-337,238 M,0,45816,45955,-337,238,966,240 M,0,45955,46095,966,240,-344,242 F,0,46095,48327,1 M,0,46374,46513,650,244,-344,242 M,0,46513,46653,-344,242,990,240 M,0,46653,46792,990,240,-344,242 M,0,46792,46932,-344,242,996,239 M,0,46932,47071,996,239,-344,242 M,0,47071,47211,-344,242,1009,239 M,0,47490,47629,-344,242,1014,241 M,0,47769,47909,974,240,-329,242 M,0,48048,48188,-344,242,996,239 M,0,48188,48327,996,239,-344,242 F,0,48327,49164,1 M,0,48606,48676,319,240,324,246 S,0,48606,48676,5,1.01664 M,0,48885,49025,322,-251,325,727 M,0,49025,49164,325,727,324,-249
Sprite,Foreground,Centre,"white2.png",320,240 F,0,31583,33536,1,0
Sprite,Foreground,Centre,"sprogbg.jpg",318,274 S,0,22653,22722,3.37568,1 F,0,22722,,1 S,0,22722,,1 M,0,26053,,318,274
Sprite,Foreground,Centre,"sprogbg.jpg",320,240 S,0,36048,36118,2.6896,0.9999999 S,0,36327,36397,4.08224,0.9999999 S,0,36606,36676,2.95072,1.22016 S,0,36885,36955,4.37408,1.22016 S,0,37164,37234,3.15552,1.22016 S,0,37443,37513,3.96448,1.22016 S,0,37722,37792,3.67776,1.22016 S,0,38002,38071,4.43552,1.22016 S,0,38281,38350,4.24096,1.22016 S,0,38560,38629,4.36384,1.18944 S,0,38839,38909,3.51392,1.22016 S,0,39118,39188,3.00192,1.22016 S,0,39397,39467,4.01568,1.22016 S,0,39676,39746,4.49696,1.22016 S,0,39955,40025,2.93024,1.22016 S,0,40234,40304,3.13504,1.22016 S,0,40374,,4.56864 S,0,40443,40513,1.22016,4.01568 S,0,40513,40583,4.01568,1.22016 S,0,40792,40862,4.0976,1.22016 S,0,41071,41141,3.96448,1.22016 S,0,41350,41420,4.59936,1.22016 S,0,41629,41699,4.5584,1.22016 S,0,41909,41978,4.56864,1.22016 S,0,42188,42257,5,1.22016 S,0,42467,42536,5,1.22016 S,0,42746,42816,5,1.22016 S,0,43025,43095,5,1.22016 S,0,43304,43374,5,1.154027 S,0,43583,43653,5,1.11776 S,0,43653,,1.11776
Sprite,Foreground,Centre,"sprogbg.jpg",320,240 R,0,49443,49583,0,2.21184 R,0,49583,49722,2.21184,2.204499 R,0,49722,49862,2.204499,5.058559 R,0,49862,50002,5.058559 S,0,50002,50141,1,5 F,0,50071,,1 F,0,50071,50141,1,0
Sprite,Foreground,Centre,"white2.png",320,240 F,0,177554,177816,0.99488,0
Sprite,Foreground,Centre,"sprogbg.jpg",320,240 S,0,50420,,1 R,0,50420,,-0.8806391 M,0,50420,50560,320,240 M,0,50560,,320,240 S,0,50560,,1.68608 R,0,50560,,2.51904 M,0,50560,50978,320,240 M,0,50839,,320,240 S,0,50839,,1.68608 R,0,50839,,-15.42144 M,0,50978,,320,240 S,0,50978,,1.3584,2.50528 R,0,50978,,-11.53024 M,0,50978,51257,320,240 S,0,51257,,3.63168 R,0,51257,,-14.90944 M,0,51257,51397,320,240 S,0,51397,,1.64512 R,0,51397,,-4.4032 R,0,51397,,-6.94272 R,0,51397,,-12.14464 R,0,51397,,-6.94272 M,0,51397,51676,320,240 S,0,51676,,1.68608 R,0,51676,,-15.12976 M,0,51676,51816,320,240 S,0,51816,,2.7408 R,0,51816,,-11.87279,-14.24847 R,0,51816,,-14.24847 M,0,51816,52095,320,240 S,0,52095,,1.68608 R,0,52095,,-18.28864 M,0,52095,52234,320,240 S,0,52234,,1.68608 R,0,52234,,-27.42272 M,0,52234,52513,320,240 S,0,52513,,1.68608 R,0,52513,,-13.49632 R,0,52513,,-13.49632 R,0,52513,,-13.49632 M,0,52513,52653,320,240 S,0,52653,,1.68608 R,0,52653,,0 R,0,52653,,-17.84313 M,0,52653,52932,320,240 S,0,52932,,1.68608 R,0,52932,,-19.80921 M,0,52932,53071,320,240 S,0,53071,,1.68608 R,0,53071,,-25.33376 M,0,53071,53350,320,240 S,0,53350,,2.51552 R,0,53350,,0 M,0,53350,53490,320,240 S,0,53490,,1.68608 R,0,53490,53525,-34.37049,-26.28089 R,0,53525,53560,-27.73497,-24.97129 R,0,53560,53595,-24.97129,-27.49146 R,0,53595,53629,-27.49146,-31.77639 R,0,53629,53664,-31.77639,-23.22937 R,0,53664,53699,-23.22937,-26.28089 R,0,53699,,-26.28089,-26.11705 R,0,53699,53734,-26.11705,-26.28089 R,0,53734,,-26.28089,-28.96377 R,0,53734,53769,-28.96377,-23.33177 R,0,53769,53804,-23.33177,-32.7109 R,0,53804,53874,-32.7109,-26.91085 R,0,53839,,-26.28089 R,0,53874,53909,-26.91085,-26.5913 R,0,53909,53943,-26.5913,-26.28089 R,0,53943,,-26.28089 R,0,53943,,-26.28089
Sprite,Foreground,Centre,"sprogbg.jpg",320,240 S,0,136513,136531,2.42336,1.003209 S,0,136531,136548,1.003209,0.9908801 S,0,136792,136827,2.169189,1.001829 S,0,137071,137106,2.169189,1.012069 S,0,137350,137385,2.169189,1.012069 S,0,137629,137664,2.304357,0.9936368 S,0,137909,137943,2.242917,1.014117 S,0,138188,138222,2.324836,1.003876 S,0,138467,138502,2.304357,1.003876 S,0,138746,138781,2.308453,0.9977324 S,0,139025,139060,2.349412,0.9977324 S,0,139304,139339,2.359653,0.9977324 S,0,139583,139618,2.308453,0.9977324 S,0,139862,139897,2.298213,0.9977324 S,0,140141,140176,2.318692,0.9977324 S,0,140420,140455,2.359652,0.9977324 S,0,140699,140734,2.328932,0.9977324 S,0,140978,141013,2.328933,0.9977324 S,0,141257,141292,2.359652,0.9977324 S,0,141536,141571,2.339172,0.9977324 S,0,141816,141850,2.318692,0.9977324 S,0,142095,142129,2.308452,0.9977324 S,0,142374,142409,2.369893,0.9977324 S,0,142653,142688,2.339172,0.9977324 S,0,142932,142967,2.349412,0.9977324
Sprite,Foreground,Centre,"white2.png",320,240 F,0,67304,67548,1,0 F,0,67548,67583,0,1 F,0,67583,67827,1,0 F,0,67827,67862,0,1 F,0,67862,68106,1,0 F,0,68106,68141,0,1 F,0,68141,68385,1,0 F,0,68385,68420,0,1 F,0,68420,68664,1,0 F,0,68664,68699,0,1 F,0,68699,68943,1,0 F,0,68943,68978,0,1 F,0,68978,69222,1,0 F,0,69222,69257,0,1 F,0,69257,69502,1,0 F,0,69502,69536,0,1 F,0,69536,69641,1,0 F,0,69641,69676,0,1 F,0,69676,69781,1,0 F,0,69781,69816,0,1 F,0,69816,69920,1,0 F,0,69920,69955,0,1 F,0,69955,70060,1,0 F,0,70060,70095,0,1 F,0,70095,70199,1,0 F,0,70199,70234,0,1 F,0,70234,70339,1,0 F,0,70339,70374,0,1 F,0,70374,70478,1,0 F,0,70478,70513,0,1 F,0,70513,70618,1,0 F,0,70618,70653,0,1 F,0,70653,70757,1,0 F,0,70757,70792,0,1 F,0,70792,70897,1,0 F,0,70897,70932,0,1 F,0,70932,71036,1,0 F,0,71036,71071,0,1 F,0,71071,71176,1,0 F,0,71176,71211,0,1 F,0,71211,71316,1,0 F,0,71316,71350,0,1 F,0,71350,71455,1,0 F,0,71455,71490,0,1 F,0,71490,71595,1,0 F,0,71595,71629,0,1 F,0,71629,71664,1,0 F,0,71664,71699,0,1 F,0,71699,71734,1,0 F,0,71734,71769,0,1 F,0,71769,72048,1,0
Sprite,Foreground,Centre,"white2.png",320,240 F,0,213327,,1 S,0,213327,,1.02048
Sprite,Foreground,Centre,"sprogbg.jpg",320,300 M,0,27118,27135,323,238,318,223 F,0,27118,27362,0.3635199,0.6049376 R,0,27118,29106,6.28736,6.281084 M,0,27135,27153,318,223,318,241 M,0,27153,27170,318,241,318,238 M,0,27170,27188,318,238,318,242 M,0,27188,27205,318,242,321,288 M,0,27205,27222,321,288,321,227 M,0,27222,27240,321,227,322,264 M,0,27240,27257,322,264,320,275 M,0,27257,27275,320,275,317,179 M,0,27275,27292,317,179,320,229 M,0,27292,27310,320,229,317,241 M,0,27310,27327,317,241,317,213 M,0,27327,27345,317,213,316,273 M,0,27345,27362,316,273,320,224 M,0,27362,27379,320,224,318,241 F,0,27362,29106,0.6049376,1 M,0,27379,27397,318,241,317,293 M,0,27397,27414,317,293,319,231 M,0,27414,27432,319,231,321,258 M,0,27432,27449,321,258,321,308 M,0,27449,27467,321,308,319,251 M,0,27467,27484,319,251,319,299 M,0,27484,27502,319,299,321,245 M,0,27502,27519,321,245,318,203 M,0,27519,27536,318,203,318,250 M,0,27536,27554,318,250,318,223 M,0,27554,27571,318,223,321,193 M,0,27571,27589,321,193,318,279 M,0,27589,27606,318,279,318,195 M,0,27606,27624,318,195,318,231 M,0,27624,27641,318,231,321,275 M,0,27641,27659,321,275,319,207 M,0,27659,27676,319,207,322,261 M,0,27676,27711,322,261,322,289 M,0,27711,27728,322,289,318,224 M,0,27728,27746,318,224,319,251 M,0,27746,27763,319,251,318,333 M,0,27763,27781,318,333,318,219 M,0,27781,27798,318,219,321,315 M,0,27798,27816,321,315,319,255 M,0,27816,27833,319,255,321,191 M,0,27833,27850,321,191,319,299 M,0,27850,27868,319,299,321,254 M,0,27868,27885,321,254,318,202 M,0,27885,27903,318,202,319,281 M,0,27903,27920,319,281,319,221 M,0,27920,27938,319,221,319,301 M,0,27938,27955,319,301,321,240 M,0,27955,28234,321,240,320,241 M,0,28234,28269,320,241,319,264 M,0,28269,28304,319,264,320,209 M,0,28304,28339,320,209,321,269 M,0,28339,28374,321,269,318,227 M,0,28374,28409,318,227,320,326 M,0,28409,28443,320,326,320,151 M,0,28443,28478,320,151,320,292 M,0,28478,28513,320,292,321,445 M,0,28513,28548,321,445,320,182 M,0,28548,28583,320,182,320,254 M,0,28583,28618,320,254,321,277 M,0,28618,28653,321,277,320,332 M,0,28653,28688,320,332,319,219 M,0,28688,28722,319,219,319,264 M,0,28722,28757,319,264,320,367 M,0,28757,28792,320,367,320,239 M,0,28792,28827,320,239,320,272 M,0,28827,28862,320,272,319,188 M,0,28862,28897,319,188,321,286 M,0,28897,28932,321,286,320,335 M,0,28932,28967,320,335,318,206 M,0,28967,29002,318,206,320,140 M,0,29002,29036,320,140,322,300 M,0,29036,29071,322,300,319,239 M,0,29071,,319,239 M,0,29071,29106,319,239 M,0,29106,,319,239
Sprite,Foreground,Centre,"sprogbg.jpg",320,240 M,0,17769,17909,320,240,318,-244 F,0,17769,17909,1,0
Sprite,Foreground,Centre,"sprogbg.jpg",23,244 F,0,218071,218246,0.53408 S,0,218071,218246,2.31072 R,0,218071,218246,5.55008 F,0,218316,,1 S,0,218316,,2.8944 R,0,218316,,5.55008 F,0,218316,218420,1 S,0,218420,,1.95232 R,0,218420,,1.7408 F,0,218420,218455,1 F,0,218455,218560,1 F,0,218560,218595,1,0 F,0,218595,218664,0 F,0,218664,218699,0,1 F,0,218699,219013,1,0.9948802 S,0,218804,,5,1.95232 S,0,218804,,5 R,0,218804,,4.1984 F,0,219013,219048,0.9948802 R,0,219048,,0.3071999 F,0,219048,219118,0.9948802,1 S,0,219048,219746,1.22144 F,0,219118,219153,1,0 F,0,219153,219327,0 F,0,219327,219397,0,0.9795201 F,0,219397,219432,0.9795201,0.98976 F,0,219432,219502,0.98976,0 F,0,219502,219536,0,1 F,0,219536,219571,1,0 F,0,219571,219606,0 S,0,219571,219641,1.229517,5 F,0,219606,219641,0,1 F,0,219641,219676,1 F,0,219676,219711,1,0 F,0,219711,219746,0,1 F,0,219746,219781,1,0 S,0,219746,219781,1.22144,4.08864 F,0,219781,219885,0 S,0,219781,220095,4.08864,2.69072 F,0,219885,220095,0 R,0,220095,,-7.495679 F,0,220095,220129,0,1 F,0,220129,220304,1 S,0,220234,,2.69072 S,0,220269,,2.7112 F,0,220304,220409,1 S,0,220305,,2.026104 F,0,220409,220443,1,0 S,0,220443,,2.005624 S,0,220443,,1.985144,2.005624 F,0,220443,220478,0,1 R,0,220478,,-3.153919 F,0,220478,220583,1 S,0,220500,,2.015864 S,0,220550,220553,2.026104 S,0,220553,220568,2.026104 S,0,220583,,2.7112,2.77264 F,0,220583,220618,1,0 F,0,220618,220653,0,1 R,0,220653,220688,-5.0176,-7.495679 S,0,220792,,1.31856 R,0,220792,,-12.04224 R,0,221154,,-7.51616 S,0,221246,,1.31856,3.49968 S,0,221316,,5 R,0,221385,,-9.256959 S,0,221525,,1.31856 M,0,221664,,23,244 M,0,221664,,359,165,358,164 M,0,221978,,190,414 S,0,222013,,5 R,0,222048,,-13.70112 M,0,222153,,190,416 R,0,222188,,-9.256959 S,0,222362,,1.678144 S,0,222502,,5 R,0,222571,,-9.256959 R,0,222746,,-12.9024 S,0,222920,,5 S,0,223025,,1.770239 R,0,223235,,-13.0048 R,0,223235,223236,-13.0048 R,0,223236,223238,-13.0048 R,0,223238,223252,-13.0048,-13.06624 S,0,223269,,5 R,0,223269,,-10.01472 R,0,223269,,-10.01472 R,0,223270,,-13.1072 R,0,223433,,-12.9024 M,0,223548,,428,843 S,0,223583,,2.82912 M,0,223618,,330,254 R,0,223618,,-12.9024
Sprite,Foreground,Centre,"sprogbg.jpg",320,240 S,0,217722,217792,1.90112 R,0,217722,217792,1.6384
Sprite,Foreground,Centre,"white2.png",320,240 F,0,213327,215629,1,0
Sprite,Foreground,Centre,"sprogbg.jpg",320,240 F,0,71769,72292,1,0 S,0,71769,89089,1.17408,1.19456 F,0,72292,72327,0,1 F,0,72327,72850,1,0 F,0,72850,72885,0,1 F,0,72885,73409,1,0 F,0,73409,73443,0,1 F,0,73443,73932,1,0 F,0,73932,74002,0,1 F,0,73967,,0.6211199 F,0,74002,74525,1,0 F,0,74525,74560,0,1 F,0,74560,75083,1,0 F,0,75083,75118,0,1 F,0,75118,75641,1,0 F,0,75641,,0 F,0,75676,76199,1,0 F,0,76199,76234,0,1 F,0,76234,,1 F,0,76234,,1 F,0,76234,,1 F,0,76234,,1 F,0,76234,,1 F,0,76234,,1 F,0,76234,76757,1,0 F,0,76757,76792,0,0.9162539 F,0,76792,77316,0.9162539,0 F,0,77316,,0 F,0,77350,,0.8325078 F,0,77350,77874,0.8325078,0 F,0,77874,77909,0,1 F,0,77909,,1 F,0,77909,,1 F,0,77909,78432,1,0 F,0,78432,78467,0,1 F,0,78467,78990,1,0 F,0,78990,79025,0,1 F,0,79025,79548,1,0 F,0,79548,79583,0,1 F,0,79583,80106,1,0 F,0,80106,80141,0,1 F,0,80141,80664,1,0 F,0,80664,80699,0,1 F,0,80699,81222,1,0 F,0,81222,81257,0,1 F,0,81257,81781,1,0 F,0,81781,81816,0,1 F,0,81816,82339,1,0 F,0,82339,82374,0,1 F,0,82374,82897,1,0 F,0,82897,82932,0,1 F,0,82932,83455,1,0 F,0,83455,83490,0,1 F,0,83490,84013,1,0 F,0,84013,84048,0,1 F,0,84048,84571,1,0 F,0,84571,84606,0,1 F,0,84606,85129,1,0 F,0,85129,85164,0,1 F,0,85164,85688,1,0 F,0,85688,85722,0,1 F,0,85722,86246,1,0 F,0,86246,86281,0,1 F,0,86281,86804,1,0 F,0,86804,86839,0,1 F,0,86839,87362,1,0 F,0,87362,87397,0,1 F,0,87397,87920,1,0 F,0,87920,87955,0,1 F,0,87955,88478,1,0 F,0,88478,88513,0,1 F,0,88513,89036,1,0 F,0,89036,89071,0,1 F,0,89071,,1 F,0,89071,91862,1,0 S,0,89089,,1.19456 S,0,89089,91867,1.19456 F,0,91862,,0
Sprite,Foreground,Centre,"sprogbg.jpg",320,240 F,0,21536,21676,1,0.35488 S,0,21536,22653,0.9999998,1.279459 F,0,21676,,0.35488 F,0,21676,,0.35488 F,0,21676,22653,0.35488,0.47264 F,0,22653,22722,0.47264,0.35488 S,0,22653,22722,1.279459,1
Sprite,Foreground,Centre,"sprogbg.jpg",318,240 M,0,16653,16792,318,240,318,726 F,0,16653,16792,1,0
Sprite,Foreground,Centre,"sprogbg.jpg",320,240 M,0,14420,14560,320,240,318,723 F,0,14420,14560,1,0 M,0,14560,,318,723
Sprite,Foreground,Centre,"sprogbg.jpg",320,240 S,0,159792,160060,4.97952,3.55616 S,0,159955,160705,5 F,0,159955,160775,0 R,0,159955,161298,0 S,0,160060,160129,3.55616,3.59712 S,0,160129,177536,3.59712,5 S,0,160705,161211,5,4.10912 F,0,160775,160792,0,0.9516792 F,0,160792,160810,0.9516792,0 F,0,160810,160827,0 F,0,160827,161193,0,0.02190436 F,0,161193,161211,0.02190436,1 F,0,161211,161228,1,0 S,0,161211,177536,4.10912,5 F,0,161228,161926,0 R,0,161298,161438,0,3.97312 R,0,161438,161821,3.97312,5.025472 R,0,161821,161926,5.025472,4.991894 F,0,161926,161953,0,0.04445671 R,0,161926,162048,4.991894,4.95288 F,0,161953,161978,0.04445671,1 F,0,161978,161996,1,0 F,0,161996,162170,0,0.01119691 R,0,162048,162083,4.95288,4.654967 R,0,162083,162257,4.654967,4.602552 F,0,162170,162188,0.01119691,1 F,0,162188,162205,1,0 F,0,162205,162502,0,0.01937251 R,0,162257,162310,4.602552,9.522265 R,0,162310,162467,9.522265,9.424078 R,0,162467,162502,9.424078,3.360589 F,0,162502,162519,0.01937251,1 R,0,162502,163077,3.360589,-0.577222 F,0,162519,162536,1,0.02159024 F,0,162536,162868,0.02159024,0 F,0,162868,162885,0,0.04435458 F,0,162885,162903,0.04435458,1 F,0,162903,162920,1,0 F,0,162920,162938,0,1 F,0,162938,162955,1,0 F,0,162955,162972,0,1 F,0,162972,162990,1,0 F,0,162990,163339,0,0.02399285 R,0,163077,163286,-0.577222,-0.5483987 R,0,163286,163304,-0.5483987,-0.4050387 R,0,163304,163321,-0.4050387 R,0,163321,163339,-0.4050387 F,0,163339,163356,0.02399285,1 R,0,163339,163356,-0.4050387 F,0,163356,163374,1,0 R,0,163356,163374,-0.4050387 R,0,163374,163391,-0.4050387,-0.3845584 F,0,163374,163496,0,0.008614602 R,0,163391,163409,-0.3845584,-0.3231192 R,0,163409,163426,-0.3231192,3.240401 R,0,163426,163827,3.240401,-1.091051 F,0,163496,163513,0.008614602,1 F,0,163513,163531,1,0 F,0,163531,163670,0 F,0,163670,163688,0,1 F,0,163688,163705,1,0 F,0,163705,164193,0,0.03528306 R,0,163827,164535,-1.091051,0.08637266 F,0,164193,164211,0.03528306,1 F,0,164211,164228,1,0 F,0,164228,164699,0 R,0,164535,164560,0.08637266,-0.07957107 R,0,164560,164561,-0.07957107 R,0,164561,164562,-0.07957107 R,0,164562,164580,-0.07957107 R,0,164580,164583,-0.07957107 R,0,164583,164596,-0.07957107 R,0,164596,164635,-0.07957107,5.308773 R,0,164635,164637,5.308773 R,0,164637,164639,5.308773 R,0,164639,164640,5.308773 R,0,164640,164651,5.308773,5.923172 R,0,164651,164715,5.923172,-0.8987715 F,0,164699,164734,0,1 R,0,164715,165135,-0.8987715,-1.32101 F,0,164734,164752,1,0 F,0,164752,165205,0,0.03543492 R,0,165135,165703,-1.32101,-1.692289 F,0,165205,165222,0.03543492,1 F,0,165222,165240,1,0 F,0,165240,165362,0,0.009921926 F,0,165362,165379,0.009921926,1 F,0,165379,165397,1,0 F,0,165397,165728,0,0.02586704 R,0,165703,166423,-1.692289,-2.513207 F,0,165728,165746,0.02586704,1 F,0,165746,165763,1,0 F,0,165763,165972,0,0.01263255 F,0,165972,165990,0.01263255,1 F,0,165990,166007,1,0 F,0,166007,166496,0,0.04241478 R,0,166423,166623,-2.513207,-1.754794 F,0,166496,166513,0.04241478,1 F,0,166513,166531,1,0 F,0,166531,166583,0,1 F,0,166583,166600,1,0 F,0,166600,166618,0 F,0,166618,166862,0,0.02234842 R,0,166623,167155,-1.754794,-2.347663 F,0,166862,166879,0.02234842,1 F,0,166879,166897,1,0 F,0,166897,166967,0,1 F,0,166967,166984,1,0 F,0,166984,167246,0 R,0,167155,167275,-2.347663,-6.464142 F,0,167246,167281,0,1 R,0,167275,167276,-6.464142 R,0,167276,167277,-6.464142 R,0,167277,167278,-6.464142 R,0,167278,167827,-6.464142,-6.39703 F,0,167281,167298,1,0 F,0,167298,167647,0 F,0,167647,167664,0,0.06444276 F,0,167664,167682,0.06444276,1 F,0,167682,167699,1,0 F,0,167699,168048,0,0.0354783 R,0,167827,167943,-6.39703,-11.33271 R,0,167943,167947,-11.33271 R,0,167947,167948,-11.33271 R,0,167948,167949,-11.33271 R,0,167949,168591,-11.33271,-10.30836 F,0,168048,168066,0.0354783,1 F,0,168066,168083,1,0.03903629 F,0,168083,168682,0.03903629,0 R,0,168591,168691,-10.30836,-5.761805 F,0,168682,168693,0,1 R,0,168691,168696,-5.761805 F,0,168693,168711,1,0 R,0,168696,168697,-5.761805 R,0,168697,168698,-5.761805 R,0,168698,168711,-5.761805,-5.557005 F,0,168711,169025,0,0.03558074 R,0,168711,169143,-5.557005,-5.417934 F,0,169025,169042,0.03558074,1 F,0,169042,169060,1,0 F,0,169060,169182,0 R,0,169143,169279,-5.417934,-10.94753 F,0,169182,169199,0 F,0,169199,169513,0,0.03766343 R,0,169279,169281,-10.94753 R,0,169281,169282,-10.94753 R,0,169282,169283,-10.94753 R,0,169283,169295,-10.94753,-11.15233 R,0,169295,169979,-11.15233,-9.879707 F,0,169513,169531,0.03766343,1 F,0,169531,169548,1,0 F,0,169548,169566,0,1 F,0,169566,169583,1,0 F,0,169583,169600,0,1 F,0,169600,169618,1,0 F,0,169618,169635,0,1 F,0,169635,169653,1,0 F,0,169653,169670,0,1 F,0,169670,169688,1,0 F,0,169688,170002,0 R,0,169979,170063,-9.879707,-6.500507 F,0,170002,170025,0,1 F,0,170025,170036,1,0 F,0,170036,170037,0,0.8181818 F,0,170037,170054,0.8181818,1 F,0,170054,170071,1,0 R,0,170063,170067,-6.500507 R,0,170067,170068,-6.500507 R,0,170068,170069,-6.500507 R,0,170069,170079,-6.500507,-5.640347 F,0,170071,170368,0,0.03978567 R,0,170079,170631,-5.640347,-6.014679 F,0,170368,170385,0.03978567,1 F,0,170385,170403,1,0 F,0,170403,170612,0,0.02930043 F,0,170612,170629,0.02930043,1 F,0,170629,170664,1,0 R,0,170631,170763,-6.014679,-10.64316 F,0,170664,170682,0 F,0,170682,170699,0,0.89248 F,0,170699,170734,0.89248,0 F,0,170734,170769,0 R,0,170763,171383,-10.64316,-10.29423 F,0,170769,171083,0,0.04640165 F,0,171083,171100,0.04640165,0.04891384 F,0,171100,171118,0.04891384,1 F,0,171118,171135,1,0 F,0,171135,171641,0,0.07905015 R,0,171383,171483,-10.29423,-14.90223 R,0,171483,171484,-14.90223 R,0,171484,171486,-14.90223,-15.08655 R,0,171486,171487,-15.08655 R,0,171487,172183,-15.08655,-13.53395 F,0,171641,171659,0.07905015,1 F,0,171659,171676,1,0 F,0,171676,171903,0 F,0,171903,171946,0,0.04607509 F,0,171946,171955,0.04607509,1 F,0,171955,171972,1,0 F,0,171972,171990,0,1 F,0,171990,172007,1,0 F,0,172007,172095,0,0.02103586 F,0,172095,172129,0.02103586,1 F,0,172129,172147,1,0 F,0,172147,172164,0 F,0,172164,172182,0 F,0,172182,172199,0 R,0,172183,172315,-13.53395,-19.04307 F,0,172199,172217,0 F,0,172217,172234,0 F,0,172234,172252,0,0.9948799 F,0,172252,172286,0.9948799,0 F,0,172286,172321,0 R,0,172315,172323,-19.04307 F,0,172321,172825,0 R,0,172323,172324,-19.04307 R,0,172324,172333,-19.04307,-19.32979 R,0,172333,172349,-19.32979,-19.39123 R,0,172349,173303,-19.39123,-16.84715 F,0,172825,172845,0,0.1004794 F,0,172845,172862,0.1004794,1 F,0,172862,172879,1,0 F,0,172879,173002,0 F,0,173002,173054,0,1 F,0,173054,173071,1,0 F,0,173071,173124,0 F,0,173124,173141,0 F,0,173141,173159,0 F,0,173159,173176,0 F,0,173176,173193,0 F,0,173193,173211,0 F,0,173211,173455,0 R,0,173303,174187,-16.84715,-13.57687 F,0,173455,173490,0,1 F,0,173490,173507,1,0 F,0,173507,173664,0 F,0,173664,173682,0 F,0,173682,173891,0 F,0,173891,173909,0,1 F,0,173909,173926,1,0 F,0,173926,173961,0 F,0,173961,173978,0 F,0,173978,174048,0 F,0,174048,174068,0,0.1171558 F,0,174068,174069,0.1171558 F,0,174069,174078,0.1171558 F,0,174078,174080,0.1171558 F,0,174080,174100,0.1171558,0 F,0,174100,174118,0 F,0,174118,174275,0 R,0,174187,174937,-13.57687,-11.47376 F,0,174275,174293,0,0.1069158 F,0,174293,174310,0.1069158,0 F,0,174310,174467,0 F,0,174467,174502,0,1 F,0,174502,174519,1,0 F,0,174519,174536,0,1 F,0,174536,174554,1,0 F,0,174554,174571,0 F,0,174571,174728,0 F,0,174728,174741,0,0.07270417 F,0,174741,174781,0.07270417,0 F,0,174781,174793,0,0.09318406 F,0,174793,174797,0.09318406 F,0,174797,174809,0.09318406,0.1187842 F,0,174809,174833,0.1187842,0 F,0,174833,174955,0 R,0,174937,175039,-11.47376,-15.87696 F,0,174955,174990,0,0.1772734 F,0,174990,175025,0.1772734,0 F,0,175025,175042,0,1 R,0,175039,175043,-15.87696 F,0,175042,175060,1,0 R,0,175043,175045,-15.87696 R,0,175045,175046,-15.87696 R,0,175046,175053,-15.87696 R,0,175053,175071,-15.87696,-15.7336 F,0,175060,175129,0 R,0,175071,175555,-15.7336,-13.23025 F,0,175129,175164,0,1 F,0,175164,175182,1,0 F,0,175182,175199,0,0.01234168 F,0,175199,175234,0.01234168,0 F,0,175234,175252,0,0.9846399 F,0,175252,175269,0.9846399,0 F,0,175269,175356,0 F,0,175356,175409,0 F,0,175409,175426,0 F,0,175426,175618,0 R,0,175555,175655,-13.23025,-16.81425 F,0,175618,175635,0,1 F,0,175635,175653,1,0 F,0,175653,175845,0 R,0,175655,175663,-16.81425,-16.65041 R,0,175663,175664,-16.65041 R,0,175664,175665,-16.65041 R,0,175665,175675,-16.65041,-16.42513 R,0,175675,176307,-16.42513,-11.5413 F,0,175845,175879,0 F,0,175879,175897,0 F,0,175897,175914,0 F,0,175914,176089,0 F,0,176089,176106,0 F,0,176106,176124,0 F,0,176124,176141,0,0.0835199 F,0,176141,176176,0.0835199,0 F,0,176176,176193,0,1 F,0,176193,176211,1,0 F,0,176211,176228,0,1 F,0,176228,176246,1,0 F,0,176246,176263,0 F,0,176263,176350,0,0.08062015 R,0,176307,177043,-11.5413,-5.087118 F,0,176350,176368,0.08062015,0 F,0,176368,176385,0,1 F,0,176385,176403,1,0 F,0,176403,176420,0 F,0,176420,176560,0 F,0,176560,176595,0 F,0,176595,176612,0 F,0,176612,176664,0 F,0,176664,176682,0,1 F,0,176682,176699,1,0 F,0,176699,176717,0 F,0,176717,176752,0 F,0,176752,176769,0 F,0,176769,176786,0 F,0,176786,176821,0 F,0,176821,176839,0 F,0,176839,176856,0,0.08071028 F,0,176856,176874,0.08071028,1 F,0,176874,176891,1,0 F,0,176891,176909,0 F,0,176909,176926,0,0.08343343 F,0,176926,176943,0.08343343,0 F,0,176943,176961,0,0.805831 F,0,176961,176978,0.805831,0 F,0,176978,176996,0 F,0,176996,177013,0 F,0,177013,177031,0 F,0,177031,177048,0,0.9743999 R,0,177043,177048,-5.087118,-50 F,0,177048,177066,0.9743999,0.1295999 R,0,177048,177536,-50,0 F,0,177066,177083,0.1295999,0 F,0,177083,177100,0 F,0,177100,177118,0 F,0,177118,177135,0,1 F,0,177135,177153,1,0 F,0,177153,177170,0 F,0,177170,177188,0 F,0,177188,177205,0 F,0,177205,177222,0 F,0,177222,177240,0,1 F,0,177240,177275,1,0 F,0,177275,177292,0 F,0,177292,177310,0 F,0,177310,177327,0 F,0,177327,177345,0,1 F,0,177345,177362,1,0 F,0,177362,177379,0 F,0,177379,177414,0 F,0,177414,177432,0,0.2755412 F,0,177432,177449,0.2755412,0 F,0,177449,177467,0 F,0,177467,177484,0,1 F,0,177484,177502,1,0 F,0,177502,177536,0,1
Sprite,Foreground,Centre,"sprogbg.jpg",320,240 M,0,21118,21257,320,240,320,726 F,0,21118,21257,1,0
//Storyboard Sound Samples
//Background Colour Transformations
3,100,0,0,0

[TimingPoints]
13723,279.06976744186,4,1,0,79,1,0
14211,-50,4,1,0,100,0,0
14699,-100,4,1,0,100,0,0
15397,-50,4,1,0,100,0,0
15816,-100,4,1,0,100,0,0
16513,-50,4,1,0,100,0,0
16932,-100,4,1,0,100,0,0
17629,-50,4,1,0,100,0,0
17978,-100,4,1,0,100,0,0
18746,-50,4,1,0,100,0,0
19164,-100,4,1,0,100,0,0
19862,-50,4,1,0,100,0,0
22583,-50,4,1,0,79,0,0
30397,-100,4,1,0,100,0,0
45118,-50,4,1,0,100,0,0
49374,-100,4,1,0,100,0,0
50350,-50,4,1,0,100,0,0
53978,-100,4,1,0,100,0,0
62560,-50,4,1,0,79,0,0
67301,-100,4,1,0,45,0,0
68417,-100,4,1,0,57,0,0
69533,-100,4,1,0,72,0,0
71769,-100,4,1,0,100,0,0
73095,-50,4,1,0,100,0,0
73967,-100,4,1,0,100,0,0
75327,-50,4,1,0,100,0,0
76164,-100,4,1,0,100,0,0
77560,-50,4,1,0,100,0,0
78257,-100,4,1,0,100,0,0
78676,-50,4,1,0,100,0,0
79374,-100,4,1,0,100,0,0
80350,-50,4,1,0,100,0,0
80629,-100,4,1,0,100,0,0
82025,-50,4,1,0,100,0,0
82862,-100,4,1,0,100,0,0
83281,-100,4,1,0,100,0,0
84257,-50,4,1,0,100,0,0
85095,-100,4,1,0,100,0,0
85513,-100,4,1,0,100,0,0
88722,-50,4,1,0,100,0,0
89002,-50,4,1,0,0,0,0
89211,-100,4,1,0,100,0,0
133164,-200,4,2,0,100,0,0
134002,-50,4,1,0,70,0,0
136443,-50,4,1,0,79,0,0
200106,-100,4,1,0,79,0,0
204467,-50,4,1,0,79,0,0

[Colours]
Combo1 : 128,0,0
Combo2 : 255,0,0
Combo3 : 128,0,0
Combo4 : 128,0,128

[HitObjects]
40,120,13723,2,0,C|64:56|168:24,1,130
391,348,14002,6,0,C|448:328|472:264,1,130
256,64,14420,6,0,C|256:360,1,260
472,120,14839,6,0,C|448:56|344:24,1,130
120,348,15118,6,0,C|64:328|40:264,1,130
256,64,15536,6,0,C|256:360,1,260
32,192,15955,6,0,C|192:192,1,130
480,192,16234,6,0,C|320:192,1,130
256,64,16653,6,0,C|256:360,1,260
480,192,17071,6,0,C|320:192,1,130
32,192,17350,6,0,C|192:192,1,130
256,328,17769,6,0,C|256:32,1,260
112,240,18188,6,0,C|176:240|160:304,1,130
392,152,18467,6,0,C|328:152|344:88,1,130
256,328,18885,6,0,C|256:32,1,260
400,240,19304,6,0,C|336:240|352:304,1,130
120,152,19583,6,0,C|184:152|168:88,1,130
256,328,20002,6,0,C|256:32,1,260
256,64,20420,6,0,C|256:360,3,260
256,64,21118,6,0,C|256:360,1,260
40,192,21536,5,0
72,272,21676,5,0
136,328,21816,5,0
216,352,21955,5,0
304,352,22095,5,0
384,328,22234,5,0
448,272,22374,5,0
480,192,22513,5,0
368,192,22653,6,0,L|328:200|336:160|296:176|304:136|272:152|272:112|240:128,1,260,4|8
136,64,22932,6,0,L|144:104|104:96|120:136|80:128|96:160|56:160|72:192,1,260,0|8
184,249,23211,6,0,L|201:241|201:281|233:265|225:305|265:289|257:329|297:321,1,260,0|8
288,216,23490,6,8,L|280:200|320:200|304:168|344:176|328:136|368:144|360:104,1,260,0|8
264,24,23769,6,0,L|272:64|232:56|248:96|208:88|224:120|184:120|192:137,1,260,4|8
112,72,24048,6,0,L|120:112|80:104|96:144|56:136|72:168|32:168|40:185,1,260,0|8
304,152,24327,6,0,L|312:192|272:184|288:224|248:216|264:248|224:248|232:265,1,260,0|8
336,264,24606,6,0,L|376:256|368:296|408:280|400:320|432:304|432:344|448:336,1,260,0|8
176,216,24885,6,0,L|169:200|209:200|193:168|233:176|217:136|257:144|249:104,1,260,4|8
152,120,25164,6,0,L|136:127|136:87|104:103|112:63|72:79|80:39|40:47,1,260,0|8
424,48,25443,6,0,L|433:90|393:82|409:122|369:114|385:146|345:146|352:162,1,260,0|8
248,320,25723,6,0,L|241:304|281:304|265:272|305:280|289:240|329:248|321:208,1,260,0|8
72,344,26002,6,0,L|65:328|105:328|89:296|129:304|113:264|153:272|145:232,1,260,4|8
224,152,26281,6,0,L|217:136|257:136|241:104|281:112|265:72|305:80|297:40,1,260,0|8
432,344,26560,6,0,L|416:351|416:311|384:327|392:287|352:303|360:263|320:271,1,260,0|8
208,272,26839,6,0,L|166:264|174:304|134:288|142:328|110:312|110:352|88:344,1,260,0|8
120,200,27118,6,0,L|128:176|136:216|144:168|152:216|160:176|168:216|176:168|184:216|192:176|200:216|208:168|216:216|224:176,3,520,4|8|4|8
392,200,28234,6,0,L|384:176|376:216|368:168|360:216|352:176|344:216|336:168|328:216|320:176|312:216|304:168|296:216|288:176,3,520,4|8|4|8
256,40,29350,6,0,L|256:48|272:56|240:56|240:80|272:80|272:104|240:104|240:128|272:128|256:144|256:184,6,260,0|8|0|8|0|8|8
160,192,30467,6,0,B|152:264|216:320,1,130
352,192,30746,2,0,B|360:264|296:320,1,130
112,216,31025,6,0,B|104:288|168:344,1,130
400,216,31304,2,0,B|408:288|344:344,1,130
256,240,31583,5,4
280,256,36048,6,0,B|376:312|208:448|152:256|240:256,1,260
280,128,36606,6,0,B|376:72|208:-64|152:128|240:128,1,260
280,256,37164,6,0,B|376:312|208:448|152:256|240:256,1,260
280,128,37723,6,0,B|376:72|208:-64|152:128|240:128,1,260
304,184,38281,6,0,B|456:104|312:376|480:272,1,260
216,192,38839,6,0,B|64:112|208:384|40:280,1,260
304,248,39397,6,0,L|304:368|360:344|360:240,1,260
216,136,39955,6,0,L|216:16|160:40|160:144,1,260
256,240,40374,1,0
168,312,40513,6,0,B|72:320|32:256|8:184|72:104,1,260
344,312,41071,6,0,B|440:320|480:256|504:184|440:104,1,260
256,192,41629,6,0,B|192:88|24:360|32:128,1,260
256,192,42188,6,0,B|320:296|488:24|480:256,1,260
56,112,42746,6,0,B|168:-64|280:160,1,260
456,272,43304,6,0,B|344:448|232:224,1,260
256,192,43862,12,0,44978
120,104,45257,6,0,C|408:104,6,260
384,288,46374,6,0,C|96:288,6,260
120,192,47490,6,0,C|408:192,6,260
256,352,48606,5,0
256,352,48885,6,0,C|256:72,2,260
256,352,49304,5,0
256,352,49443,6,0,B|120:216,1,130
256,92,49723,6,0,B|384:220,1,130
256,224,50002,5,0
256,224,50281,1,0
344,314,50420,6,0,C|136:102,1,260
161,128,50839,6,0,C|344:314,1,260
344,314,51257,6,0,C|136:102,1,260
161,128,51676,6,0,C|344:314,1,260
168,314,52095,6,0,C|376:102,1,260
350,128,52513,6,0,C|168:314,1,260
168,314,52932,6,0,C|376:102,1,260
256,192,53350,5,0
256,192,53490,6,0,B|256:112,13,65
208,256,54048,6,0,B|160:320|80:288,1,130
304,256,54327,6,0,B|352:320|432:288,1,130
256,336,54746,1,0
144,120,55025,6,0,B|56:176|152:216,1,130
368,120,55304,6,0,B|456:176|360:216,1,130
256,168,55583,5,0
256,176,55862,1,0
376,248,56141,6,0,B|472:344,1,130
136,248,56420,6,0,B|40:344,1,130
256,248,56699,5,0
256,240,56978,1,0
256,48,57257,5,0
96,152,57397,5,0
160,328,57536,5,0
352,328,57676,5,0
416,144,57816,5,0
40,256,58374,6,0,B|168:288|16:312,1,130
469,307,58653,6,0,B|344:288|472:256,1,130,0|0
256,272,58932,5,0
256,272,59211,1,0
176,112,59490,6,0,B|104:184|24:96,1,130
336,112,59769,6,0,B|408:40|488:128,1,130,0|0
256,112,60048,5,0
256,112,60327,1,0
56,192,60606,6,0,B|216:192,1,130
456,192,60885,6,0,B|296:192,1,130
254,192,61164,5,0
254,192,61443,1,0
256,352,61723,5,0
176,280,61862,5,0
344,200,62002,5,0
104,128,62141,5,0
408,56,62281,5,0
120,192,62839,6,0,L|128:176|136:208|144:184|152:200|160:176|168:208|176:192|184:208|192:176|200:200|208:184|216:208|224:176,4,260
112,192,63676,5,0
392,192,63955,6,0,L|384:176|376:208|368:184|360:200|352:176|344:208|336:192|328:208|320:176|312:200|304:184|296:208|288:176,4,260
400,192,64792,5,0
256,56,65071,6,0,L|240:64|272:72|248:80|264:88|240:96|272:104|256:112|272:120|240:128|264:136|248:144|272:152|240:160,4,260
256,48,65909,5,0
256,328,66188,6,0,L|240:320|272:312|248:304|264:296|240:288|272:280|256:272|272:264|240:256|264:248|248:240|272:232|240:224,4,260
256,336,67025,5,0
256,168,67304,5,4
256,168,67583,5,4
256,168,67862,5,4
256,168,68141,5,4
256,168,68420,5,0
256,168,68560,1,0
256,168,68699,1,0
256,168,68839,1,0
256,168,68978,5,0
256,168,69118,1,0
256,168,69257,1,0
256,168,69397,1,0
256,168,69536,5,0
256,168,69606,1,0
256,168,69676,1,0
256,168,69746,1,0
256,168,69816,5,0
256,168,69885,1,0
256,168,69955,1,0
256,168,70025,1,0
256,168,70095,5,0
256,168,70164,1,0
256,168,70234,1,0
256,168,70304,1,0
256,168,70374,5,0
256,168,70443,1,0
256,168,70513,1,0
256,168,70583,1,0
256,168,70653,6,0,B|256:232,24,32.5
256,168,71629,5,0
256,168,71769,6,0,B|76:134|13:305,1,260
120,360,72327,6,0,B|168:104|192:384,1,260
190,359,72746,6,0,B|238:103|262:383,1,260
260,358,73164,6,0,B|308:102|332:382,1,260
330,357,73443,6,0,B|378:101|402:381,1,260
400,357,73722,6,0,B|448:101|472:381,1,260
469,356,74002,6,0,B|472:56,1,260
472,96,74560,6,0,B|424:352|400:72,1,260
402,97,74978,6,0,B|354:353|330:73,1,260
332,98,75397,6,0,B|284:354|260:74,1,260
262,99,75676,6,0,B|214:355|190:75,1,260
192,99,75955,6,0,B|144:355|120:75,1,260
122,99,76234,6,0,B|32:240|160:392,1,260
127,343,76792,6,0,B|175:87|199:367,1,260
197,342,77211,6,0,B|245:86|269:366,1,260
267,341,77629,6,0,B|315:85|339:365,1,260
337,340,78048,6,0,B|385:84|409:364,1,260
407,340,78327,6,0,B|455:84|479:364,1,260
476,339,78746,6,0,B|455:73|395:389,1,260
405,338,79164,6,0,B|456:76|481:382,1,260
476,339,79443,6,0,B|522:185|460:66,1,260
467,84,79862,6,0,B|251:156|45:71,1,390
80,344,80420,6,0,B|128:88|152:368,1,260
150,343,80699,6,0,B|198:87|222:367,1,260
220,342,81257,6,0,B|268:86|292:366,1,260
290,341,81676,6,0,B|338:85|362:365,1,260
360,341,82095,6,0,B|408:85|432:365,1,260
360,341,82374,6,0,B|408:85|432:365,1,260
360,341,82653,6,0,B|408:85|432:365,1,260
429,340,82932,6,0,B|472:192|440:56,1,260
446,81,83490,6,0,B|398:337|374:57,1,260
378,81,83909,6,0,B|330:337|306:57,1,260
308,82,84327,6,0,B|260:338|236:58,1,260
238,82,84606,6,0,B|190:338|166:58,1,260
169,83,84885,6,0,B|121:339|97:59,1,260
99,83,85164,6,0,B|31:214|120:375,1,260
99,332,85722,6,0,B|168:246|352:273,1,260
340,271,86141,6,0,B|426:119|307:17,1,260
323,32,86560,6,0,B|286:104|202:98,1,130
219,98,86978,6,0,B|207:187|108:192,1,130
138,188,87257,6,0,B|292:141|410:196,1,260
392,188,87676,6,0,B|342:248|381:332,1,130
372,310,88095,6,0,B|304:352|232:312,1,130
247,319,88374,6,0,B|152:352|48:288|88:168,1,260
144,184,88792,6,0,B|168:72|344:32|424:128|424:240|336:296|232:280|192:240|176:168|232:128|280:160|320:176|296:192,1,520
56,48,98560,6,0,B|120:344,1,260
176,288,98978,6,0,C|144:144,1,130
207,144,99257,2,0,C|236:271,1,130
236,271,99536,1,0
456,48,99676,6,0,B|392:344,1,260
336,288,100095,6,0,C|368:144,1,130
304,144,100374,2,0,C|276:271,1,130
276,271,100653,1,0
40,72,100792,6,0,B|112:-32|184:168|280:40,1,260
328,80,101211,6,0,B|296:144|216:152,1,130
263,200,101490,2,0,B|334:194|368:128,1,130
365,130,101769,1,0
40,320,101909,6,0,B|112:424|184:224|280:352,1,260
328,304,102327,6,0,B|296:240|216:232,1,130
263,183,102606,2,0,B|334:190|368:256,1,130
365,254,102885,1,0
256,64,103025,6,0,B|64:64|104:264,1,260
97,220,103443,6,0,B|200:176|240:280,1,130
215,236,103722,2,0,B|224:328|336:304,1,130
303,308,104002,1,0
303,308,104141,6,0,B|288:224|320:120|440:80,1,260
410,92,104560,6,0,B|352:24|280:56,1,130
295,50,104839,2,0,B|240:120|160:96,1,130
182,100,105118,1,0
182,100,105257,6,0,B|224:224|112:312|48:304,1,260
72,302,105676,6,0,B|144:376|232:344,1,130
186,353,105955,1,0
186,353,106234,6,0,B|232:240|416:248,1,260
405,247,106792,6,0,B|448:72|256:48,1,260
289,53,107350,1,0
296,344,107490,5,0
312,344,107560,1,0
328,344,107629,1,0
168,288,107769,6,0,B|16:288,1,130
280,224,108048,6,0,B|144:224,1,130
384,160,108327,6,0,B|232:160,1,130
480,104,108606,5,0
480,88,108676,1,0
480,72,108745,1,0
424,232,108885,6,0,B|424:384,1,130
360,120,109164,6,0,B|360:256,1,130
296,16,109443,6,0,B|296:168,1,130
216,344,109722,5,0
200,344,109792,1,0
184,344,109861,1,0
344,288,110001,6,0,B|496:288,1,130
232,224,110280,6,0,B|368:224,1,130
128,160,110559,6,0,B|280:160,1,130
104,232,110839,5,0
104,248,110909,1,0
104,264,110978,1,0
160,144,111118,6,0,B|160:-8,1,130
224,256,111397,6,0,B|224:120,1,130
288,360,111676,5,0
288,344,111746,1,0
288,328,111816,1,0
288,312,111885,1,0
288,296,111955,2,0,B|376:120|176:160,2,260
392,224,112653,6,0,B|304:400|504:360,2,260,0|0|0
128,224,113350,6,0,B|40:232,2,65
392,144,113629,6,0,B|472:144,2,65
128,72,113909,6,0,B|40:64,2,65
288,248,114188,6,0,B|344:392|168:392|232:240,1,260
288,136,114606,6,0,B|344:-8|168:-8|232:144,2,260
256,192,115304,1,0
48,48,115443,5,0
464,48,115722,5,0
256,344,116002,5,0
256,344,116141,1,0
48,104,116420,6,0,B|56:392,1,260
464,104,116839,5,0
464,104,116978,2,0,B|448:392,1,260
48,104,117397,5,0
48,104,117536,2,0,B|32:264|224:320,1,260
464,104,117955,5,0
464,104,118095,2,0,B|480:264|288:320,1,260
176,368,118513,5,0
176,368,118653,2,0,B|8:288|152:128,1,260
336,368,119071,5,0
336,368,119211,2,0,B|504:288|360:128,1,260
256,192,119629,5,0
256,192,119769,2,0,B|112:232|176:56|32:88,1,260
256,192,120188,5,0
256,192,120327,2,0,B|400:232|336:56|480:88,1,260
296,272,120746,5,0
296,272,120885,2,0,B|336:128|160:192|192:48,1,260
216,272,121304,5,0
216,272,121443,2,0,B|176:128|352:192|320:48,1,260
256,31,121862,5,0
256,32,122002,2,0,B|256:208|56:208,1,260
101,205,122420,5,0
103,207,122560,2,0,B|258:205|258:381,1,260,0|0
258,373,122978,5,0
259,373,123118,2,0,B|257:201|457:201,1,260
415,203,123536,5,0
415,203,123676,2,0,B|260:205|260:29,1,260,0|0
72,64,124094,5,0
72,64,124234,2,0,B|48:248|248:168,1,260
152,320,124652,5,0
152,320,124792,2,0,B|128:136|328:216,1,260
232,64,125210,5,0
232,64,125350,2,0,B|208:248|408:168,1,260
304,320,125769,5,0
304,320,125909,2,0,B|280:136|480:216,1,260
168,320,126327,5,0
168,320,126467,2,0,B|192:56,1,260,0|0
384,120,126885,5,0
384,120,127025,2,0,B|88:96,1,260
336,56,127443,5,0
336,56,127583,2,0,B|312:328,1,260
112,248,128002,5,0
112,248,128141,2,0,B|408:272,1,260
72,144,128560,5,0
72,144,128700,2,0,B|248:200|104:368,1,260
184,112,129118,5,0
184,112,129258,2,0,B|360:168|216:336,1,260
440,240,129676,5,0
440,240,129816,2,0,B|264:184|408:16,1,260
328,272,130234,5,0
328,272,130374,2,0,B|152:216|296:48,1,260
24,200,130793,5,0
24,200,130932,2,0,B|112:96|152:312|280:168,1,260
488,184,131351,5,0
488,184,131490,2,0,B|400:288|360:72|232:216,1,260
256,192,131909,1,0
256,208,133374,5,0
256,240,133513,1,0
256,256,133583,1,0
256,304,133792,1,0
256,88,134281,6,0,L|288:96|224:104|288:112|224:120|288:128|224:136|288:144|224:152|288:160|224:168|288:176|224:184|288:192|224:200|288:208|224:216|288:224|224:232|288:240|224:248|288:256|224:264|288:272|224:280|256:296|256:320,1,1560
256,303,135536,5,0
256,303,135816,1,0
256,303,136095,1,0
256,303,136374,1,0
104,56,136513,6,0,L|128:72|96:88|120:104|104:120|136:136|96:152|120:168|104:184|128:200|104:216,1,260
208,56,136792,6,0,L|232:72|200:88|224:104|208:120|240:136|200:152|224:168|208:184|232:200|208:216,1,260
312,56,137071,6,0,L|336:72|304:88|328:104|312:120|344:136|304:152|328:168|312:184|336:200|312:216,1,260
416,56,137350,6,0,L|440:72|408:88|432:104|416:120|448:136|408:152|432:168|416:184|440:200|416:216,1,260
104,328,137629,6,0,L|128:312|96:296|120:280|104:264|136:248|96:232|120:216|104:200|128:184|104:168,1,260
208,328,137909,6,0,L|232:312|200:296|224:280|208:264|240:248|200:232|224:216|208:200|232:184|208:168,1,260
312,328,138188,6,0,L|336:312|304:296|328:280|312:264|344:248|304:232|328:216|312:200|336:184|312:168,1,260
416,328,138467,6,0,L|440:312|408:296|432:280|416:264|448:248|408:232|432:216|416:200|440:184|416:168,1,260
144,120,138746,6,0,L|186:111|178:151|218:135|210:175|242:159|242:199|258:192,1,260,0|0
120,200,139025,6,0,L|136:176|152:208|168:184|184:200|200:168|216:208|232:184|248:200|264:176|280:200,1,260
184,304,139304,6,0,L|175:262|215:270|199:230|239:238|223:206|263:206|256:190,1,260,0|0
264,328,139583,6,0,L|240:312|272:296|248:280|264:264|232:248|272:232|248:216|264:200|240:184|264:168,1,260
368,264,139862,6,0,L|326:273|334:233|294:249|302:209|270:225|270:185|254:192,1,260,0|0
392,184,140141,6,0,L|376:208|360:176|344:200|328:184|312:216|296:176|280:200|264:184|248:208|232:184,1,260
328,80,140420,6,0,L|337:122|297:114|313:154|273:146|289:178|249:178|256:194,1,260,0|0
248,56,140699,6,0,L|272:72|240:88|264:104|248:120|280:136|240:152|264:168|248:184|272:200|248:216,1,260
257,192,140978,6,0,L|242:199|242:159|210:175|218:135|178:151|186:111|144:120,1,260,0|0
256,192,141257,6,0,L|240:216|224:184|208:208|192:192|176:224|160:184|144:208|128:192|112:216|96:192,1,260
256,190,141536,6,0,L|263:206|223:206|239:238|199:230|215:270|175:262|184:304,1,260,0|0
256,192,141816,6,0,L|280:208|248:224|272:240|256:256|288:272|248:288|272:304|256:320|280:336|256:352,1,260
254,191,142095,6,0,L|270:185|270:225|302:209|294:249|334:233|326:273|368:264,1,260,0|0
256,192,142374,6,0,L|272:168|288:200|304:176|320:192|336:160|352:200|368:176|384:192|400:168|416:192,1,260
255,193,142653,6,0,L|249:178|289:178|273:146|313:154|297:114|337:122|328:80,1,260,0|0
252,191,142932,6,0,L|240:200|264:184|248:168|272:152|232:136|264:120|248:104|272:88|240:72|264:56,1,260
256,192,143211,12,0,145443
256,192,156048,12,4,159676
104,64,159955,6,0,L|112:384,2,260,4|0|0
256,64,160374,6,0,L|256:384,2,260
408,64,160792,6,0,L|400:384,2,260
336,112,161211,5,0
336,112,161281,1,0
336,112,161350,1,0
256,64,161490,5,0
176,104,161629,1,0
256,144,161769,5,0
336,184,161909,1,0
256,224,162048,1,0
408,320,162188,6,0,L|416:0,2,260
256,320,162606,6,0,L|256:0,2,260
104,320,163025,6,0,L|96:0,2,260
104,328,163374,1,0
104,336,163443,1,0
104,344,163513,1,0
104,352,163583,1,0
256,280,163722,5,0
256,112,163862,1,0
256,280,164002,5,0
256,112,164141,1,0
256,280,164281,1,0
104,64,164420,6,0,L|112:384,2,260
256,64,164839,6,0,L|256:384,2,260
408,64,165257,6,0,L|400:384,2,260
136,112,165676,5,0
136,112,165746,1,0
136,112,165816,1,0
256,56,165955,5,0
376,112,166095,1,0
256,160,166234,5,0
136,208,166374,1,0
256,264,166513,5,0
408,320,166653,6,0,L|416:0,2,260
256,320,167071,6,0,L|256:0,2,260
104,320,167490,6,0,L|96:0,2,260
104,328,167839,1,0
104,336,167909,1,0
104,344,167978,1,0
104,352,168048,1,0
256,320,168188,5,0
256,56,168327,1,0
256,320,168467,5,0
256,56,168606,1,0
208,40,168885,6,0,L|248:344,2,260
256,72,169304,6,0,L|232:360,2,260
296,120,169722,6,0,L|224:400,2,260
424,112,170141,5,0
424,112,170211,1,0
424,112,170281,1,0
456,240,170420,5,0
416,360,170560,1,0
288,320,170699,5,0
168,360,170839,1,0
128,240,170978,5,0
160,112,171118,6,0,L|440:112,2,260
360,176,171536,6,0,L|56:176,2,260
168,240,171955,6,0,L|464:240,2,260
152,240,172304,1,0
136,240,172374,1,0
120,240,172443,1,0
104,240,172513,1,0
104,368,172653,5,0
232,352,172792,1,0
240,224,172932,5,0
368,200,173071,1,0
368,72,173211,5,0
256,192,173350,6,0,B|72:136|80:344,2,260
256,192,173769,6,0,B|440:248|432:40,2,260
256,192,174188,6,0,B|72:136|80:344,2,260
256,192,174606,5,0
256,192,174676,1,0
256,192,174746,1,0
176,152,174885,5,0
176,64,175025,1,0
256,32,175164,5,0
336,64,175304,1,0
336,152,175443,5,0
256,192,175583,6,0,B|440:136|432:344,2,260
256,192,176002,6,0,B|72:248|80:40,2,260
256,192,176420,6,0,B|440:136|432:344,2,260
256,192,176769,5,0
256,192,176839,1,0
200,72,176978,5,0
80,120,177118,1,0
128,240,177257,5,0
256,192,177397,1,0
256,344,177536,5,6
56,88,177816,6,0,L|376:88,1,260
136,216,178234,6,0,L|416:216,1,260
176,296,178513,6,0,L|448:296,1,260
176,296,178932,6,0,L|176:24,1,260
336,344,179350,6,0,L|336:80,1,260
432,296,179629,6,0,L|432:24,1,260
384,88,180048,6,0,L|88:160,1,260
336,224,180467,6,0,L|32:296,1,260
304,312,180746,6,0,L|8:384,1,260
256,48,181164,6,0,B|152:136|392:200|232:288,1,260
248,56,181583,6,0,B|144:144|384:208|224:296,1,260
240,64,181862,6,0,B|136:152|376:216|216:304,1,260
112,216,182281,6,0,L|392:64,1,260
328,320,182699,6,0,L|152:120,1,260
512,232,182978,6,0,L|232:168,1,260
64,56,183397,6,0,L|144:312,1,260
424,64,183816,6,0,L|128:112,1,260
392,128,184095,6,0,L|232:360,1,260
144,224,184513,6,0,L|384:64,1,260
232,296,184932,6,0,L|64:72,1,260
472,112,185211,6,0,L|376:360,1,260
248,192,185629,5,0
248,192,185699,1,0
248,192,185769,1,0
248,192,185909,1,0
248,192,186048,5,0
224,360,186746,5,0
288,32,187025,5,0
288,360,187304,5,0
224,32,187583,5,0
88,224,187862,5,0
424,160,188141,5,0
88,160,188420,5,0
424,224,188699,5,0
168,360,188978,5,0
344,32,189257,5,0
344,360,189536,5,0
168,32,189816,5,0
32,264,190095,5,0
480,128,190374,5,0
32,128,190653,5,0
480,264,190932,5,0
160,184,191211,5,0
320,48,191490,5,0
128,336,191769,5,0
280,256,192048,5,0
424,192,192327,5,0
80,200,192606,5,0
232,56,192885,5,0
344,320,193164,5,0
464,40,193443,5,0
80,80,193722,5,0
440,304,194002,5,0
152,328,194281,5,0
376,152,194560,5,0
320,304,194839,5,0
152,56,195118,5,0
256,192,195397,5,0
24,80,195676,5,0
32,88,195816,1,0
88,88,195955,5,0
96,96,196095,1,0
152,96,196234,5,0
160,104,196374,1,0
216,104,196513,5,0
224,112,196653,1,0
280,112,196792,5,0
288,120,196932,1,0
344,120,197071,5,0
352,128,197211,1,0
408,128,197350,5,0
416,136,197490,1,0
472,136,197629,5,0
480,144,197769,1,0
480,216,197909,5,0
472,208,198048,1,0
424,224,198188,5,0
416,216,198327,1,0
368,232,198467,5,0
360,224,198606,1,0
312,240,198746,5,0
304,232,198885,1,0
256,248,199025,5,0
248,240,199164,1,0
200,256,199304,5,0
192,248,199443,1,0
144,264,199583,5,0
136,256,199722,1,0
88,272,199862,5,0
80,264,200002,1,0
48,120,200141,6,0,B|40:40,3,65
56,128,200420,6,0,B|64:208,3,65
104,128,200699,6,0,B|96:48,3,65
112,136,200978,6,0,B|120:216,3,65
176,136,201257,6,0,B|168:56,3,65
184,144,201536,6,0,B|192:224,3,65
232,144,201815,6,0,B|224:64,3,65
240,152,202094,6,0,B|248:232,3,65
304,152,202374,6,0,B|296:72,3,65
312,160,202653,6,0,B|320:240,3,65
360,160,202932,6,0,B|352:80,3,65
368,168,203211,6,0,B|376:248,3,65
432,176,203490,6,0,B|424:96,3,65
440,184,203769,6,0,B|448:264,3,65
480,184,204048,6,0,B|472:104,3,65
488,192,204327,6,0,B|496:272,3,65
40,160,204606,6,0,L|32:240,3,65
48,208,204746,2,0,L|40:128,3,65
64,184,204885,2,0,L|56:264,3,65
80,240,205025,2,0,L|72:160,3,65
96,192,205164,6,0,L|88:272,3,65
104,200,205304,2,0,L|96:120,3,65
120,208,205443,2,0,L|112:288,3,65
136,232,205583,2,0,L|128:152,3,65
160,216,205722,6,0,L|152:296,3,65
168,200,205862,2,0,L|160:120,3,65
184,224,206001,2,0,L|176:304,3,65
200,200,206141,2,0,L|192:120,3,65
216,224,206280,6,0,L|208:304,3,65
232,232,206420,2,0,L|224:144,3,65
256,208,206559,2,0,L|248:288,3,65
264,192,206699,2,0,L|256:112,3,65
288,200,206838,6,0,L|280:280,3,65
296,184,206978,2,0,L|288:104,3,65
312,208,207117,2,0,L|304:288,3,65
328,208,207257,2,0,L|320:128,3,65
344,216,207396,6,0,L|336:296,3,65
352,200,207536,2,0,L|344:120,3,65
368,192,207675,2,0,L|360:272,3,65
376,176,207815,2,0,L|368:96,3,65
392,192,207954,6,0,L|384:272,3,65
408,184,208094,2,0,L|400:104,3,65
424,200,208233,2,0,L|416:280,3,65
448,192,208373,2,0,L|440:112,3,65
456,200,208512,6,0,L|448:280,3,65
256,48,208757,5,4
248,200,209071,6,0,B|240:256,31,32.5
232,192,209629,6,0,B|192:160,31,32.5
248,184,210188,6,0,B|280:168,31,32.5
240,176,210746,6,0,B|248:216,31,32.5
256,192,211304,6,0,B|264:144,31,32.5
256,200,211862,6,0,B|232:168,31,32.5
240,216,212420,6,0,B|248:168,31,32.5
256,200,212978,6,0,B|264:248,15,32.5
256,176,213257,5,4
