osu file format v7

[General]
AudioFilename: 11 StrangeProgram.mp3
AudioLeadIn: 0
PreviewTime: 71485
Countdown: 0
SampleSet: Normal
StackLeniency: 0.3
Mode: 0
LetterboxInBreaks: 0

[Editor]
Bookmarks: 36046,98560,195676,200141
DistanceSpacing: 1
BeatDivisor: 4
GridSize: 8

[Metadata]
Title:StrangeProgram
Artist:DJ Sharpnel
Creator:happy30
Version:Baby Difficulty
Source:
Tags:

[Difficulty]
HPDrainRate:1
CircleSize:3
OverallDifficulty:2
SliderMultiplier:0.6
SliderTickRate:0.5

[Events]
//Background and Video events
//Break Periods
2,31783,34488
2,89829,97000
//Storyboard Layer 0 (Background)
Sprite,Background,Centre,"sprogbg.jpg",320,240 M,0,-90,,320,240 F,0,-90,88513,1
Sprite,Background,Centre,"black.JPG",320,240 F,0,89629,98560,1
//Storyboard Layer 1 (Fail)
//Storyboard Layer 2 (Pass)
//Storyboard Layer 3 (Foreground)
Sprite,Foreground,Centre,"sprogbg.jpg",320,240 M,0,94095,,177,150 S,0,94095,,0.4367999 R,0,94095,,-0.2176001 F,0,94095,96327,1 F,0,96327,,1
Sprite,Foreground,Centre,"sprogbg.jpg",320,240 M,0,96327,,378,257 S,0,96327,,0.6415999 R,0,96327,,0.2048004 F,0,96327,98560,1
Sprite,Foreground,Centre,"sprogbg.jpg",320,240 F,0,98560,136513,1 F,0,136513,,1
Sprite,Foreground,Centre,"red arrow.png",320,240 M,0,75118,,435,266 S,0,75118,,0.5072 R,0,75118,,-2.5984 F,0,75118,75676,0,1 F,0,75676,80141,1
Sprite,Foreground,Centre,"red arrow.png",320,240 M,0,75118,,197,246 S,0,75118,,0.5328 R,0,75118,,-3.7376 F,0,75118,75676,0,1 F,0,75676,80141,1
Sprite,Foreground,Centre,"3+4.png",320,240 F,0,73443,74002,0,1 F,0,74002,76234,1 M,0,74281,,116,124 S,0,74281,,0.3408002 F,0,76234,76792,1,0
Sprite,Foreground,Centre,"6.png",320,240 M,0,75118,,181,275 S,0,75118,,0.3984003 F,0,75118,75676,0,1 F,0,75676,80141,1
Sprite,Foreground,Centre,"7.png",320,240 M,0,75118,,456,288 S,0,75118,,0.4368001 F,0,75118,75676,0,1 F,0,75676,80141,1
Sprite,Foreground,Centre,"sprogbg.jpg",320,240 M,0,31583,,376,307 S,0,31583,,4.0336 F,0,31583,32141,1 F,0,32141,32699,1,0
//Storyboard Sound Samples
//Background Colour Transformations
3,100,163,162,255

[TimingPoints]
13723,279.06976744186,4,1,0,79,1,0
36048,-200,4,1,0,45,0,0
51676,-100,4,1,0,45,0,0
71769,-200,4,1,0,45,0,0
98560,-100,4,1,0,80,0,0
103025,-200,4,1,0,80,0,0
107490,-100,4,1,0,80,0,0
111955,-200,4,1,0,80,0,0
115862,558.139534883721,4,1,0,80,1,0
116420,-200,4,1,0,44,0,0

[Colours]
Combo1 : 128,0,128
Combo2 : 255,0,128
Combo3 : 255,128,255

[HitObjects]
144,48,13722,2,0,B|168:112|248:104,1,120
344,160,14839,2,0,B|320:224|240:216,1,120
192,320,15955,2,0,B|328:320,2,120
72,320,17629,1,8
136,216,18188,6,0,B|136:88,2,120
136,216,19862,1,0
232,144,20420,2,0,B|360:144,2,120
232,144,22095,1,8
304,240,22653,6,0,B|368:240,4,60
184,240,24327,1,8
256,336,24885,6,0,B|192:336,4,60
376,336,26559,1,8
456,224,27118,6,0,B|504:80|344:48,1,240
56,224,29350,2,0,B|8:80|168:48,1,240
256,192,31583,5,4
104,304,36048,6,2,B|232:304,1,120
408,304,38281,2,2,B|280:304,1,120
200,224,40513,5,2
256,112,41629,1,0
304,224,42746,1,2
256,336,43862,6,0,B|256:376,4,30,0|0|0|0|4
256,272,45536,1,0
256,208,46095,1,4
256,48,47211,5,0
256,104,47769,1,0
256,160,48327,1,4
144,192,49443,6,0,B|200:232,1,60
368,192,50560,2,0,B|312:232,1,60
256,296,51676,2,0,B|256:368,4,60
256,296,53350,1,4
192,192,53909,6,2,B|448:192,1,240
248,344,56141,2,2,B|-8:344,1,240
88,120,58374,6,0,B|96:216|168:208|184:120,1,180
208,64,59490,2,0,B|216:-32|288:-24|304:64,1,180
320,120,60606,2,0,B|328:216|400:208|416:120,1,180
415,122,61722,1,0
360,352,62839,5,2
256,40,65071,1,2
152,352,67304,5,2
256,136,68420,1,2
360,352,69536,1,2
432,120,70653,2,0,B|432:192,3,60
432,240,71769,6,0,B|240:240,1,180,4|0
80,328,74002,2,0,B|272:328,1,180,4|0
256,208,76234,6,0,B|320:144|328:104|344:0|280:72|216:64|248:120|256:136|272:120|272:104|176:-24|160:64|192:152|256:208,1,420
312,312,80699,6,0,B|408:312,2,90,4|0|4
200,312,82932,6,0,B|104:312,2,90,4|0|4
256,208,85164,6,0,B|296:160|224:152|256:96,2,120,0|2|0
256,192,87676,12,4,89629
256,288,98560,6,0,B|128:288,1,120,4|0
64,192,99676,2,0,B|64:152|80:128,2,60,0|0|0
184,192,100792,2,0,B|312:192,1,120,4|0
376,96,101908,2,0,B|376:56|360:32,2,60,0|0|0
400,216,103025,6,0,B|400:352,1,120,4|0
112,168,105257,2,0,B|112:32,1,120,4|0
320,200,107490,6,0,B|384:200,2,60,4|0|0
200,200,108606,2,0,B|136:200,2,60,4|0|0
256,304,109722,2,0,B|256:368,6,60,4|0|0|0|4|0|0
320,200,111955,6,0,B|352:144|312:80,1,120,4|0
192,184,114188,2,0,B|160:240|200:304,1,120,4|0
312,80,116420,6,2,B|416:80,1,90
200,80,118652,2,2,B|96:80,1,90
256,160,120885,6,2,B|256:232|200:264,2,120,2|2|6
256,96,126466,5,0
256,32,127582,1,4
256,240,129815,5,0
256,296,130932,1,0
256,352,132048,1,4
256,192,132606,12,4,136513
