osu file format v9

[General]
AudioFilename: 11 StrangeProgram.mp3
AudioLeadIn: 0
PreviewTime: 71485
Countdown: 0
SampleSet: Normal
StackLeniency: 0.3
Mode: 0
LetterboxInBreaks: 0

[Editor]
Bookmarks: 36046,98560,195676,200141
DistanceSpacing: 1
BeatDivisor: 4
GridSize: 8

[Metadata]
Title:StrangeProgram
Artist:DJ Sharpnel
Creator:Myonepiecefreak
Version:Baby Difficulty
Source:
Tags:

[Difficulty]
HPDrainRate:1
CircleSize:3
OverallDifficulty:2
ApproachRate:2
SliderMultiplier:0.400000005960464
SliderTickRate:4

[Events]
//Background and Video events
//Break Periods
2,36657,36980
2,68155,73632
//Storyboard Layer 0 (Background)
Sprite,Background,Centre,"sprogbg.jpg",320,240 M,0,-90,,320,240 F,0,-90,88513,1
Sprite,Background,Centre,"black.JPG",320,240 F,0,89629,98560,1
//Storyboard Layer 1 (Fail)
//Storyboard Layer 2 (Pass)
//Storyboard Layer 3 (Foreground)
Sprite,Foreground,Centre,"sprogbg.jpg",320,240 M,0,94095,,177,150 S,0,94095,,0.4367999 R,0,94095,,-0.2176001 F,0,94095,96327,1 F,0,96327,,1
Sprite,Foreground,Centre,"sprogbg.jpg",320,240 M,0,96327,,378,257 S,0,96327,,0.6415999 R,0,96327,,0.2048004 F,0,96327,98560,1
Sprite,Foreground,Centre,"sprogbg.jpg",320,240 F,0,98560,136513,1 F,0,136513,,1
Sprite,Foreground,Centre,"red arrow.png",320,240 M,0,75118,,435,266 S,0,75118,,0.5072 R,0,75118,,-2.5984 F,0,75118,75676,0,1 F,0,75676,80141,1
Sprite,Foreground,Centre,"red arrow.png",320,240 M,0,75118,,197,246 S,0,75118,,0.5328 R,0,75118,,-3.7376 F,0,75118,75676,0,1 F,0,75676,80141,1
Sprite,Foreground,Centre,"3+4.png",320,240 F,0,73443,74002,0,1 F,0,74002,76234,1 M,0,74281,,116,124 S,0,74281,,0.3408002 F,0,76234,76792,1,0
Sprite,Foreground,Centre,"6.png",320,240 M,0,75118,,181,275 S,0,75118,,0.3984003 F,0,75118,75676,0,1 F,0,75676,80141,1
Sprite,Foreground,Centre,"7.png",320,240 M,0,75118,,456,288 S,0,75118,,0.4368001 F,0,75118,75676,0,1 F,0,75676,80141,1
Sprite,Foreground,Centre,"sprogbg.jpg",320,240 M,0,31583,,376,307 S,0,31583,,4.0336 F,0,31583,32141,1 F,0,32141,32699,1,0
//Storyboard Sound Samples
//Background Colour Transformations
3,100,163,162,255

[TimingPoints]
13689,277.66976744186,4,1,0,79,1,0
41281,-142.857142857143,4,1,0,45,0,0
51676,-100,4,1,0,45,0,0
71769,-200,4,1,0,45,0,0
98560,-100,4,1,0,80,0,0
103025,-200,4,1,0,80,0,0
107490,-100,4,1,0,80,0,0
111955,-200,4,1,0,80,0,0
115862,558.139534883721,4,1,0,80,1,0
116420,-200,4,1,0,44,0,0

[Colours]
Combo1 : 128,0,128
Combo2 : 255,0,128
Combo3 : 255,128,255

[HitObjects]
64,80,13583,1,0
328,112,14799,1,0
48,232,16188,1,0
440,280,18062,1,0
136,96,22574,1,0
144,152,22852,1,0
216,160,23199,1,0
288,136,23546,1,0
280,64,23893,1,0
208,40,24240,1,0
160,64,24448,1,0
136,144,24795,1,0
200,208,25212,1,0
112,224,27017,1,0
168,208,27294,1,0
232,192,27572,1,0
304,168,27919,1,0
368,160,28197,1,0
424,144,28474,1,0
424,144,28752,1,0
416,200,29030,1,0
368,232,29307,1,0
336,72,33125,1,0
296,80,33334,1,0
272,96,33472,1,0
272,136,33681,1,0
304,152,33820,1,0
344,128,34028,1,0
304,120,34236,1,0
272,136,34375,1,0
280,176,34583,1,0
320,176,34791,1,0
296,152,35000,1,0
256,208,35347,1,0
280,176,35555,1,0
272,136,35694,1,0
272,176,35902,1,0
288,184,36110,1,0
272,192,36319,1,0
256,208,36457,1,0
40,144,38540,6,14,B|136:160|136:112|96:104|88:128|16:144|120:128|64:136|128:128|32:136|112:128|32:144|88:136|80:136|80:136|104:128|104:128|64:128|64:128|72:120|56:152|96:144|96:128|64:120|48:144|72:144|72:144|64:152|64:152|72:136|72:136|56:128|56:128|72:128|72:128|96:136|112:136|112:136|24:136|48:136|104:136|104:136|80:128|40:136|40:136|32:128|32:128|56:136|56:136|24:128|24:128|80:144|80:144|88:144|80:152|80:152|64:144|64:144|72:152|136:152|120:152|120:152,5,847.5
240,128,75192,6,0,B|192:104|208:208|344:160|432:64|312:32|208:80|216:224|392:272|456:128|400:48|280:64,1,420
440,120,81648,2,0,B|-32:40|304:288|448:200|416:88|256:64|120:192|288:256|432:208|368:32|248:64|216:128,2,577.5
400,112,98239,1,0
384,120,98447,1,0
248,312,100044,1,0
224,280,100321,1,0
272,224,100807,1,0
384,216,101571,1,0
144,208,101710,1,0
168,208,101849,1,0
184,32,102265,1,0
224,40,102543,1,0
240,80,103098,1,0
248,96,103376,1,0
264,120,103792,1,0
272,144,104139,1,0
280,160,104348,1,0
288,192,104764,1,0
248,192,105320,1,0
224,192,105667,1,0
256,192,63530,12,0,182364
120,120,187024,5,0
128,120,187164,1,0
136,120,187443,1,0
144,128,187722,1,0
152,136,188001,1,0
152,144,188280,1,0
152,152,188420,1,0
144,160,188699,1,0
144,168,188838,1,0
144,176,189117,1,0
152,184,189396,1,0
160,184,189536,1,0
168,184,189815,1,0
176,184,190094,1,0
184,176,190373,1,0
184,168,190513,1,0
176,160,190792,1,0
160,168,191210,1,0
152,176,191489,1,0
152,176,191629,1,0
160,176,191768,1,0
168,176,191908,1,0
176,176,192187,1,0
176,176,192327,1,0
176,176,192466,1,0
168,176,192606,1,0
160,184,192745,1,0
168,184,193024,1,0
176,184,193303,1,0
184,184,193443,1,0
184,192,193582,1,0
176,192,193862,1,0
176,184,194141,1,0
184,184,194280,1,0
184,192,194559,1,0
192,200,194699,1,0
200,200,194978,1,0
208,200,195117,1,0
216,192,195396,1,0
216,200,195675,1,0
224,200,195815,1,0
232,208,196094,1,0
224,216,196234,1,0
208,200,196513,1,0
216,208,196652,1,0
216,216,196931,1,0
232,216,197350,1,0
232,208,197489,1,0
232,200,197768,1,0
224,200,198048,1,0
224,208,198187,1,0
224,216,198327,1,0
232,224,198606,1,0
240,224,198885,1,0
248,232,199164,1,0
304,224,200699,1,0
304,216,200838,1,0
296,216,200978,1,0
288,224,201257,1,0
288,224,201396,1,0
288,224,201536,1,0
288,232,201815,1,0
240,176,203908,2,0,B|296:176|296:176|248:176|248:176|400:400,3,375.000005587935
