osu file format v14

[General]
AudioFilename: StrangeProgram.mp3
AudioLeadIn: 0
PreviewTime: 70651
Countdown: 0
SampleSet: Soft
StackLeniency: 0.6
Mode: 3
LetterboxInBreaks: 0
SpecialStyle: 0
WidescreenStoryboard: 1

[Editor]
Bookmarks: 116419
DistanceSpacing: 0.8
BeatDivisor: 4
GridSize: 8
TimelineZoom: 3

[Metadata]
Title:StrangeProgram
TitleUnicode:StrangeProgram
Artist:DJ Sharpnel
ArtistUnicode:DJ Sharpnel
Creator:DeaDMaN44
Version:Envory's Normal
Source:
Tags:Remix Happy Hardcore D44 Envory
BeatmapID:863209
BeatmapSetID:396819

[Difficulty]
HPDrainRate:6
CircleSize:4
OverallDifficulty:7
ApproachRate:5
SliderMultiplier:1.4
SliderTickRate:1

[Events]
//Background and Video events
0,0,"bg strangeprogram.jpg",0,0
//Break Periods
//Storyboard Layer 0 (Background)
//Storyboard Layer 1 (Fail)
//Storyboard Layer 2 (Pass)
//Storyboard Layer 3 (Foreground)
//Storyboard Sound Samples

[TimingPoints]
48,279.06976744186,4,2,0,20,1,0
11489,279.06976744186,4,2,0,20,1,0
71768,-100,4,2,0,20,0,1
89628,-100,4,2,0,20,0,0
136512,-100,4,2,0,20,0,1
154372,-100,4,2,0,20,0,0
186744,-100,4,2,0,20,0,1
213535,-100,4,2,0,20,0,0

[HitObjects]
64,192,11420,128,0,13721:0:0:0:0:
192,192,13442,128,0,13721:0:0:0:0:
448,192,13721,1,0,0:0:0:0:
192,192,14000,1,0,0:0:0:0:
448,192,14140,1,0,0:0:0:0:
192,192,14419,1,0,0:0:0:0:
64,192,14558,1,0,0:0:0:0:
448,192,14837,1,0,0:0:0:0:
320,192,14837,1,0,0:0:0:0:
448,192,15116,1,0,0:0:0:0:
64,192,15256,1,0,0:0:0:0:
320,192,15535,1,0,0:0:0:0:
448,192,15675,1,0,0:0:0:0:
320,192,15954,1,0,0:0:0:0:
192,192,15954,1,0,0:0:0:0:
64,192,16233,1,0,0:0:0:0:
192,192,16372,1,0,0:0:0:0:
320,192,16651,1,0,0:0:0:0:
448,192,16791,128,0,18186:0:0:0:0:
192,192,16791,1,0,0:0:0:0:
64,192,17070,1,0,0:0:0:0:
320,192,17349,1,0,0:0:0:0:
64,192,17488,1,0,0:0:0:0:
320,192,17768,1,0,0:0:0:0:
64,192,17907,1,0,0:0:0:0:
64,192,18186,1,0,0:0:0:0:
192,192,18186,1,0,0:0:0:0:
320,192,18465,1,0,0:0:0:0:
192,192,18605,1,0,0:0:0:0:
448,192,18884,1,0,0:0:0:0:
192,192,19023,1,0,0:0:0:0:
320,192,19302,1,0,0:0:0:0:
64,192,19302,1,0,0:0:0:0:
64,192,19582,1,0,0:0:0:0:
320,192,19721,1,0,0:0:0:0:
320,192,20000,1,0,0:0:0:0:
448,192,20140,1,0,0:0:0:0:
64,192,20419,1,0,0:0:0:0:
448,192,20419,1,0,0:0:0:0:
192,192,20698,1,0,0:0:0:0:
320,192,20837,1,0,0:0:0:0:
64,192,21116,1,0,0:0:0:0:
448,192,21256,1,0,0:0:0:0:
64,192,21535,1,0,0:0:0:0:
192,192,21675,1,0,0:0:0:0:
320,192,21814,1,0,0:0:0:0:
448,192,21954,1,0,0:0:0:0:
320,192,22093,1,0,0:0:0:0:
192,192,22233,1,0,0:0:0:0:
64,192,22372,1,0,0:0:0:0:
192,192,22512,1,0,0:0:0:0:
448,192,22651,1,0,0:0:0:0:
320,192,22651,1,0,0:0:0:0:
192,192,22930,1,0,0:0:0:0:
320,192,23070,1,0,0:0:0:0:
64,192,23349,1,0,0:0:0:0:
192,192,23488,1,0,0:0:0:0:
320,192,23768,1,0,0:0:0:0:
448,192,23768,1,0,0:0:0:0:
192,192,24047,1,0,0:0:0:0:
64,192,24186,1,0,0:0:0:0:
448,192,24465,1,0,0:0:0:0:
192,192,24605,1,0,0:0:0:0:
64,192,24884,1,0,0:0:0:0:
320,192,24884,1,0,0:0:0:0:
448,192,25163,1,0,0:0:0:0:
320,192,25302,1,0,0:0:0:0:
192,192,25582,1,0,0:0:0:0:
64,192,25721,128,0,27116:0:0:0:0:
320,192,25721,1,0,0:0:0:0:
192,192,26000,1,0,0:0:0:0:
320,192,26279,1,0,0:0:0:0:
448,192,26558,1,0,0:0:0:0:
192,192,26837,1,0,0:0:0:0:
320,192,27116,1,0,0:0:0:0:
448,192,27116,1,0,0:0:0:0:
192,192,27395,1,0,0:0:0:0:
320,192,27535,1,0,0:0:0:0:
448,192,27814,1,0,0:0:0:0:
320,192,27954,1,0,0:0:0:0:
192,192,28233,1,0,0:0:0:0:
64,192,28233,1,0,0:0:0:0:
448,192,28512,1,0,0:0:0:0:
192,192,28651,1,0,0:0:0:0:
320,192,28930,1,0,0:0:0:0:
448,192,29070,1,0,0:0:0:0:
192,192,29349,1,0,0:0:0:0:
320,192,29349,1,0,0:0:0:0:
64,192,29628,1,0,0:0:0:0:
448,192,29768,1,0,0:0:0:0:
192,192,30047,1,0,0:0:0:0:
64,192,30186,1,0,0:0:0:0:
192,192,30465,1,0,0:0:0:0:
320,192,30605,1,0,0:0:0:0:
448,192,30744,1,0,0:0:0:0:
320,192,30884,1,0,0:0:0:0:
192,192,31023,1,0,0:0:0:0:
64,192,31163,1,0,0:0:0:0:
320,192,31302,1,0,0:0:0:0:
192,192,31442,1,0,0:0:0:0:
64,192,31582,128,0,32977:0:0:0:0:
448,192,31582,1,0,0:0:0:0:
448,192,35488,128,0,36047:0:0:0:0:
64,192,36047,1,0,0:0:0:0:
192,192,36326,1,0,0:0:0:0:
320,192,36605,1,0,0:0:0:0:
448,192,36605,1,0,0:0:0:0:
64,192,36884,1,0,0:0:0:0:
192,192,36884,1,0,0:0:0:0:
448,192,37163,1,0,0:0:0:0:
320,192,37442,1,0,0:0:0:0:
192,192,37721,1,0,0:0:0:0:
64,192,37721,1,0,0:0:0:0:
320,192,38000,1,0,0:0:0:0:
448,192,38000,1,0,0:0:0:0:
64,192,38279,1,0,0:0:0:0:
448,192,38558,1,0,0:0:0:0:
64,192,38837,1,0,0:0:0:0:
320,192,38837,1,0,0:0:0:0:
448,192,39116,1,0,0:0:0:0:
192,192,39116,1,0,0:0:0:0:
320,192,39395,1,0,0:0:0:0:
448,192,39675,1,0,0:0:0:0:
64,192,39954,1,0,0:0:0:0:
192,192,39954,1,0,0:0:0:0:
448,192,40233,1,0,0:0:0:0:
192,192,40233,1,0,0:0:0:0:
320,192,40372,1,0,0:0:0:0:
192,192,40512,1,0,0:0:0:0:
448,192,40512,1,0,0:0:0:0:
64,192,40791,1,0,0:0:0:0:
192,192,41070,1,0,0:0:0:0:
320,192,41070,1,0,0:0:0:0:
64,192,41349,1,0,0:0:0:0:
448,192,41349,1,0,0:0:0:0:
320,192,41628,1,0,0:0:0:0:
448,192,41907,1,0,0:0:0:0:
64,192,41907,1,0,0:0:0:0:
192,192,42186,1,0,0:0:0:0:
320,192,42186,1,0,0:0:0:0:
448,192,42465,1,0,0:0:0:0:
192,192,42744,1,0,0:0:0:0:
64,192,42744,1,0,0:0:0:0:
320,192,43023,1,0,0:0:0:0:
448,192,43023,1,0,0:0:0:0:
64,192,43302,1,0,0:0:0:0:
448,192,43582,1,0,0:0:0:0:
320,192,43582,1,0,0:0:0:0:
64,192,43861,128,0,44977:0:0:0:0:
192,192,43861,1,0,0:0:0:0:
320,192,44140,1,0,0:0:0:0:
448,192,44419,1,0,0:0:0:0:
320,192,44698,1,0,0:0:0:0:
448,192,44977,1,0,0:0:0:0:
192,192,44977,1,0,0:0:0:0:
320,192,45256,1,0,0:0:0:0:
64,192,45535,1,0,0:0:0:0:
448,192,45535,1,0,0:0:0:0:
320,192,45814,1,0,0:0:0:0:
448,192,46093,1,0,0:0:0:0:
64,192,46093,1,0,0:0:0:0:
192,192,46372,1,0,0:0:0:0:
320,192,46651,1,0,0:0:0:0:
64,192,46651,1,0,0:0:0:0:
192,192,46930,1,0,0:0:0:0:
320,192,47209,1,0,0:0:0:0:
64,192,47209,1,0,0:0:0:0:
448,192,47488,1,0,0:0:0:0:
320,192,47768,1,0,0:0:0:0:
192,192,47768,1,0,0:0:0:0:
64,192,48047,1,0,0:0:0:0:
192,192,48326,1,0,0:0:0:0:
320,192,48326,1,0,0:0:0:0:
64,192,48605,1,0,0:0:0:0:
448,192,48884,1,0,0:0:0:0:
192,192,48884,1,0,0:0:0:0:
320,192,49163,1,0,0:0:0:0:
64,192,49163,1,0,0:0:0:0:
192,192,49302,1,0,0:0:0:0:
64,192,49442,1,0,0:0:0:0:
320,192,49442,1,0,0:0:0:0:
448,192,49582,1,0,0:0:0:0:
320,192,49721,1,0,0:0:0:0:
192,192,49861,1,0,0:0:0:0:
64,192,50000,1,0,0:0:0:0:
448,192,50140,1,0,0:0:0:0:
320,192,50140,1,0,0:0:0:0:
192,192,50419,1,0,0:0:0:0:
448,192,50558,1,0,0:0:0:0:
64,192,50558,1,0,0:0:0:0:
320,192,50837,1,0,0:0:0:0:
64,192,50977,1,0,0:0:0:0:
192,192,50977,1,0,0:0:0:0:
320,192,51256,1,0,0:0:0:0:
192,192,51395,1,0,0:0:0:0:
448,192,51395,1,0,0:0:0:0:
320,192,51675,1,0,0:0:0:0:
64,192,51814,1,0,0:0:0:0:
192,192,51814,1,0,0:0:0:0:
192,192,52093,1,0,0:0:0:0:
448,192,52233,1,0,0:0:0:0:
64,192,52233,1,0,0:0:0:0:
64,192,52512,1,0,0:0:0:0:
320,192,52651,1,0,0:0:0:0:
448,192,52651,1,0,0:0:0:0:
192,192,52930,1,0,0:0:0:0:
448,192,53070,1,0,0:0:0:0:
64,192,53070,1,0,0:0:0:0:
448,192,53349,128,0,53907:0:0:0:0:
320,192,53349,128,0,53907:0:0:0:0:
64,192,53907,1,0,0:0:0:0:
192,192,54186,1,0,0:0:0:0:
448,192,54465,1,0,0:0:0:0:
64,192,54465,1,0,0:0:0:0:
320,192,54744,1,0,0:0:0:0:
192,192,54744,1,0,0:0:0:0:
64,192,55023,1,0,0:0:0:0:
448,192,55302,1,0,0:0:0:0:
320,192,55582,1,0,0:0:0:0:
64,192,55582,1,0,0:0:0:0:
448,192,55861,1,0,0:0:0:0:
192,192,55861,1,0,0:0:0:0:
320,192,56140,1,0,0:0:0:0:
192,192,56419,1,0,0:0:0:0:
320,192,56698,1,0,0:0:0:0:
448,192,56698,1,0,0:0:0:0:
192,192,56977,1,0,0:0:0:0:
64,192,56977,1,0,0:0:0:0:
320,192,57256,1,0,0:0:0:0:
448,192,57535,1,0,0:0:0:0:
64,192,57814,1,0,0:0:0:0:
192,192,57814,1,0,0:0:0:0:
320,192,58093,1,0,0:0:0:0:
448,192,58093,1,0,0:0:0:0:
64,192,58233,1,0,0:0:0:0:
192,192,58372,1,0,0:0:0:0:
320,192,58372,1,0,0:0:0:0:
448,192,58512,1,0,0:0:0:0:
192,192,58651,1,0,0:0:0:0:
64,192,58930,1,0,0:0:0:0:
320,192,58930,1,0,0:0:0:0:
192,192,59209,1,0,0:0:0:0:
448,192,59209,1,0,0:0:0:0:
320,192,59488,1,0,0:0:0:0:
192,192,59768,1,0,0:0:0:0:
448,192,60047,1,0,0:0:0:0:
64,192,60047,1,0,0:0:0:0:
192,192,60326,1,0,0:0:0:0:
320,192,60326,1,0,0:0:0:0:
448,192,60605,1,0,0:0:0:0:
64,192,60884,1,0,0:0:0:0:
320,192,61163,1,0,0:0:0:0:
192,192,61163,1,0,0:0:0:0:
448,192,61442,1,0,0:0:0:0:
64,192,61442,1,0,0:0:0:0:
320,192,61721,1,0,0:0:0:0:
64,192,62000,1,0,0:0:0:0:
192,192,62140,1,0,0:0:0:0:
320,192,62140,1,0,0:0:0:0:
448,192,62279,1,0,0:0:0:0:
64,192,62419,1,0,0:0:0:0:
192,192,62558,1,0,0:0:0:0:
320,192,62558,1,0,0:0:0:0:
448,192,62837,1,0,0:0:0:0:
64,192,63116,1,0,0:0:0:0:
448,192,63395,1,0,0:0:0:0:
320,192,63395,1,0,0:0:0:0:
64,192,63675,1,0,0:0:0:0:
192,192,63675,1,0,0:0:0:0:
448,192,63954,1,0,0:0:0:0:
192,192,64233,1,0,0:0:0:0:
320,192,64512,1,0,0:0:0:0:
64,192,64512,1,0,0:0:0:0:
192,192,64791,1,0,0:0:0:0:
448,192,64791,1,0,0:0:0:0:
320,192,65070,1,0,0:0:0:0:
64,192,65349,1,0,0:0:0:0:
448,192,65628,1,0,0:0:0:0:
192,192,65628,1,0,0:0:0:0:
320,192,65907,1,0,0:0:0:0:
64,192,65907,1,0,0:0:0:0:
192,192,66186,1,0,0:0:0:0:
64,192,66465,1,0,0:0:0:0:
320,192,66744,1,0,0:0:0:0:
192,192,66744,1,0,0:0:0:0:
448,192,67023,1,0,0:0:0:0:
320,192,67163,1,0,0:0:0:0:
64,192,67302,1,0,0:0:0:0:
192,192,67302,1,0,0:0:0:0:
448,192,67582,1,0,0:0:0:0:
320,192,67861,1,0,0:0:0:0:
192,192,68140,1,0,0:0:0:0:
320,192,68419,1,0,0:0:0:0:
64,192,68419,1,0,0:0:0:0:
192,192,68698,1,0,0:0:0:0:
320,192,68977,1,0,0:0:0:0:
448,192,69256,1,0,0:0:0:0:
64,192,69535,1,0,0:0:0:0:
320,192,69535,1,0,0:0:0:0:
192,192,69814,1,0,0:0:0:0:
64,192,70093,1,0,0:0:0:0:
320,192,70372,1,0,0:0:0:0:
448,192,70372,1,0,0:0:0:0:
64,192,70651,128,0,71768:0:0:0:0:
448,192,71209,1,0,0:0:0:0:
192,192,71488,1,0,0:0:0:0:
320,192,71628,1,0,0:0:0:0:
192,192,71768,1,0,0:0:0:0:
448,192,71768,1,0,0:0:0:0:
64,192,72047,1,0,0:0:0:0:
192,192,72047,1,0,0:0:0:0:
320,192,72326,1,0,0:0:0:0:
448,192,72605,1,0,0:0:0:0:
192,192,72605,1,0,0:0:0:0:
320,192,72884,1,0,0:0:0:0:
64,192,73163,1,0,0:0:0:0:
448,192,73163,1,0,0:0:0:0:
192,192,73442,1,0,0:0:0:0:
320,192,73721,1,0,0:0:0:0:
448,192,73721,1,0,0:0:0:0:
64,192,74000,1,0,0:0:0:0:
448,192,74279,1,0,0:0:0:0:
192,192,74279,1,0,0:0:0:0:
320,192,74558,1,0,0:0:0:0:
64,192,74837,1,0,0:0:0:0:
192,192,74837,1,0,0:0:0:0:
320,192,75116,1,0,0:0:0:0:
64,192,75395,1,0,0:0:0:0:
448,192,75395,1,0,0:0:0:0:
192,192,75675,1,0,0:0:0:0:
448,192,75954,1,0,0:0:0:0:
64,192,75954,1,0,0:0:0:0:
320,192,76093,1,0,0:0:0:0:
192,192,76233,1,0,0:0:0:0:
64,192,76233,1,0,0:0:0:0:
448,192,76512,1,0,0:0:0:0:
192,192,76512,1,0,0:0:0:0:
64,192,76791,1,0,0:0:0:0:
320,192,77070,1,0,0:0:0:0:
448,192,77070,1,0,0:0:0:0:
192,192,77349,1,0,0:0:0:0:
448,192,77628,1,0,0:0:0:0:
64,192,77628,1,0,0:0:0:0:
192,192,77768,1,0,0:0:0:0:
448,192,77907,1,0,0:0:0:0:
320,192,77907,1,0,0:0:0:0:
64,192,78186,1,0,0:0:0:0:
192,192,78186,1,0,0:0:0:0:
320,192,78326,1,0,0:0:0:0:
448,192,78465,1,0,0:0:0:0:
64,192,78465,1,0,0:0:0:0:
320,192,78744,1,0,0:0:0:0:
192,192,78884,1,0,0:0:0:0:
448,192,79023,1,0,0:0:0:0:
64,192,79023,1,0,0:0:0:0:
192,192,79302,1,0,0:0:0:0:
320,192,79582,1,0,0:0:0:0:
64,192,79582,1,0,0:0:0:0:
448,192,79861,1,0,0:0:0:0:
64,192,80140,1,0,0:0:0:0:
192,192,80140,1,0,0:0:0:0:
320,192,80419,1,0,0:0:0:0:
448,192,80698,1,0,0:0:0:0:
64,192,80698,1,0,0:0:0:0:
192,192,80977,1,0,0:0:0:0:
320,192,80977,1,0,0:0:0:0:
448,192,81256,1,0,0:0:0:0:
64,192,81256,1,0,0:0:0:0:
192,192,81535,1,0,0:0:0:0:
320,192,81814,1,0,0:0:0:0:
448,192,81814,1,0,0:0:0:0:
64,192,82093,1,0,0:0:0:0:
320,192,82093,1,0,0:0:0:0:
192,192,82233,1,0,0:0:0:0:
448,192,82372,1,0,0:0:0:0:
320,192,82512,1,0,0:0:0:0:
192,192,82651,1,0,0:0:0:0:
64,192,82651,1,0,0:0:0:0:
320,192,82930,1,0,0:0:0:0:
448,192,82930,1,0,0:0:0:0:
320,192,83209,1,0,0:0:0:0:
448,192,83209,1,0,0:0:0:0:
64,192,83488,1,0,0:0:0:0:
192,192,83768,1,0,0:0:0:0:
448,192,83907,1,0,0:0:0:0:
320,192,84186,1,0,0:0:0:0:
192,192,84326,1,0,0:0:0:0:
64,192,84465,1,0,0:0:0:0:
192,192,84605,1,0,0:0:0:0:
320,192,84744,1,0,0:0:0:0:
448,192,85023,1,0,0:0:0:0:
64,192,85163,1,0,0:0:0:0:
192,192,85442,1,0,0:0:0:0:
320,192,85442,1,0,0:0:0:0:
64,192,85721,1,0,0:0:0:0:
448,192,86000,1,0,0:0:0:0:
320,192,86140,1,0,0:0:0:0:
64,192,86419,1,0,0:0:0:0:
320,192,86558,1,0,0:0:0:0:
192,192,86698,1,0,0:0:0:0:
448,192,86977,1,0,0:0:0:0:
192,192,87116,1,0,0:0:0:0:
320,192,87256,1,0,0:0:0:0:
192,192,87535,1,0,0:0:0:0:
448,192,87675,1,0,0:0:0:0:
64,192,87814,1,0,0:0:0:0:
320,192,88093,1,0,0:0:0:0:
64,192,88233,1,0,0:0:0:0:
448,192,88372,1,0,0:0:0:0:
320,192,88651,1,0,0:0:0:0:
64,192,88791,1,0,0:0:0:0:
448,192,89070,1,0,0:0:0:0:
192,192,89349,1,0,0:0:0:0:
320,192,89628,1,0,0:0:0:0:
448,192,89628,1,0,0:0:0:0:
192,192,89907,1,0,0:0:0:0:
64,192,89907,1,0,0:0:0:0:
320,192,90186,1,0,0:0:0:0:
192,192,90186,1,0,0:0:0:0:
448,192,90465,1,0,0:0:0:0:
64,192,90465,1,0,0:0:0:0:
64,192,90744,1,0,0:0:0:0:
320,192,90884,1,0,0:0:0:0:
448,192,91163,1,0,0:0:0:0:
64,192,91163,1,0,0:0:0:0:
192,192,91442,1,0,0:0:0:0:
320,192,91721,1,0,0:0:0:0:
64,192,91861,1,0,0:0:0:0:
192,192,91861,1,0,0:0:0:0:
320,192,92140,1,0,0:0:0:0:
448,192,92140,1,0,0:0:0:0:
192,192,92419,1,0,0:0:0:0:
64,192,92419,1,0,0:0:0:0:
320,192,92698,1,0,0:0:0:0:
448,192,92698,1,0,0:0:0:0:
192,192,92977,1,0,0:0:0:0:
64,192,93116,1,0,0:0:0:0:
192,192,93395,1,0,0:0:0:0:
448,192,93395,1,0,0:0:0:0:
64,192,93675,1,0,0:0:0:0:
448,192,93954,1,0,0:0:0:0:
192,192,94093,1,0,0:0:0:0:
64,192,94093,128,0,94233:0:0:0:0:
320,192,94372,1,0,0:0:0:0:
448,192,94372,128,0,94512:0:0:0:0:
192,192,94651,1,0,0:0:0:0:
64,192,94651,128,0,94791:0:0:0:0:
192,192,94930,1,0,0:0:0:0:
320,192,94930,1,0,0:0:0:0:
448,192,95209,1,0,0:0:0:0:
64,192,95349,1,0,0:0:0:0:
192,192,95628,1,0,0:0:0:0:
320,192,95628,1,0,0:0:0:0:
448,192,95907,1,0,0:0:0:0:
192,192,96186,1,0,0:0:0:0:
320,192,96326,1,0,0:0:0:0:
448,192,96605,1,0,0:0:0:0:
64,192,96605,1,0,0:0:0:0:
320,192,96884,1,0,0:0:0:0:
192,192,97023,1,0,0:0:0:0:
448,192,97302,1,0,0:0:0:0:
320,192,97442,128,0,97721:0:0:0:0:
64,192,97861,128,0,98000:0:0:0:0:
192,192,98140,1,0,0:0:0:0:
320,192,98279,1,0,0:0:0:0:
448,192,98419,1,0,0:0:0:0:
320,192,98558,1,0,0:0:0:0:
192,192,98558,1,0,0:0:0:0:
64,192,98837,1,0,0:0:0:0:
448,192,98837,1,0,0:0:0:0:
448,192,99116,1,0,0:0:0:0:
192,192,99256,1,0,0:0:0:0:
320,192,99395,1,0,0:0:0:0:
64,192,99395,1,0,0:0:0:0:
192,192,99535,1,0,0:0:0:0:
448,192,99535,1,0,0:0:0:0:
64,192,99675,128,0,99954:0:0:0:0:
320,192,99954,1,0,0:0:0:0:
320,192,100372,1,0,0:0:0:0:
448,192,100512,1,0,0:0:0:0:
192,192,100512,1,0,0:0:0:0:
320,192,100651,1,0,0:0:0:0:
64,192,100651,1,0,0:0:0:0:
448,192,100791,128,0,101070:0:0:0:0:
192,192,101070,1,0,0:0:0:0:
448,192,101488,1,0,0:0:0:0:
192,192,101628,1,0,0:0:0:0:
64,192,101628,1,0,0:0:0:0:
320,192,101768,1,0,0:0:0:0:
448,192,101768,1,0,0:0:0:0:
192,192,101907,128,0,102186:0:0:0:0:
64,192,102186,1,0,0:0:0:0:
64,192,102605,1,0,0:0:0:0:
320,192,102744,1,0,0:0:0:0:
448,192,102744,1,0,0:0:0:0:
192,192,102884,1,0,0:0:0:0:
64,192,102884,1,0,0:0:0:0:
320,192,103023,128,0,103302:0:0:0:0:
448,192,103302,1,0,0:0:0:0:
320,192,103721,1,0,0:0:0:0:
448,192,103861,1,0,0:0:0:0:
64,192,103861,1,0,0:0:0:0:
320,192,104000,1,0,0:0:0:0:
192,192,104000,1,0,0:0:0:0:
448,192,104140,128,0,104419:0:0:0:0:
64,192,104419,1,0,0:0:0:0:
192,192,104558,1,0,0:0:0:0:
320,192,104698,1,0,0:0:0:0:
64,192,104837,1,0,0:0:0:0:
192,192,104977,1,0,0:0:0:0:
320,192,104977,1,0,0:0:0:0:
448,192,105116,1,0,0:0:0:0:
64,192,105116,1,0,0:0:0:0:
192,192,105256,128,0,105535:0:0:0:0:
448,192,105535,1,0,0:0:0:0:
192,192,105954,1,0,0:0:0:0:
64,192,106093,1,0,0:0:0:0:
320,192,106093,1,0,0:0:0:0:
192,192,106233,1,0,0:0:0:0:
448,192,106233,1,0,0:0:0:0:
64,192,106372,128,0,106651:0:0:0:0:
320,192,106651,1,0,0:0:0:0:
320,192,107070,1,0,0:0:0:0:
448,192,107209,1,0,0:0:0:0:
192,192,107209,1,0,0:0:0:0:
320,192,107349,1,0,0:0:0:0:
64,192,107349,1,0,0:0:0:0:
448,192,107488,128,0,107768:0:0:0:0:
64,192,107768,1,0,0:0:0:0:
192,192,108186,1,0,0:0:0:0:
320,192,108326,1,0,0:0:0:0:
448,192,108326,1,0,0:0:0:0:
192,192,108465,1,0,0:0:0:0:
64,192,108465,1,0,0:0:0:0:
448,192,108605,128,0,108884:0:0:0:0:
320,192,108884,1,0,0:0:0:0:
448,192,109302,1,0,0:0:0:0:
64,192,109442,1,0,0:0:0:0:
192,192,109442,1,0,0:0:0:0:
320,192,109582,1,0,0:0:0:0:
448,192,109582,1,0,0:0:0:0:
64,192,109721,128,0,110000:0:0:0:0:
192,192,110000,1,0,0:0:0:0:
320,192,110419,1,0,0:0:0:0:
448,192,110558,1,0,0:0:0:0:
64,192,110558,1,0,0:0:0:0:
320,192,110698,1,0,0:0:0:0:
192,192,110698,1,0,0:0:0:0:
448,192,110837,128,0,111116:0:0:0:0:
64,192,111116,1,0,0:0:0:0:
64,192,111535,1,0,0:0:0:0:
192,192,111675,1,0,0:0:0:0:
320,192,111675,1,0,0:0:0:0:
448,192,111814,1,0,0:0:0:0:
64,192,111814,1,0,0:0:0:0:
320,192,111954,128,0,112233:0:0:0:0:
192,192,112233,1,0,0:0:0:0:
320,192,112651,1,0,0:0:0:0:
192,192,112791,1,0,0:0:0:0:
448,192,112791,1,0,0:0:0:0:
320,192,112930,1,0,0:0:0:0:
64,192,112930,1,0,0:0:0:0:
448,192,113070,128,0,113349:0:0:0:0:
192,192,113349,1,0,0:0:0:0:
448,192,113768,1,0,0:0:0:0:
320,192,113907,1,0,0:0:0:0:
64,192,113907,1,0,0:0:0:0:
192,192,114047,1,0,0:0:0:0:
448,192,114047,1,0,0:0:0:0:
64,192,114186,128,0,114465:0:0:0:0:
320,192,114465,1,0,0:0:0:0:
64,192,114884,1,0,0:0:0:0:
448,192,115023,1,0,0:0:0:0:
320,192,115023,1,0,0:0:0:0:
64,192,115163,1,0,0:0:0:0:
192,192,115163,1,0,0:0:0:0:
320,192,115442,1,0,0:0:0:0:
192,192,115721,1,0,0:0:0:0:
64,192,116000,128,0,116419:0:0:0:0:
320,192,116419,1,0,0:0:0:0:
64,192,116698,1,0,0:0:0:0:
448,192,116698,1,0,0:0:0:0:
320,192,116837,1,0,0:0:0:0:
192,192,116837,1,0,0:0:0:0:
64,192,117116,1,0,0:0:0:0:
320,192,117256,1,0,0:0:0:0:
448,192,117256,1,0,0:0:0:0:
64,192,117395,1,0,0:0:0:0:
192,192,117395,1,0,0:0:0:0:
448,192,117535,1,0,0:0:0:0:
192,192,117814,1,0,0:0:0:0:
448,192,117814,1,0,0:0:0:0:
64,192,117954,1,0,0:0:0:0:
448,192,118233,1,0,0:0:0:0:
64,192,118372,1,0,0:0:0:0:
192,192,118372,1,0,0:0:0:0:
320,192,118512,1,0,0:0:0:0:
448,192,118512,1,0,0:0:0:0:
64,192,118651,1,0,0:0:0:0:
192,192,118930,1,0,0:0:0:0:
448,192,118930,1,0,0:0:0:0:
64,192,119070,1,0,0:0:0:0:
192,192,119349,1,0,0:0:0:0:
320,192,119488,1,0,0:0:0:0:
64,192,119488,1,0,0:0:0:0:
192,192,119628,1,0,0:0:0:0:
448,192,119628,1,0,0:0:0:0:
320,192,119768,1,0,0:0:0:0:
64,192,120047,1,0,0:0:0:0:
192,192,120047,1,0,0:0:0:0:
448,192,120186,1,0,0:0:0:0:
192,192,120465,1,0,0:0:0:0:
320,192,120605,1,0,0:0:0:0:
64,192,120605,1,0,0:0:0:0:
192,192,120744,1,0,0:0:0:0:
448,192,120744,1,0,0:0:0:0:
320,192,120884,1,0,0:0:0:0:
64,192,121163,1,0,0:0:0:0:
192,192,121163,1,0,0:0:0:0:
448,192,121302,1,0,0:0:0:0:
64,192,121582,1,0,0:0:0:0:
320,192,121721,1,0,0:0:0:0:
448,192,121721,1,0,0:0:0:0:
64,192,121861,1,0,0:0:0:0:
192,192,121861,1,0,0:0:0:0:
448,192,122000,1,0,0:0:0:0:
192,192,122279,1,0,0:0:0:0:
448,192,122279,1,0,0:0:0:0:
320,192,122419,1,0,0:0:0:0:
448,192,122698,1,0,0:0:0:0:
192,192,122837,1,0,0:0:0:0:
64,192,122837,1,0,0:0:0:0:
448,192,122977,1,0,0:0:0:0:
320,192,122977,1,0,0:0:0:0:
64,192,123116,1,0,0:0:0:0:
448,192,123395,1,0,0:0:0:0:
192,192,123395,1,0,0:0:0:0:
320,192,123535,1,0,0:0:0:0:
64,192,123814,1,0,0:0:0:0:
448,192,123954,1,0,0:0:0:0:
320,192,123954,1,0,0:0:0:0:
192,192,124093,1,0,0:0:0:0:
64,192,124093,1,0,0:0:0:0:
448,192,124233,1,0,0:0:0:0:
64,192,124512,1,0,0:0:0:0:
320,192,124512,1,0,0:0:0:0:
192,192,124651,1,0,0:0:0:0:
192,192,124930,1,0,0:0:0:0:
64,192,125070,1,0,0:0:0:0:
320,192,125070,1,0,0:0:0:0:
192,192,125209,1,0,0:0:0:0:
448,192,125209,1,0,0:0:0:0:
320,192,125349,1,0,0:0:0:0:
448,192,125628,1,0,0:0:0:0:
64,192,125628,1,0,0:0:0:0:
192,192,125768,1,0,0:0:0:0:
320,192,126047,1,0,0:0:0:0:
192,192,126186,1,0,0:0:0:0:
448,192,126186,1,0,0:0:0:0:
320,192,126326,1,0,0:0:0:0:
64,192,126326,1,0,0:0:0:0:
192,192,126465,1,0,0:0:0:0:
320,192,126744,1,0,0:0:0:0:
64,192,126744,1,0,0:0:0:0:
448,192,126884,1,0,0:0:0:0:
64,192,127163,1,0,0:0:0:0:
320,192,127302,1,0,0:0:0:0:
192,192,127302,1,0,0:0:0:0:
448,192,127442,1,0,0:0:0:0:
64,192,127442,1,0,0:0:0:0:
320,192,127582,1,0,0:0:0:0:
448,192,127861,1,0,0:0:0:0:
64,192,127861,1,0,0:0:0:0:
192,192,128000,1,0,0:0:0:0:
448,192,128279,1,0,0:0:0:0:
192,192,128419,1,0,0:0:0:0:
320,192,128419,1,0,0:0:0:0:
448,192,128558,1,0,0:0:0:0:
64,192,128558,1,0,0:0:0:0:
192,192,128698,1,0,0:0:0:0:
64,192,128977,1,0,0:0:0:0:
448,192,128977,1,0,0:0:0:0:
320,192,129116,1,0,0:0:0:0:
192,192,129395,1,0,0:0:0:0:
320,192,129535,1,0,0:0:0:0:
64,192,129535,1,0,0:0:0:0:
192,192,129675,1,0,0:0:0:0:
448,192,129675,1,0,0:0:0:0:
320,192,129814,1,0,0:0:0:0:
448,192,130093,1,0,0:0:0:0:
64,192,130093,1,0,0:0:0:0:
192,192,130233,1,0,0:0:0:0:
320,192,130512,1,0,0:0:0:0:
448,192,130651,1,0,0:0:0:0:
192,192,130651,1,0,0:0:0:0:
320,192,130791,1,0,0:0:0:0:
64,192,130791,1,0,0:0:0:0:
192,192,130930,1,0,0:0:0:0:
320,192,131209,1,0,0:0:0:0:
64,192,131209,1,0,0:0:0:0:
192,192,131349,1,0,0:0:0:0:
448,192,131628,1,0,0:0:0:0:
64,192,131768,1,0,0:0:0:0:
192,192,131768,1,0,0:0:0:0:
320,192,131907,1,0,0:0:0:0:
448,192,131907,1,0,0:0:0:0:
64,192,132047,1,0,0:0:0:0:
192,192,132047,1,0,0:0:0:0:
448,192,132326,1,0,0:0:0:0:
64,192,132605,1,0,0:0:0:0:
448,192,132884,1,0,0:0:0:0:
64,192,133163,1,0,0:0:0:0:
320,192,133163,1,0,0:0:0:0:
192,192,133302,1,0,0:0:0:0:
448,192,133302,1,0,0:0:0:0:
64,192,133582,1,0,0:0:0:0:
448,192,133582,1,0,0:0:0:0:
192,192,133861,1,0,0:0:0:0:
320,192,133861,1,0,0:0:0:0:
448,192,134000,1,0,0:0:0:0:
64,192,134140,1,0,0:0:0:0:
320,192,134279,128,0,135256:0:0:0:0:
448,192,135535,1,0,0:0:0:0:
320,192,135814,1,0,0:0:0:0:
192,192,136093,1,0,0:0:0:0:
64,192,136372,1,0,0:0:0:0:
448,192,136512,1,0,0:0:0:0:
320,192,136512,1,0,0:0:0:0:
192,192,136791,1,0,0:0:0:0:
448,192,137070,1,0,0:0:0:0:
320,192,137070,1,0,0:0:0:0:
192,192,137349,1,0,0:0:0:0:
320,192,137628,1,0,0:0:0:0:
64,192,137628,1,0,0:0:0:0:
192,192,137907,1,0,0:0:0:0:
320,192,138186,1,0,0:0:0:0:
448,192,138186,1,0,0:0:0:0:
64,192,138465,1,0,0:0:0:0:
448,192,138744,1,0,0:0:0:0:
320,192,138744,1,0,0:0:0:0:
64,192,139023,1,0,0:0:0:0:
448,192,139302,1,0,0:0:0:0:
320,192,139302,1,0,0:0:0:0:
192,192,139582,1,0,0:0:0:0:
448,192,139861,1,0,0:0:0:0:
64,192,139861,1,0,0:0:0:0:
320,192,140140,1,0,0:0:0:0:
192,192,140419,1,0,0:0:0:0:
448,192,140419,1,0,0:0:0:0:
320,192,140698,1,0,0:0:0:0:
192,192,140837,1,0,0:0:0:0:
64,192,140977,1,0,0:0:0:0:
448,192,140977,1,0,0:0:0:0:
192,192,141256,1,0,0:0:0:0:
320,192,141256,1,0,0:0:0:0:
64,192,141535,1,0,0:0:0:0:
192,192,141814,1,0,0:0:0:0:
320,192,141814,1,0,0:0:0:0:
448,192,142093,1,0,0:0:0:0:
64,192,142372,1,0,0:0:0:0:
320,192,142372,1,0,0:0:0:0:
192,192,142651,1,0,0:0:0:0:
320,192,142930,1,0,0:0:0:0:
448,192,142930,1,0,0:0:0:0:
64,192,143209,128,0,143488:0:0:0:0:
192,192,143488,128,0,143768:0:0:0:0:
320,192,143768,128,0,144047:0:0:0:0:
448,192,144047,128,0,144326:0:0:0:0:
64,192,144326,128,0,144605:0:0:0:0:
192,192,144605,128,0,144884:0:0:0:0:
448,192,144884,128,0,145442:0:0:0:0:
192,192,145442,1,0,0:0:0:0:
64,192,145442,1,0,0:0:0:0:
320,192,145721,1,0,0:0:0:0:
192,192,145721,1,0,0:0:0:0:
192,192,146000,128,0,146558:0:0:0:0:
320,192,146000,1,0,0:0:0:0:
448,192,146279,1,0,0:0:0:0:
320,192,146558,1,0,0:0:0:0:
64,192,146837,1,0,0:0:0:0:
448,192,147116,1,0,0:0:0:0:
192,192,147116,1,0,0:0:0:0:
320,192,147395,1,0,0:0:0:0:
192,192,147675,1,0,0:0:0:0:
64,192,147675,1,0,0:0:0:0:
448,192,147954,1,0,0:0:0:0:
320,192,148233,1,0,0:0:0:0:
192,192,148233,1,0,0:0:0:0:
64,192,148512,1,0,0:0:0:0:
192,192,148791,1,0,0:0:0:0:
448,192,148791,1,0,0:0:0:0:
320,192,149070,1,0,0:0:0:0:
64,192,149349,1,0,0:0:0:0:
448,192,149349,1,0,0:0:0:0:
192,192,149628,1,0,0:0:0:0:
320,192,149768,1,0,0:0:0:0:
64,192,149907,1,0,0:0:0:0:
448,192,149907,1,0,0:0:0:0:
192,192,150186,1,0,0:0:0:0:
320,192,150465,1,0,0:0:0:0:
448,192,150744,1,0,0:0:0:0:
192,192,150744,1,0,0:0:0:0:
64,192,151023,1,0,0:0:0:0:
320,192,151302,1,0,0:0:0:0:
448,192,151302,1,0,0:0:0:0:
192,192,151582,1,0,0:0:0:0:
64,192,151861,1,0,0:0:0:0:
320,192,151861,1,0,0:0:0:0:
448,192,152140,1,0,0:0:0:0:
192,192,152419,1,0,0:0:0:0:
64,192,152419,1,0,0:0:0:0:
448,192,152698,1,0,0:0:0:0:
320,192,152977,1,0,0:0:0:0:
64,192,152977,1,0,0:0:0:0:
192,192,153256,1,0,0:0:0:0:
320,192,153535,1,0,0:0:0:0:
448,192,153535,1,0,0:0:0:0:
64,192,153675,1,0,0:0:0:0:
448,192,153814,1,0,0:0:0:0:
320,192,153954,1,0,0:0:0:0:
192,192,154093,1,0,0:0:0:0:
64,192,154233,1,0,0:0:0:0:
448,192,154372,128,0,159675:0:0:0:0:
320,192,154372,1,0,0:0:0:0:
64,192,159675,1,0,0:0:0:0:
448,192,159954,1,0,0:0:0:0:
320,192,160093,1,0,0:0:0:0:
64,192,160233,1,0,0:0:0:0:
192,192,160372,1,0,0:0:0:0:
448,192,160512,1,0,0:0:0:0:
64,192,160651,1,0,0:0:0:0:
320,192,160791,1,0,0:0:0:0:
192,192,160930,1,0,0:0:0:0:
64,192,161070,128,0,161628:0:0:0:0:
448,192,161628,1,0,0:0:0:0:
320,192,161768,1,0,0:0:0:0:
64,192,161907,1,0,0:0:0:0:
192,192,162047,1,0,0:0:0:0:
448,192,162186,1,0,0:0:0:0:
320,192,162326,1,0,0:0:0:0:
192,192,162465,1,0,0:0:0:0:
448,192,162605,1,0,0:0:0:0:
64,192,162744,1,0,0:0:0:0:
192,192,162884,1,0,0:0:0:0:
320,192,163023,1,0,0:0:0:0:
192,192,163163,1,0,0:0:0:0:
448,192,163302,128,0,163861:0:0:0:0:
64,192,163302,1,0,0:0:0:0:
64,192,163861,1,0,0:0:0:0:
192,192,164000,1,0,0:0:0:0:
320,192,164140,1,0,0:0:0:0:
448,192,164279,1,0,0:0:0:0:
64,192,164419,1,0,0:0:0:0:
192,192,164558,1,0,0:0:0:0:
448,192,164698,1,0,0:0:0:0:
320,192,164837,1,0,0:0:0:0:
192,192,164977,1,0,0:0:0:0:
448,192,165116,1,0,0:0:0:0:
320,192,165256,1,0,0:0:0:0:
192,192,165395,1,0,0:0:0:0:
64,192,165535,128,0,166093:0:0:0:0:
448,192,165535,1,0,0:0:0:0:
192,192,166093,1,0,0:0:0:0:
448,192,166233,1,0,0:0:0:0:
320,192,166372,1,0,0:0:0:0:
64,192,166512,1,0,0:0:0:0:
192,192,166651,1,0,0:0:0:0:
448,192,166791,1,0,0:0:0:0:
64,192,166930,1,0,0:0:0:0:
448,192,167070,1,0,0:0:0:0:
64,192,167209,1,0,0:0:0:0:
320,192,167349,1,0,0:0:0:0:
192,192,167488,1,0,0:0:0:0:
64,192,167628,1,0,0:0:0:0:
320,192,167768,128,0,168047:0:0:0:0:
448,192,167768,1,0,0:0:0:0:
64,192,168047,1,0,0:0:0:0:
448,192,168186,1,0,0:0:0:0:
192,192,168326,1,0,0:0:0:0:
448,192,168465,1,0,0:0:0:0:
64,192,168605,1,0,0:0:0:0:
448,192,168884,1,0,0:0:0:0:
192,192,169023,1,0,0:0:0:0:
448,192,169163,1,0,0:0:0:0:
64,192,169302,1,0,0:0:0:0:
448,192,169442,1,0,0:0:0:0:
64,192,169582,1,0,0:0:0:0:
448,192,169721,1,0,0:0:0:0:
192,192,169861,1,0,0:0:0:0:
64,192,170000,128,0,170419:0:0:0:0:
320,192,170000,1,0,0:0:0:0:
192,192,170419,1,0,0:0:0:0:
448,192,170558,1,0,0:0:0:0:
64,192,170698,1,0,0:0:0:0:
448,192,170837,1,0,0:0:0:0:
64,192,170977,1,0,0:0:0:0:
320,192,171116,1,0,0:0:0:0:
192,192,171256,1,0,0:0:0:0:
448,192,171395,1,0,0:0:0:0:
64,192,171675,1,0,0:0:0:0:
320,192,171814,1,0,0:0:0:0:
448,192,171954,1,0,0:0:0:0:
192,192,172093,1,0,0:0:0:0:
320,192,172233,128,0,172791:0:0:0:0:
448,192,172233,1,0,0:0:0:0:
64,192,172791,1,0,0:0:0:0:
192,192,172930,1,0,0:0:0:0:
320,192,173070,1,0,0:0:0:0:
448,192,173209,1,0,0:0:0:0:
64,192,173349,1,0,0:0:0:0:
448,192,173488,1,0,0:0:0:0:
64,192,173628,1,0,0:0:0:0:
448,192,173768,1,0,0:0:0:0:
192,192,173907,1,0,0:0:0:0:
448,192,174047,1,0,0:0:0:0:
64,192,174186,1,0,0:0:0:0:
192,192,174326,1,0,0:0:0:0:
448,192,174465,128,0,175023:0:0:0:0:
320,192,174465,1,0,0:0:0:0:
192,192,175023,1,0,0:0:0:0:
64,192,175163,1,0,0:0:0:0:
192,192,175302,1,0,0:0:0:0:
64,192,175442,1,0,0:0:0:0:
448,192,175582,1,0,0:0:0:0:
320,192,175721,1,0,0:0:0:0:
448,192,175861,1,0,0:0:0:0:
64,192,176000,1,0,0:0:0:0:
192,192,176140,1,0,0:0:0:0:
64,192,176279,1,0,0:0:0:0:
320,192,176419,1,0,0:0:0:0:
448,192,176558,1,0,0:0:0:0:
192,192,176698,128,0,176977:0:0:0:0:
448,192,176977,1,0,0:0:0:0:
320,192,177116,1,0,0:0:0:0:
192,192,177256,1,0,0:0:0:0:
64,192,177395,1,0,0:0:0:0:
448,192,177535,128,0,177814:0:0:0:0:
64,192,177814,1,0,0:0:0:0:
320,192,178093,1,0,0:0:0:0:
192,192,178233,1,0,0:0:0:0:
192,192,178512,1,0,0:0:0:0:
64,192,178651,1,0,0:0:0:0:
448,192,178930,1,0,0:0:0:0:
192,192,179209,1,0,0:0:0:0:
320,192,179349,1,0,0:0:0:0:
320,192,179628,1,0,0:0:0:0:
448,192,179768,1,0,0:0:0:0:
64,192,180047,1,0,0:0:0:0:
192,192,180326,1,0,0:0:0:0:
320,192,180465,1,0,0:0:0:0:
320,192,180744,1,0,0:0:0:0:
448,192,180884,1,0,0:0:0:0:
320,192,181163,1,0,0:0:0:0:
192,192,181302,1,0,0:0:0:0:
64,192,181442,1,0,0:0:0:0:
448,192,181442,1,0,0:0:0:0:
320,192,181582,1,0,0:0:0:0:
320,192,181861,1,0,0:0:0:0:
192,192,182000,1,0,0:0:0:0:
448,192,182279,1,0,0:0:0:0:
320,192,182558,1,0,0:0:0:0:
192,192,182698,1,0,0:0:0:0:
192,192,182977,1,0,0:0:0:0:
64,192,183116,1,0,0:0:0:0:
448,192,183395,1,0,0:0:0:0:
320,192,183675,1,0,0:0:0:0:
192,192,183814,1,0,0:0:0:0:
320,192,184093,1,0,0:0:0:0:
448,192,184233,1,0,0:0:0:0:
192,192,184512,1,0,0:0:0:0:
64,192,184791,1,0,0:0:0:0:
320,192,184930,1,0,0:0:0:0:
448,192,185209,1,0,0:0:0:0:
192,192,185349,1,0,0:0:0:0:
64,192,185628,128,0,186186:0:0:0:0:
448,192,186186,1,0,0:0:0:0:
448,192,186744,1,0,0:0:0:0:
64,192,186744,1,0,0:0:0:0:
192,192,187023,1,0,0:0:0:0:
192,192,187302,1,0,0:0:0:0:
448,192,187302,1,0,0:0:0:0:
320,192,187582,1,0,0:0:0:0:
320,192,187861,1,0,0:0:0:0:
64,192,187861,1,0,0:0:0:0:
448,192,188140,1,0,0:0:0:0:
448,192,188419,1,0,0:0:0:0:
192,192,188419,1,0,0:0:0:0:
64,192,188698,1,0,0:0:0:0:
64,192,188977,1,0,0:0:0:0:
448,192,188977,1,0,0:0:0:0:
320,192,189256,1,0,0:0:0:0:
192,192,189535,1,0,0:0:0:0:
320,192,189535,1,0,0:0:0:0:
448,192,189814,1,0,0:0:0:0:
448,192,190093,1,0,0:0:0:0:
64,192,190093,1,0,0:0:0:0:
192,192,190372,1,0,0:0:0:0:
192,192,190651,1,0,0:0:0:0:
64,192,190651,1,0,0:0:0:0:
320,192,190930,1,0,0:0:0:0:
448,192,191209,1,0,0:0:0:0:
320,192,191209,1,0,0:0:0:0:
64,192,191488,1,0,0:0:0:0:
448,192,191768,1,0,0:0:0:0:
64,192,191768,1,0,0:0:0:0:
320,192,192047,1,0,0:0:0:0:
320,192,192326,1,0,0:0:0:0:
192,192,192326,1,0,0:0:0:0:
64,192,192605,1,0,0:0:0:0:
64,192,192884,1,0,0:0:0:0:
448,192,192884,1,0,0:0:0:0:
320,192,193163,1,0,0:0:0:0:
320,192,193442,1,0,0:0:0:0:
64,192,193442,1,0,0:0:0:0:
448,192,193721,1,0,0:0:0:0:
448,192,194000,1,0,0:0:0:0:
64,192,194000,1,0,0:0:0:0:
192,192,194279,1,0,0:0:0:0:
64,192,194558,1,0,0:0:0:0:
192,192,194558,1,0,0:0:0:0:
448,192,194837,1,0,0:0:0:0:
448,192,195116,1,0,0:0:0:0:
64,192,195116,1,0,0:0:0:0:
320,192,195395,128,0,195675:0:0:0:0:
64,192,195675,1,0,0:0:0:0:
192,192,195675,1,0,0:0:0:0:
448,192,195954,1,0,0:0:0:0:
192,192,196233,1,0,0:0:0:0:
448,192,196233,1,0,0:0:0:0:
64,192,196512,1,0,0:0:0:0:
64,192,196791,1,0,0:0:0:0:
320,192,196791,1,0,0:0:0:0:
448,192,197070,1,0,0:0:0:0:
448,192,197349,1,0,0:0:0:0:
64,192,197349,1,0,0:0:0:0:
192,192,197628,1,0,0:0:0:0:
448,192,197907,1,0,0:0:0:0:
192,192,197907,1,0,0:0:0:0:
320,192,198186,1,0,0:0:0:0:
192,192,198465,1,0,0:0:0:0:
320,192,198465,1,0,0:0:0:0:
64,192,198744,1,0,0:0:0:0:
320,192,199023,1,0,0:0:0:0:
64,192,199023,1,0,0:0:0:0:
448,192,199302,128,0,199582:0:0:0:0:
64,192,199582,1,0,0:0:0:0:
192,192,199861,128,0,200140:0:0:0:0:
448,192,200140,128,0,200419:0:0:0:0:
64,192,200140,1,0,0:0:0:0:
192,192,200419,128,0,200698:0:0:0:0:
64,192,200698,128,0,200977:0:0:0:0:
448,192,200977,128,0,201256:0:0:0:0:
320,192,201256,128,0,201535:0:0:0:0:
192,192,201535,128,0,201814:0:0:0:0:
64,192,201814,128,0,202093:0:0:0:0:
448,192,202093,128,0,202372:0:0:0:0:
64,192,202372,128,0,202651:0:0:0:0:
192,192,202651,128,0,202930:0:0:0:0:
320,192,202930,128,0,203209:0:0:0:0:
192,192,203209,128,0,203488:0:0:0:0:
448,192,203488,128,0,203768:0:0:0:0:
192,192,203768,128,0,204047:0:0:0:0:
64,192,204047,128,0,204326:0:0:0:0:
448,192,204326,128,0,204605:0:0:0:0:
64,192,204605,128,0,205721:0:0:0:0:
192,192,204884,1,0,0:0:0:0:
320,192,205163,1,0,0:0:0:0:
192,192,205163,1,0,0:0:0:0:
320,192,205442,1,0,0:0:0:0:
192,192,205721,128,0,206837:0:0:0:0:
448,192,205721,1,0,0:0:0:0:
64,192,206000,1,0,0:0:0:0:
448,192,206000,1,0,0:0:0:0:
64,192,206279,1,0,0:0:0:0:
320,192,206558,1,0,0:0:0:0:
448,192,206558,1,0,0:0:0:0:
320,192,206837,128,0,207954:0:0:0:0:
192,192,207116,1,0,0:0:0:0:
64,192,207116,1,0,0:0:0:0:
448,192,207395,1,0,0:0:0:0:
448,192,207675,1,0,0:0:0:0:
64,192,207675,1,0,0:0:0:0:
448,192,207954,128,0,209070:0:0:0:0:
64,192,207954,1,0,0:0:0:0:
64,192,208233,128,0,208512:0:0:0:0:
320,192,208512,1,0,0:0:0:0:
192,192,208512,1,0,0:0:0:0:
64,192,208791,128,0,209070:0:0:0:0:
192,192,209070,1,0,0:0:0:0:
320,192,209070,1,0,0:0:0:0:
448,192,209209,1,0,0:0:0:0:
320,192,209349,1,0,0:0:0:0:
64,192,209488,1,0,0:0:0:0:
192,192,209628,1,0,0:0:0:0:
448,192,209768,1,0,0:0:0:0:
320,192,209907,1,0,0:0:0:0:
448,192,210047,1,0,0:0:0:0:
192,192,210186,1,0,0:0:0:0:
320,192,210326,1,0,0:0:0:0:
448,192,210465,1,0,0:0:0:0:
64,192,210605,1,0,0:0:0:0:
192,192,210744,1,0,0:0:0:0:
320,192,210884,1,0,0:0:0:0:
64,192,211023,1,0,0:0:0:0:
320,192,211163,1,0,0:0:0:0:
448,192,211302,1,0,0:0:0:0:
192,192,211442,1,0,0:0:0:0:
64,192,211582,1,0,0:0:0:0:
448,192,211721,1,0,0:0:0:0:
320,192,211861,1,0,0:0:0:0:
192,192,212000,1,0,0:0:0:0:
448,192,212140,1,0,0:0:0:0:
192,192,212279,1,0,0:0:0:0:
64,192,212419,1,0,0:0:0:0:
448,192,212558,1,0,0:0:0:0:
320,192,212698,1,0,0:0:0:0:
64,192,212837,1,0,0:0:0:0:
192,192,212977,1,0,0:0:0:0:
320,192,213116,1,0,0:0:0:0:
448,192,213256,1,0,0:0:0:0:
320,192,213395,1,0,0:0:0:0:
64,192,213535,128,0,215488:0:0:0:0:
448,192,213535,1,0,0:0:0:0:
448,192,215488,128,0,224140:0:0:0:0:
320,192,223930,128,0,224140:0:0:0:0:
