osu file format v9

[General]
AudioFilename: DJ Sharpnel - PARTY TIME!.mp3
AudioLeadIn: 0
PreviewTime: 61740
Countdown: 0
SampleSet: Normal
StackLeniency: 0.4
Mode: 0
LetterboxInBreaks: 1

[Editor]
DistanceSpacing: 1
BeatDivisor: 4
GridSize: 4

[Metadata]
Title:Party Time!
Artist:DJ Sharpnel
Creator:phoon
Version:Insane
Source:
Tags:

[Difficulty]
HPDrainRate:6
CircleSize:4
OverallDifficulty:7
ApproachRate:8
SliderMultiplier:1.8
SliderTickRate:2

[Events]
//Background and Video events
0,0,"77676.jpg"
//Break Periods
2,83106,92360
//Storyboard Layer 0 (Background)
//Storyboard Layer 1 (Fail)
//Storyboard Layer 2 (Pass)
//Storyboard Layer 3 (Foreground)
//Storyboard Sound Samples
//Background Colour Transformations
3,100,0,128,255

[TimingPoints]
29335,318.877551020408,4,1,0,100,1,0
34078,-100,4,1,0,66,0,0
35353,-100,4,1,0,66,0,0
36602,-100,4,1,0,100,0,0
44282,-100,4,1,0,65,0,0
45557,-100,4,1,0,65,0,0
45717,-100,4,1,0,85,0,0
45876,-100,4,1,0,97,0,0
46793,-100,4,1,0,100,0,0
50022,-200,4,2,0,100,0,0
61103,-200,4,1,0,100,0,0
62219,-100,4,1,0,100,0,0
62498,-100,4,1,0,100,0,1
67560,-100,4,1,0,51,0,1
67879,-100,4,1,0,85,0,1
68198,-100,4,1,0,85,0,1
68835,-100,4,1,0,53,0,1
69154,-100,4,1,0,74,0,1
69473,-100,4,1,0,92,0,1
70111,-100,4,1,0,51,0,1
70430,-100,4,1,0,58,0,1
70669,-100,4,1,0,65,0,1
70908,-100,4,1,0,73,0,1
71147,-100,4,1,0,83,0,1
71386,-100,4,1,0,92,0,1
71626,-100,4,1,0,98,0,1
71865,-100,4,1,0,100,0,1
77764,-100,4,1,0,51,0,1
78083,-100,4,1,0,65,0,1
78402,-100,4,1,0,86,0,1
79040,-100,4,1,0,51,0,1
79358,-100,4,1,0,66,0,1
79677,-100,4,1,0,83,0,1
79996,-100,4,1,0,95,0,1
82906,-100,4,1,0,100,0,0
93030,-100,4,1,0,51,0,0
95581,-100,4,1,0,66,0,0
98132,-100,4,1,0,87,0,0
100683,-100,4,1,0,100,0,0
102915,-100,4,1,0,0,0,0
103274,-200,4,1,0,100,0,0
103832,-100,4,1,0,100,0,0
103952,-100,4,1,0,100,0,1
121968,-100,4,1,0,100,0,0
124360,-100,4,1,0,100,0,1
124440,-100,4,1,0,100,0,0

[Colours]
Combo1 : 179,179,179
Combo2 : 132,255,132
Combo3 : 102,179,255

[HitObjects]
80,84,29335,1,8
80,84,29494,1,0
80,84,29653,2,0,B|184:84,1,90
260,84,29972,2,0,B|292:120|292:120|252:156,1,90
172,148,30291,2,0,B|140:184|140:184|184:220,1,90
264,212,30610,5,8
288,212,30690,1,0
312,212,30769,1,0
336,212,30849,1,0
360,212,30929,1,0
384,212,31009,1,0
408,212,31088,1,0
408,304,31248,1,0
408,112,31567,6,0,B|304:112,1,90
228,112,31886,2,0,B|184:112|184:112|156:144,1,67.5,8|0
168,220,32204,2,0,B|168:264|168:264|186:279,1,67.5
276,280,32523,2,0,B|336:280,4,45
276,208,33002,1,0
276,136,33161,2,0,B|216:136,3,45,8|0|0|0
124,132,33639,1,0
124,268,34118,5,0
124,268,34437,1,0
388,268,35393,5,0
388,268,35712,1,0
124,268,36669,5,0
124,268,36828,1,0
124,268,36988,1,8
124,268,37147,2,0,B|252:268,2,90
124,268,37625,2,0,B|124:140,2,90
156,236,38104,1,0
172,220,38183,1,0
188,204,38263,1,0
204,188,38343,1,0
220,172,38423,1,0
252,140,38582,1,0
276,140,38662,1,0
300,140,38741,1,0
324,140,38821,1,0
348,140,38901,1,0
372,140,38981,1,0
396,140,39060,1,0
396,284,39379,5,0
396,284,39539,2,0,B|304:284,1,90,8|0
216,284,39857,2,0,B|216:240|216:240|172:240,1,90
80,240,40176,2,0,B|34:240|34:240|34:196,1,90
36,104,40495,2,0,B|36:60|36:60|82:60,1,90
172,60,40814,1,8
196,60,40894,1,0
220,60,40974,1,0
244,60,41053,1,0
268,60,41133,1,0
292,60,41213,1,0
316,60,41292,1,0
440,192,41452,1,0
316,324,41771,6,0,B|296:284|296:284|272:328,1,90
248,284,42090,2,0,B|228:324|228:324|204:280,3,90,8|0|0|0
208,196,42727,1,0
208,172,42807,1,0
208,152,42887,1,0
232,152,42967,1,0
256,152,43046,1,0
348,152,43206,1,0
348,244,43365,1,8
348,268,43445,1,0
348,288,43525,1,0
76,292,43843,1,0
256,80,44322,5,0
404,184,44481,1,0
232,244,44641,1,0
232,244,45597,5,0
92,132,45757,1,0
256,80,45916,1,0
256,80,46873,5,0
280,80,46952,1,0
304,80,47032,1,0
304,168,47192,1,0
280,168,47271,1,0
256,168,47351,1,0
256,260,47511,1,0
280,260,47590,1,0
304,260,47670,1,0
376,260,47829,2,0,B|400:260,8,22.5
376,172,48308,5,0
212,92,48627,1,0
128,128,48786,1,0
48,172,48945,1,0
128,216,49105,1,0
248,280,49344,1,0
368,216,49583,1,4
412,92,50062,6,0,B|316:92,1,90
320,136,50699,2,0,B|224:136,1,90
140,136,51337,1,0
68,192,51656,2,0,B|40:236|72:276,3,90
160,276,52931,1,0
192,256,53091,1,0
228,256,53250,1,0
260,236,53410,1,0
296,236,53569,1,0
328,216,53729,1,0
328,144,54048,5,0
304,120,54207,1,0
280,96,54366,1,0
244,96,54526,1,0
220,120,54685,1,0
196,144,54845,1,0
120,192,55164,6,0,B|120:248|180:248,1,90
264,248,55801,2,0,B|352:248,2,90
264,156,56758,1,0
264,64,57077,2,0,B|172:64,1,90
84,64,57715,2,0,B|84:156,1,90
84,244,58352,2,0,B|176:243,2,90
256,192,59150,12,0,60903
256,192,61222,5,0
256,192,61461,1,0
256,192,61701,2,0,B|392:192,1,135
452,60,62498,5,8
432,192,62657,1,0
316,120,62817,1,0
296,252,62976,1,0
160,264,63136,2,0,B|138:225|138:225|177:202,1,90
224,84,63454,2,0,B|246:122|246:122|207:146,1,90
280,204,63773,2,0,B|242:227|242:227|219:188,1,90,8|0
104,140,64092,2,0,B|143:118|143:118|166:157,1,90
360,184,64411,5,0
240,284,64570,1,0
356,284,64730,1,2
240,184,64889,1,0
120,284,65049,1,8
240,284,65208,1,0
120,184,65368,1,0
168,88,65527,2,0,B|124:88,6,45
216,132,66165,2,0,B|170:132|170:132|170:88,1,90,0|8
260,180,66484,2,0,B|216:180|216:180|216:134,1,90
304,228,66803,2,0,B|260:228|260:228|260:182,1,90
156,76,67281,5,2
156,76,67440,1,0
84,192,67600,1,0
84,192,67680,1,0
84,192,67759,1,0
220,192,67919,1,0
220,192,67998,1,0
220,192,68078,1,0
356,192,68238,1,0
356,192,68317,1,0
356,192,68397,1,0
356,268,68875,5,0
348,288,68955,1,0
340,308,69035,1,0
216,268,69194,1,0
208,288,69274,1,0
200,308,69354,1,0
80,268,69513,1,0
72,288,69593,1,0
64,308,69673,1,0
84,176,70151,5,0
92,156,70231,1,0
100,136,70310,1,0
108,116,70390,1,0
116,96,70470,1,0
124,76,70549,1,0
136,100,70629,1,0
144,120,70709,1,0
152,140,70789,1,0
160,156,70868,1,0
168,176,70948,1,0
176,156,71028,1,0
184,136,71107,1,0
192,116,71187,1,0
200,96,71267,1,0
208,76,71347,1,0
220,100,71426,1,0
228,120,71506,1,0
236,140,71586,1,0
244,160,71665,1,0
252,176,71745,1,0
348,192,72064,6,0,B|348:184|348:184|356:192|356:192|356:184|356:184|364:192|364:192|364:184|364:184|372:192|372:192|372:184|372:184|380:192|380:192|380:184|380:184|388:192|388:192|388:184|388:184|396:192|396:192|396:184|396:184|404:192|404:192|404:184|404:184|412:192|412:192|412:184|412:184|420:192|420:192|420:184|420:184|428:192,1,180
348,104,72702,1,8
348,192,72861,1,0
256,192,73021,1,0
256,104,73180,1,0
436,104,73340,1,0
436,284,73499,1,0
256,284,73658,1,0
256,104,73818,1,0
152,192,73977,6,0,B|152:240|152:240|100:240,1,90,8|0
360,192,74296,2,0,B|360:240|360:240|412:240,1,90
256,104,74615,2,0,B|256:59,4,45,0|0|0|0|2
256,104,75093,2,0,B|183:165,1,90,0|8
48,276,75412,2,0,B|118:219,1,90
324,160,75731,2,0,B|256:218,1,90
120,332,76050,2,0,B|190:276,1,90
256,104,76369,2,0,B|329:165,1,90,0|8
464,276,76688,2,0,B|394:219,1,90
188,160,77007,2,0,B|256:218,1,90
392,332,77326,2,0,B|322:276,1,90,0|2
432,100,77804,5,0
432,100,77884,1,0
432,100,77963,1,0
296,100,78123,1,0
296,100,78202,1,0
296,100,78282,1,0
160,100,78442,1,0
160,100,78521,1,0
160,100,78601,1,0
160,236,79079,5,0
184,236,79159,1,0
208,236,79239,1,0
232,236,79319,1,0
256,236,79398,1,0
280,236,79478,1,0
304,236,79558,1,0
328,236,79637,1,0
352,236,79717,1,0
376,236,79797,1,0
400,236,79877,1,0
424,236,79956,1,0
448,236,80036,1,0
448,144,80355,1,4
448,144,80514,1,4
256,192,80674,12,0,82906
72,60,93110,5,0
440,60,93429,1,0
84,148,93748,1,0
428,148,94067,1,0
96,236,94386,1,0
416,236,94704,1,0
112,324,95023,1,0
404,320,95342,1,0
404,64,95661,5,0
404,320,95980,1,0
316,60,96299,1,0
316,316,96618,1,0
228,60,96937,1,0
228,316,97255,1,0
140,60,97574,1,0
140,316,97893,1,0
376,316,98212,5,0
376,80,98531,1,0
140,80,98850,1,0
140,316,99169,1,0
196,45,99488,5,0
415,129,99806,1,0
329,348,100125,1,0
109,263,100444,1,0
258,24,100763,5,0
90,190,101082,1,0
258,357,101401,1,0
424,191,101720,1,0
256,192,102039,12,0,102995
256,192,103314,6,0,B|400:192,1,135
436,100,103952,5,0
436,100,104032,2,0,B|408:100|408:100|388:120,1,45
320,112,104271,1,0
320,112,104350,2,0,B|292:112|292:112|272:92,1,45
148,96,104590,1,8
148,96,104669,1,0
148,96,104749,1,0
148,96,104829,1,0
148,96,104908,2,0,B|148:148|148:148|184:184,1,90
244,232,105227,1,0
276,264,105307,1,0
308,296,105387,1,0
340,264,105467,1,0
372,232,105546,1,0
372,140,105706,6,0,B|332:116|332:116|296:144,3,90,0|8|0|2
116,144,106503,1,0
116,144,106583,1,0
116,144,106662,1,0
116,144,106742,1,0
116,144,106822,2,0,B|116:200|116:200|180:200,1,112.5
276,200,107141,1,8
276,200,107220,1,0
276,200,107300,1,0
276,200,107380,1,0
276,200,107460,2,0,B|276:144|276:144|340:144,1,112.5
468,144,107778,5,0
468,188,107858,1,0
468,232,107938,1,0
468,276,108018,1,0
468,320,108097,1,0
420,320,108177,1,0
376,320,108257,1,0
332,320,108336,1,0
288,320,108416,1,8
108,320,108735,5,2
108,320,108894,1,0
112,232,109054,2,0,B|144:224|144:224|176:240|176:240|208:232,4,90,0|0|0|0|8
112,232,109851,1,0
112,232,110329,2,0,B|104:200|104:200|119:168|119:168|111:136,4,90,0|0|0|0|8
112,232,111127,1,0
256,192,111605,12,0,112880
124,192,113359,5,0
168,192,113438,1,0
212,192,113518,1,0
256,192,113598,1,0
300,192,113678,1,0
344,192,113757,1,0
388,192,113837,1,0
256,68,114156,6,0,B|280:68|280:68|296:84,1,45
312,100,114315,1,0
312,192,114475,2,0,B|288:192|288:192|272:208,1,45
260,224,114634,1,0
168,228,114794,2,0,B|168:280|168:280|204:316,1,90,8|0
284,308,115113,1,0
328,308,115192,1,0
372,308,115272,1,0
372,148,115431,2,0,B|372:96|372:96|336:60,1,90
256,68,115750,1,0
212,68,115830,1,0
168,68,115910,1,0
76,68,116069,6,0,B|40:96|40:96|80:124,2,90,8|0|2
76,160,116707,1,0
76,204,116787,1,0
76,248,116866,1,0
76,292,116946,1,0
76,336,117026,1,0
436,224,117345,1,8
436,180,117424,1,0
436,136,117504,1,0
436,92,117584,1,0
436,48,117664,1,0
256,72,117982,5,0
256,96,118062,1,0
256,120,118142,1,0
256,144,118222,1,0
256,168,118301,1,0
256,192,118381,1,0
256,216,118461,1,0
256,240,118540,1,0
256,264,118620,1,10
396,192,118939,5,0
116,192,119099,1,0
116,102,119258,2,0,B|116:192,1,90
208,100,119577,2,0,B|118:100,1,90
300,100,119896,2,0,B|210:100,1,90
396,282,120533,2,0,B|396:192,1,90
304,284,120852,2,0,B|394:284,1,90
212,284,121171,2,0,B|302:284,1,90
212,284,121809,1,4
212,284,121968,1,4
256,192,122128,12,0,124360
