osu file format v9

[General]
AudioFilename: DJ Sharpnel - PARTY TIME!.mp3
AudioLeadIn: 0
PreviewTime: 61740
Countdown: 0
SampleSet: Normal
StackLeniency: 0
Mode: 0
LetterboxInBreaks: 1

[Editor]
DistanceSpacing: 0.8
BeatDivisor: 4
GridSize: 4

[Metadata]
Title:Party Time!
Artist:DJ Sharpnel
Creator:phoon
Version:Hard
Source:
Tags:

[Difficulty]
HPDrainRate:5
CircleSize:4
OverallDifficulty:5
ApproachRate:6
SliderMultiplier:1.4
SliderTickRate:2

[Events]
//Background and Video events
0,0,"77676.jpg"
//Break Periods
2,83106,92060
//Storyboard Layer 0 (Background)
//Storyboard Layer 1 (Fail)
//Storyboard Layer 2 (Pass)
//Storyboard Layer 3 (Foreground)
//Storyboard Sound Samples
//Background Colour Transformations
3,100,0,128,255

[TimingPoints]
29335,318.877551020408,4,1,0,100,1,0
34038,-100,4,1,0,50,0,0
35313,-100,4,1,0,77,0,0
36589,-100,4,1,0,100,0,0
44242,-100,4,1,0,51,0,0
45518,-100,4,1,0,79,0,0
46793,-100,4,1,0,100,0,0
49743,-200,4,2,0,100,0,0
62498,-100,4,1,0,100,0,1
82906,-133.333333333333,4,1,0,100,0,0
93030,-133.333333333333,4,1,0,52,0,0
95581,-133.333333333333,4,1,0,67,0,0
98132,-133.333333333333,4,1,0,88,0,0
100683,-133.333333333333,4,1,0,51,0,0
101959,-100,4,1,0,74,0,0
103234,-200,4,1,0,100,0,0
103952,-100,4,1,0,100,0,1
121968,-100,4,1,0,100,0,0
124360,-100,4,1,0,100,0,1
124440,-100,4,1,0,100,0,0

[Colours]
Combo1 : 179,179,179
Combo2 : 132,255,132
Combo3 : 102,179,255

[HitObjects]
72,72,29335,2,0,B|212:72,1,140,8|0
284,72,29972,2,0,B|360:72|360:72|360:140,1,140
360,208,30610,2,0,B|440:208,4,70,8|0|0|0|0
360,208,31567,1,0
288,208,31886,6,0,B|144:208,1,140,8|0
76,208,32523,2,0,B|76:280|76:280|156:280,1,140
216,280,33161,1,8
216,280,33320,1,0
216,280,33480,1,0
216,280,33639,1,0
320,280,34118,6,0,B|368:280|368:280|368:228|368:228|420:228|420:228,1,140,0|0
256,84,35393,6,0,B|268:84|216:84|216:84|216:136|216:136|168:136,1,140,0|0
72,192,36669,6,0,B|216:192,1,140
284,192,37147,2,0,B|368:192,2,70
232,144,37625,2,0,B|176:97,1,70
212,192,37944,2,0,B|140:192,1,70
232,240,38263,2,0,B|176:286,1,70
280,264,38582,2,0,B|273:335,1,70
340,236,38901,2,0,B|386:291,1,70
340,236,39220,1,0
348,168,39379,5,0
348,168,39539,2,0,B|420:168|420:168|460:104,1,140,8|0
456,168,40176,2,0,B|419:110|419:110|347:110,1,140
276,108,40814,2,0,B|276:40,4,70,8|0|0|0|0
276,108,41771,1,0
204,108,42090,2,0,B|155:59|155:59|105:110,1,140,8|0
108,112,42727,2,0,B|156:160|156:160|206:109,1,140
276,108,43365,1,8
276,108,43525,1,0
276,108,43684,1,0
276,108,43843,1,0
372,88,44322,5,0
372,88,44641,1,0
372,296,45597,5,0
372,296,45916,1,0
160,296,46873,6,0,B|76:296,1,70
160,296,47192,2,0,B|87:254,1,70,8|0
160,296,47511,2,0,B|118:223,1,70
160,296,47829,2,0,B|160:212,3,70
160,156,48467,1,8
232,156,48627,1,0
300,156,48786,1,0
368,156,48945,2,0,B|368:256,1,70
368,226,49344,2,0,B|248:228,1,105
400,96,50062,6,0,B|368:68|336:96,1,70
336,96,50699,2,0,B|307:128|335:160,1,70
335,161,51337,2,0,B|363:193|336:224,1,70
336,224,51975,2,0,B|304:251|273:224,3,70
204,224,53250,1,0
204,120,53569,1,0
100,120,53888,2,0,B|52:119,6,35
204,120,55164,6,0,B|232:152|205:183,1,70
144,184,55801,2,0,B|176:156|207:183,1,70
204,248,56439,2,0,B|178:217|206:185,1,70
268,188,57077,2,0,B|237:214|206:186,1,70
205,185,57715,1,0
316,184,58033,1,0
260,276,58352,1,0
204,184,58671,1,0
260,88,58990,1,0
256,192,59309,12,0,61701
68,60,62498,5,8
176,92,62817,1,0
256,172,63136,1,0
364,204,63454,1,0
256,224,63773,2,0,B|164:224,1,70,8|0
188,152,64092,2,0,B|188:244,1,70
120,224,64411,2,0,B|211:223,1,70
190,223,64730,1,2
272,148,65049,5,8
384,148,65368,1,0
328,52,65687,1,0
216,52,66005,1,0
104,52,66324,2,0,B|36:52,1,70,8|0
104,52,66643,2,0,B|45:85,1,70
104,52,66962,2,0,B|70:110,1,70
104,52,67281,1,2
296,228,67600,6,0,B|296:160,1,70,8|0
344,188,67919,2,0,B|344:120,1,70
392,148,68238,2,0,B|392:80,1,70
216,156,68875,6,0,B|216:224,1,70,8|0
168,196,69194,2,0,B|168:264,1,70
120,236,69513,2,0,B|120:304,1,70
256,192,70151,12,0,72383
452,56,72702,5,8
344,84,73021,1,0
236,56,73340,1,0
344,84,73658,1,0
340,196,73977,2,0,B|240:196,1,70,8|0
220,148,74296,2,0,B|290:218,1,70
269,197,74615,1,0
256,228,74695,1,0
240,260,74775,1,0
240,260,74934,1,2
188,120,75253,5,8
108,200,75572,1,0
188,280,75891,1,0
108,200,76210,1,0
188,280,76528,2,0,B|280:280,1,70,8|0
328,280,76847,2,0,B|240:280,1,70
258,280,77166,1,0
258,280,77246,1,0
258,280,77326,1,0
258,280,77485,1,2
364,192,77804,6,0,B|313:119,1,70,8|0
188,136,78123,2,0,B|137:208,1,70
364,192,78442,2,0,B|313:119,1,70
148,192,79079,6,0,B|198:264,1,70,8|0
324,248,79398,2,0,B|374:175,1,70
148,192,79717,2,0,B|198:264,1,70
188,248,80355,1,4
188,248,80514,1,4
256,192,80674,12,0,82906
256,68,93110,6,0,B|256:192,1,104.999996870756
256,173,93748,2,0,B|180:172,2,52.4999984353781
256,173,94386,2,0,B|384:172,1,104.999996870756
360,276,95023,1,0
176,172,95661,6,0,B|64:172,1,104.999996870756
72,172,96299,2,0,B|72:96,2,52.4999984353781
72,276,96937,2,0,B|188:276,1,104.999996870756
284,276,97574,1,0
412,108,98212,6,0,B|412:180|412:180|368:216,1,104.999996870756
386,200,98850,2,0,B|440:248,2,52.4999984353781
308,132,99488,2,0,B|256:132|256:132|216:168,1,104.999996870756
140,240,100125,1,0
256,192,100763,6,0,B|304:192,15,26.2499992176891
256,192,102039,2,0,B|212:192,20,26.2499992176891
256,192,103314,2,0,B|256:84,1,105
256,88,103952,5,0
340,160,104271,1,0
256,228,104590,1,8
168,160,104908,1,0
144,228,105227,2,0,B|126:305,1,70
144,228,105546,2,0,B|66:248,1,70
144,228,105865,1,8
172,228,105945,1,0
200,228,106025,1,0
256,228,106184,1,2
360,192,106503,5,0
424,100,106822,1,0
360,192,107141,1,8
296,100,107460,1,0
184,100,107778,2,0,B|144:100|144:100|116:128,1,70
184,100,108097,2,0,B|224:100|224:100|252:72,1,70,0|0
184,100,108416,1,8
184,128,108496,1,0
184,156,108576,1,0
184,212,108735,1,2
280,172,109054,6,0,B|316:172|316:172|288:128,1,70
272,100,109373,2,0,B|253:68|253:68|229:115,1,70
216,140,109692,2,0,B|198:171|198:171|231:169,1,70,0|0
48,192,110329,2,0,B|48:228|48:228|80:260,1,70
72,252,110648,2,0,B|148:252,1,70
200,252,110967,1,0
210,280,111047,1,0
222,308,111127,1,0
256,192,111605,12,0,113518
256,192,114156,5,0
368,192,114475,1,0
256,192,114794,1,8
256,80,115113,1,0
256,192,115431,2,0,B|168:192,1,70
256,192,115750,2,0,B|256:264,1,70
200,264,116069,1,8
172,264,116149,1,0
144,264,116229,1,0
88,264,116388,1,2
84,152,116707,5,0
148,60,117026,1,0
208,152,117345,1,8
272,60,117664,1,0
336,152,117982,2,0,B|376:208,1,70
336,152,118301,2,0,B|412:152,1,70
392,96,118620,1,8
364,96,118700,1,0
336,96,118780,1,0
336,152,118939,1,2
148,130,119258,6,0,B|148:200,1,70
220,132,119577,2,0,B|144:132,1,70
220,64,119896,2,0,B|220:148,1,70
364,130,120533,2,0,B|364:200,1,70
292,132,120852,2,0,B|368:132,1,70
292,64,121171,2,0,B|292:148,1,70
292,64,121809,1,4
292,64,121968,1,4
256,192,122128,12,0,124360
