osu file format v9

[General]
AudioFilename: 01 Marunouchi surviver.mp3
AudioLeadIn: 0
PreviewTime: 67114
Countdown: 0
SampleSet: Normal
StackLeniency: 0.7
Mode: 0
LetterboxInBreaks: 1

[Editor]
DistanceSpacing: 1
BeatDivisor: 4
GridSize: 8

[Metadata]
Title:Marunouchi surviver
Artist:DJ Sharpnel
Creator:K o h a k u
Version:kohaku
Source:
Tags:mawaru penguindrum chocopikel galvenize

[Difficulty]
HPDrainRate:6
CircleSize:5
OverallDifficulty:8
ApproachRate:9
SliderMultiplier:2
SliderTickRate:1

[Events]
//Background and Video events
0,0,"f8527499.jpg"
//Break Periods
2,118818,121611
//Storyboard Layer 0 (Background)
//Storyboard Layer 1 (Fail)
//Storyboard Layer 2 (Pass)
//Storyboard Layer 3 (Foreground)
//Storyboard Sound Samples
//Background Colour Transformations
3,100,163,162,255

[TimingPoints]
62331,299.40119760479,4,1,0,70,1,0
62388,-100,4,1,0,70,0,1
62474,-100,4,1,2,70,0,0
121306,-100,4,1,0,70,0,1
122205,-100,4,1,1,70,0,0
126995,-80,4,1,1,70,0,0
129390,-100,4,1,1,70,0,0
131785,-66.6666666666667,4,1,1,70,0,0
134181,-100,4,1,1,70,0,0
198851,-100,4,1,1,70,0,1
199001,-100,4,1,1,70,0,0

[Colours]
Combo1 : 255,128,64
Combo2 : 255,255,0
Combo3 : 0,0,160

[HitObjects]
104,32,62330,6,0,B|192:96|296:96,1,200,4|0
448,112,62929,2,0,B|360:192,1,100
400,336,63378,2,0,B|256:312|256:312|200:272,1,200
176,208,63828,1,0
248,168,63977,1,0
336,32,64277,5,8
336,112,64426,1,0
336,192,64576,1,4
256,192,64726,2,0,B|240:248|256:312,2,100,4|0|4
256,112,65175,1,8
72,64,65474,5,4
120,128,65624,1,0
168,192,65774,1,8
440,64,66073,5,4
392,128,66223,1,0
344,192,66372,1,8
264,192,66522,2,0,B|264:240|264:240,2,50
264,112,66822,1,0
264,112,66896,1,0
264,112,66971,1,0
216,48,67121,5,8
136,48,67271,1,0
72,96,67420,2,0,B|32:144|32:144|32:200,1,100
64,256,67720,2,0,B|96:296|96:296|152:296,1,100,0|0
224,296,68019,1,0
304,296,68169,1,0
384,296,68319,2,0,B|424:256|424:256|424:160|424:160|376:112,1,200,8|0
360,56,68768,2,0,B|320:96|320:96|320:192|320:192|368:240,1,200
432,224,69217,1,0
136,48,69516,5,8
136,128,69666,1,0
136,208,69816,2,0,B|192:240|192:240|248:240,1,100
376,208,70115,2,0,B|320:240|320:240|264:240,1,100
256,168,70414,2,0,B|256:64,1,100
328,32,70714,2,0,B|424:64|424:64|488:160,1,200,8|0
184,32,71163,2,0,B|88:64|88:64|24:160,1,200
64,224,71612,6,0,B|112:176|112:176|160:176|160:176,2,100
136,256,72061,1,0
216,256,72211,2,0,B|296:256|296:256|352:256,1,100
464,136,72510,6,0,B|240:136,1,200,2|0
216,72,72959,2,0,B|424:72,1,200,2|0
464,136,73408,5,0
464,216,73558,1,0
384,216,73708,2,0,B|272:216,1,100,8|0
280,136,74007,2,0,B|392:136,1,100
104,40,74307,5,2
104,40,74606,1,0
256,272,74905,5,0
264,192,75055,1,0
344,200,75205,1,0
344,200,75354,6,0,B|368:144|368:144|424:128|424:128,2,100
264,192,75804,1,0
184,192,75953,2,0,B|64:192,1,100,0|0
112,104,76253,1,0
136,104,76328,1,0
160,104,76402,1,0
184,104,76477,1,0
208,104,76552,1,0
416,72,76702,5,8
456,144,76851,1,0
416,216,77001,2,0,B|368:264|368:264|296:240,1,100
264,224,77301,2,0,B|312:176|312:176|384:200,1,100
328,104,77600,1,0
328,24,77750,2,0,B|192:24,1,100,0|8
152,56,78049,2,0,B|88:80|88:80|56:136|56:136|56:216,1,200
192,120,78648,1,0
192,200,78798,1,0
192,280,78947,1,0
352,280,79097,6,0,B|384:240|384:240|352:160,1,100,8|0
312,88,79396,2,0,B|280:128|280:128|312:208,1,100
248,280,79696,2,0,B|216:240|216:240|248:160,1,100
144,88,79995,2,0,B|176:128|176:128|144:208,1,100
80,184,80295,6,0,B|80:248|80:248|104:288,1,100,8|0
160,328,80594,1,0
232,288,80744,1,0
360,192,81043,6,0,B|464:192|472:192,2,100
256,128,81492,5,8
256,248,81642,1,0
168,128,81792,1,0
168,248,81941,1,0
80,192,82091,6,0,B|-40:192|-40:192,2,100,8|0|0
80,88,82540,1,0
296,80,82839,5,0
368,112,82989,1,8
336,184,83139,1,0
376,256,83289,2,0,B|384:304|384:304|448:312|448:304,2,100,8|0|0
256,80,83887,5,2
256,80,84187,1,0
256,240,84486,2,0,B|208:296|208:296|152:304,1,100,2|0
80,176,84935,2,0,B|96:128|96:128|168:72|168:72|208:16,1,200,2|0
280,24,85384,1,0
360,24,85534,1,0
416,80,85684,2,0,B|448:160|448:160|432:200|432:200,1,100,2|0
416,248,85983,5,0
352,296,86133,1,0
320,224,86283,1,8
240,232,86432,2,0,B|152:264|152:264|80:352,1,200
48,280,86881,1,0
0,216,87031,2,0,B|88:184|88:184|160:96,1,200
296,32,87630,1,0
296,32,87929,6,0,B|296:136|296:136,2,100
368,64,88378,2,0,B|480:64|480:64,2,100,0|0|8
392,144,88828,1,0
360,216,88977,1,0
336,296,89127,2,0,B|248:344|248:344|120:320,1,200
80,288,89576,2,0,B|168:240|168:240|296:264,1,200
272,176,90025,2,0,B|208:144|208:144|144:144,1,100
272,80,90325,2,0,B|336:48|336:48|400:48,1,100
424,104,90624,5,0
440,184,90774,1,0
408,256,90923,1,0
360,320,91073,2,0,B|256:320,1,100,8|0
120,192,91372,2,0,B|224:192,1,100
368,64,91672,2,0,B|264:64,1,100
192,64,91971,5,0
320,168,92121,1,0
192,272,92271,1,8
128,320,92420,6,0,B|40:264,1,100
136,120,92720,2,0,B|240:192,1,100
280,128,93019,1,0
360,104,93169,2,0,B|360:0|360:0,2,100,0|0|8
392,176,93618,2,0,B|528:176|528:176,2,100
352,248,94067,2,0,B|352:296|352:296|296:344|296:336,1,100
272,256,94366,2,0,B|272:208|272:208|328:160|328:168,1,100
232,32,94666,6,0,B|232:80|232:80|176:128|176:120,1,100,8|0
112,136,94965,2,0,B|112:88|112:88|168:40|168:48,1,100,8|0
232,32,95265,2,0,B|296:32|296:32,4,50
256,112,95714,6,0,B|256:208,1,50,0|8
256,200,95863,2,0,B|256:320,1,100,4|0
184,256,96163,2,0,B|104:184|104:184,2,100
256,296,96612,1,0
328,256,96762,2,0,B|408:184|408:184,2,100
352,336,97211,2,0,B|456:336,1,100
160,336,97510,2,0,B|56:336,1,100
48,192,97810,6,0,B|-16:224|-16:224,2,50
120,160,98109,2,0,B|184:160,1,50,0|8
208,160,98259,2,0,B|336:160,1,100,4|0
376,120,98558,2,0,B|464:56|464:56,2,100
304,160,99007,1,0
376,200,99157,2,0,B|288:288,2,100
416,272,99606,2,0,B|336:352,1,100
216,168,99905,2,0,B|296:88,1,100
240,32,100205,5,2
160,32,100354,1,2
96,72,100504,1,0
88,152,100654,2,0,B|88:216|88:216|32:264|40:256,2,100,8|0|0
168,144,101103,1,0
248,152,101253,2,0,B|248:216|248:216|304:264|296:256,2,100
304,88,101702,1,0
384,104,101851,2,0,B|496:104,1,100,8|0
432,192,102151,1,0
128,120,102600,5,8
184,64,102750,1,0
264,40,102899,2,0,B|368:40|376:144|432:144,1,200,0|8
264,344,103348,2,0,B|368:344|376:240|432:240,1,200
360,192,103798,1,8
280,192,103947,1,0
200,192,104097,1,0
120,200,104247,6,0,B|72:208|72:208,6,50
128,160,104771,2,0,B|88:128|88:128,7,50
184,104,105444,5,4
416,40,105893,1,2
416,40,106193,2,0,B|416:144|416:144,1,100
416,312,106642,5,4
176,312,107091,1,2
176,312,107390,2,0,B|80:248,1,100
176,64,107839,5,4
384,192,108289,1,2
384,192,108588,2,0,B|256:192,1,100
200,192,108887,5,0
144,136,109037,1,8
144,136,109112,1,0
144,136,109187,1,0
192,72,109336,1,0
256,24,109486,1,0
256,24,109561,1,0
256,24,109636,1,8
320,72,109786,1,0
360,144,109935,1,0
360,144,110010,1,0
360,144,110085,1,0
360,272,110235,6,0,B|240:272,1,100,2|0
260,272,110684,1,0
120,192,110983,5,0
120,192,111133,1,0
152,120,111283,1,0
152,120,111432,1,0
216,80,111582,1,0
216,80,111732,1,0
296,80,111881,1,0
296,80,112031,1,0
360,128,112181,1,0
360,128,112330,1,0
408,192,112480,1,0
400,272,112630,5,0
368,296,112705,1,0
328,304,112780,1,0
288,304,112854,1,0
248,304,112929,1,0
216,288,113004,1,0
184,264,113079,1,0
168,232,113154,1,0
160,192,113229,1,0
168,152,113304,1,0
184,112,113378,1,0
216,80,113453,1,0
248,64,113528,1,0
288,56,113603,1,0
328,56,113678,1,0
360,72,113753,1,0
384,104,113828,6,0,B|384:128,32,25,0|0|0|0|0|0|0|0|0|0|0|0|0|0|0|0|0|0|0|0|0|0|0|0|0|0|0|0|0|0|0|0|4
96,104,115325,5,0
224,16,115624,2,0,B|272:0|272:0|336:0,1,100
456,88,116073,2,0,B|488:184|488:184|472:288,1,200
400,304,116522,1,0
320,328,116672,1,0
72,192,116971,5,2
152,192,117121,1,2
232,192,117271,1,2
320,48,117420,6,0,B|208:48,1,100,2|2
80,128,117869,1,2
176,256,118169,1,2
336,256,118468,1,2
336,256,118618,1,4
344,40,122211,6,0,B|264:96|264:96|144:24,1,200,8|0
168,192,122810,1,2
256,192,122959,1,2
344,192,123109,1,2
344,64,123408,6,0,B|264:128|264:128|152:56,1,200,8|0
168,256,124007,1,2
256,256,124157,1,2
344,256,124307,1,2
352,272,124606,6,0,B|288:240|224:240|128:272,1,200,8|0
256,136,125205,2,0,B|256:32|256:32,2,100,8|0|0
256,192,125654,12,0,126702
384,280,127001,6,0,B|256:240|256:240|128:280,1,249.99999627471,8|0
144,72,127600,1,2
256,72,127750,1,2
376,72,127899,1,2
384,192,128199,6,0,B|128:192|128:192,1,249.99999627471,8|0
144,120,128798,1,2
256,120,128947,1,2
376,120,129097,1,2
352,112,129396,6,0,B|272:144|232:144|144:104,1,200,8|0
256,248,129995,2,0,B|256:352|256:352,2,100,8|0|0
256,192,130444,12,0,131492
400,248,131792,6,0,B|256:296|256:296|96:240,1,299.999991059304,8|0
120,128,132390,1,2
256,128,132540,1,2
392,128,132690,1,2
104,64,132989,6,0,B|248:16|248:16|408:72,1,299.999991059304,8|0
392,184,133588,1,2
240,184,133738,1,2
104,184,133887,1,2
344,96,134187,6,0,B|280:136|216:136|144:88,1,200,8|0
256,192,134786,2,0,B|256:304|256:296|256:296,2,100,8|0|0
256,192,135235,12,0,136582
256,192,136881,5,2
256,192,137181,1,0
256,192,137480,1,0
120,112,137780,6,0,B|208:56,1,100,2|0
392,272,138079,2,0,B|304:328,1,100,2|0
152,152,138378,6,0,B|240:96,1,100,2|0
360,232,138678,2,0,B|272:288,1,100,2|0
80,336,138977,5,0
96,320,139052,1,0
112,304,139127,1,0
128,288,139202,1,0
144,272,139277,1,0
160,256,139351,1,0
176,240,139426,1,0
192,224,139501,1,0
208,208,139576,1,0
224,192,139651,1,0
240,176,139726,1,0
256,160,139801,1,0
272,144,139875,1,0
288,128,139950,1,0
304,112,140025,1,0
320,96,140100,1,0
360,88,140175,6,0,B|392:88|392:80|392:80,31,25,0|0|0|0|0|0|0|0|0|0|0|0|0|0|0|0|0|0|0|0|0|0|0|0|0|0|0|0|0|0|0|4
304,24,141522,5,0
208,24,141822,1,0
160,24,141971,1,2
112,24,142121,1,0
16,24,142420,1,0
16,72,142570,1,2
16,120,142720,1,0
16,216,143019,1,0
16,264,143169,1,2
16,312,143319,1,0
120,312,143618,5,0
168,312,143768,1,2
216,312,143917,1,0
256,224,144217,1,0
256,176,144366,1,2
256,128,144516,1,0
256,32,144816,1,0
304,32,144965,1,2
352,32,145115,1,0
408,112,145414,1,0
416,192,145564,6,0,B|416:296,1,100,2|0
256,288,146013,1,0
184,248,146163,2,0,B|184:184|184:184|256:144,1,100
176,88,146612,2,0,B|176:40|176:40|128:16|128:16,2,100
336,88,147211,2,0,B|336:40|336:40|384:16|384:16,2,100
256,336,147810,5,0
200,216,147959,2,0,B|328:216|328:216,1,100,2|0
256,48,148408,1,0
312,168,148558,2,0,B|184:168|184:168,1,100,2|0
0,16,149007,1,0
32,136,149157,2,0,B|128:56,1,100,2|0
368,24,149606,1,0
320,88,149756,1,2
176,192,149905,6,0,B|136:192|128:192|128:192,4,25,0|0|0|0|0
336,192,150205,2,0,B|376:192|384:192|384:192,4,25,0|0|0|0|0
256,88,150504,2,0,B|256:64|256:64,8,25
352,96,150953,1,2
424,168,151103,1,0
376,264,151402,5,0
280,264,151552,1,2
176,264,151702,1,0
80,88,152001,1,0
176,88,152151,1,2
272,88,152301,1,0
480,192,152600,1,0
384,192,152750,1,2
288,192,152899,1,0
144,192,153199,6,0,B|24:192|24:192,2,100,0|2|0
256,80,153798,2,0,B|256:-24|256:-24,2,100,0|2|0
376,192,154396,2,0,B|480:192|480:192,2,100,0|2|0
256,192,154995,1,0
256,192,155145,2,0,B|256:272|256:304|256:296,2,100,2|0|0
256,192,155744,12,0,159037
168,192,159336,5,0
192,192,159411,1,0
216,192,159486,1,0
240,192,159561,1,0
264,192,159636,1,0
288,192,159711,1,0
312,192,159786,1,0
336,192,159860,1,0
360,192,159935,1,0
416,144,160085,6,0,B|416:80|416:80,6,50,0|0|0|0|0|0|2
336,80,160684,5,0
472,160,160983,1,0
472,240,161133,1,2
472,160,161283,1,0
304,336,161582,1,0
224,336,161732,1,2
304,336,161881,1,0
40,224,162181,1,0
40,144,162331,1,2
40,224,162480,1,0
208,48,162780,1,0
288,48,162929,1,2
208,48,163079,1,0
184,208,163378,5,0
248,256,163528,1,2
312,208,163678,1,0
184,128,163977,5,0
248,80,164127,1,2
312,128,164277,1,0
160,176,164576,5,0
248,176,164726,1,0
336,176,164875,1,0
344,88,165175,5,0
264,56,165325,1,2
264,56,165399,1,0
264,56,165474,1,0
264,56,165549,1,0
264,56,165624,1,0
184,56,165774,1,0
112,88,165923,1,2
112,88,165998,1,0
112,88,166073,1,0
112,88,166148,1,0
112,88,166223,1,0
112,168,166372,5,0
160,232,166522,2,0,B|104:288|112:288,4,50,2|0|0|0|0
400,168,166971,1,0
352,232,167121,2,0,B|408:288|400:288,4,50,2|0|0|0|0
256,256,167570,5,0
256,176,167720,1,2
256,152,167795,1,0
256,128,167869,1,0
256,104,167944,1,0
256,80,168019,1,0
416,48,168169,1,0
416,128,168319,1,2
416,152,168393,1,0
416,176,168468,1,0
416,200,168543,1,0
416,224,168618,1,0
344,296,168768,1,0
256,248,168917,1,2
160,208,169067,6,0,B|136:224|136:224,4,25
168,88,169366,2,0,B|144:72|144:72,4,25
296,144,169666,2,0,B|328:144,8,25
424,48,170115,5,2
328,48,170265,2,0,B|264:48|264:48,4,50
88,48,170714,1,2
184,48,170863,2,0,B|248:48|248:48,4,50
256,112,171313,1,2
256,216,171462,2,0,B|256:280|256:272,4,50
352,192,171911,1,2
424,120,172061,2,0,B|464:80|464:80,4,50
424,224,172510,1,2
344,280,172660,2,0,B|288:304|288:304,4,50
256,184,173109,5,2
256,160,173184,1,0
256,136,173259,1,0
256,112,173333,1,0
256,88,173408,1,0
104,56,173558,5,0
104,136,173708,1,2
104,160,173783,1,0
104,184,173857,1,0
104,208,173932,1,0
104,232,174007,1,0
408,240,174157,5,0
408,160,174307,1,2
408,136,174381,1,0
408,112,174456,1,0
408,88,174531,1,0
408,64,174606,1,0
328,56,174756,6,0,B|216:120,1,100,0|2
296,168,175055,2,0,B|184:240,1,100
144,264,175354,1,0
144,264,175504,1,0
168,184,175654,1,0
168,184,175804,1,0
208,112,175953,1,0
208,112,176103,1,0
256,48,176253,1,0
256,48,176402,1,0
304,112,176552,1,0
304,112,176702,1,0
344,184,176851,1,0
344,184,177001,1,0
384,256,177151,1,0
336,320,177301,5,0
296,320,177375,1,0
256,304,177450,1,0
224,280,177525,1,0
208,240,177600,1,0
200,200,177675,1,0
200,160,177750,1,0
200,120,177825,1,0
200,80,177899,1,0
184,40,177974,1,0
152,16,178049,1,0
112,16,178124,1,0
80,40,178199,1,0
72,80,178274,1,0
72,120,178348,1,0
72,160,178423,1,0
48,192,178498,6,0,B|16:224|16:224,20,25
72,224,179322,2,0,B|96:288|96:280,5,50,0|0|0|0|0|2
152,224,179845,5,0
232,192,179995,2,0,B|344:192,1,100
392,136,180295,1,2
368,64,180444,2,0,B|328:32|328:32|232:32,1,100
200,32,180744,1,0
120,32,180893,2,0,B|64:40|64:40|32:88,1,100,2|0
48,160,181193,1,0
104,216,181342,2,0,B|144:264|144:264|144:328|144:320,2,100,0|2|0
184,192,181792,1,0
264,216,181941,2,0,B|224:264|224:264|224:328|224:320,2,100,0|2|0
296,144,182390,1,0
376,128,182540,2,0,B|424:104|424:104|432:32,1,100,0|2
352,32,182839,1,0
272,24,182989,2,0,B|224:48|224:48|216:120,1,100
152,184,183289,5,2
80,96,183438,2,0,B|32:112|32:112|8:176,1,100
152,184,183738,1,0
192,312,183887,2,0,B|240:296|240:296|264:232,1,100,2|0
328,264,184187,1,0
328,264,184336,5,0
408,200,184486,2,0,B|408:80,1,100,2|0
256,96,184786,1,0
104,104,184935,2,0,B|104:224,1,100,0|2
256,216,185235,1,0
480,224,185384,6,0,B|480:104,1,100
256,96,185684,1,2
32,128,185833,2,0,B|32:248,1,100
176,224,186133,5,0
224,144,186283,2,0,B|152:64|144:64,2,100,2|0|0
336,160,186732,5,0
288,240,186881,2,0,B|360:320|368:320,2,100,2|0|0
96,240,187331,6,0,B|96:296|96:296|160:320|160:312,2,100,0|2|0
96,144,187780,2,0,B|96:88|96:88|160:64|160:72,2,100,0|0|2
168,176,188229,2,0,B|144:192|144:192,4,25
248,152,188528,2,0,B|224:136|224:136,4,25
328,176,188828,2,0,B|360:176,8,25
376,240,189277,6,0,B|432:272|432:272|472:272,1,100,2|0
480,192,189576,1,0
480,152,189651,1,0
480,112,189726,1,0
440,48,189875,2,0,B|392:24|392:24|304:32,1,100,2|0
352,112,190175,1,0
352,152,190250,1,0
352,192,190325,1,0
264,64,190474,6,0,B|136:64,1,100,2|0
96,152,190774,2,0,B|40:152|40:152,2,50
160,248,191073,2,0,B|288:248,1,100,2|0
296,272,191298,2,0,B|328:312|336:312|400:320,1,100
448,216,191672,2,0,B|472:184|472:152|432:112,1,100,2|0
424,88,191896,2,0,B|296:88|296:88,1,100
208,56,192271,6,0,B|104:64|104:64|32:144,1,200,2|0
32,216,192720,1,0
304,56,192869,2,0,B|408:64|408:64|480:144,1,200,2|0
464,216,193319,1,0
256,280,193468,6,0,B|256:176,1,100,2|0
168,144,193768,2,0,B|168:256|168:256,1,100
344,240,194067,2,0,B|344:136|344:136,1,100,2|0
312,64,194366,1,0
312,64,194516,1,0
216,48,194666,1,0
216,48,194816,1,0
112,80,194965,1,0
112,80,195115,1,0
56,184,195265,1,0
56,184,195414,1,0
128,296,195564,1,0
128,296,195714,1,0
256,352,195863,1,0
256,352,196013,1,0
400,296,196163,1,0
400,296,196313,1,0
424,200,196462,5,0
408,160,196537,1,0
384,128,196612,1,0
352,104,196687,1,0
320,88,196762,1,0
280,104,196836,1,0
248,136,196911,1,0
232,168,196986,1,0
224,208,197061,1,0
200,240,197136,1,0
160,256,197211,1,0
120,240,197286,1,0
96,208,197360,1,0
80,176,197435,1,0
80,136,197510,1,0
80,96,197585,1,0
112,72,197660,6,0,B|136:48,12,25
80,48,198184,2,0,B|32:24|32:24,9,50,0|0|0|0|0|0|0|0|0|4
