osu file format v9

[General]
AudioFilename: 01 Marunouchi surviver.mp3
AudioLeadIn: 0
PreviewTime: -1
Countdown: 0
SampleSet: Normal
StackLeniency: 0.4
Mode: 0
LetterboxInBreaks: 1

[Editor]
Bookmarks: 198812
DistanceSpacing: 1
BeatDivisor: 4
GridSize: 4

[Metadata]
Title:Marunouchi surviver
Artist:DJ Sharpnel
Creator:K o h a k u
Version:galvenize
Source:
Tags:

[Difficulty]
HPDrainRate:6
CircleSize:4
OverallDifficulty:8
ApproachRate:9
SliderMultiplier:1.8
SliderTickRate:1

[Events]
//Background and Video events
0,0,"f8527499.jpg"
//Break Periods
2,141572,155144
//Storyboard Layer 0 (Background)
//Storyboard Layer 1 (Fail)
//Storyboard Layer 2 (Pass)
//Storyboard Layer 3 (Foreground)
//Storyboard Sound Samples
//Background Colour Transformations
3,100,163,162,255

[TimingPoints]
62331,299.40119760479,4,1,0,70,1,0
76603,-100,4,1,0,80,0,0
117472,-100,4,2,0,100,0,0
121215,-100,4,1,0,70,0,0
159837,-200,4,1,0,70,0,0
160436,-100,4,1,0,70,0,0
174807,-200,4,1,0,70,0,0
177801,-100,4,1,0,70,0,0
198160,-200,4,1,0,70,0,0

[Colours]
Combo1 : 255,128,64
Combo2 : 255,255,0
Combo3 : 0,0,160

[HitObjects]
164,100,62330,5,0
344,100,62630,1,0
256,48,62929,5,0
256,140,63079,1,0
256,320,63378,2,0,B|256:292,4,22.5
96,304,63678,5,0
256,232,63828,1,0
388,292,63977,1,0
256,48,64277,5,0
256,48,64426,1,0
256,140,64576,1,0
332,100,64726,5,0
180,100,64875,1,0
416,192,65025,1,0
96,192,65175,2,0,B|192:168|192:168|228:268,1,180
256,348,65624,1,0
416,192,65774,2,0,B|320:168|320:168|284:268,1,180
256,348,66223,5,0
176,240,66372,1,0
368,148,66522,1,0
184,44,66822,1,0
184,44,67121,5,0
120,108,67271,1,0
120,108,67345,1,0
120,108,67420,1,8
208,128,67570,1,0
176,212,67720,1,0
196,300,67869,1,0
336,172,68019,5,8
241,136,68169,1,0
176,212,68319,1,0
264,224,68468,2,0,B|252:160|232:112,1,90,0|8
104,88,68768,2,0,B|100:140|124:188,1,90
448,280,69067,2,0,B|432:164|388:88,1,180
328,52,69516,5,0
244,88,69666,1,0
208,172,69816,1,8
252,252,69965,1,0
292,172,70115,5,0
176,104,70265,1,0
144,236,70414,1,8
36,156,70564,1,0
116,48,70714,6,0,B|136:88|136:144,1,90
48,120,71013,1,8
216,68,71163,2,0,B|272:60|312:72,1,90
296,316,71462,2,0,B|240:324|200:312,1,90,0|8
256,236,71762,1,0
348,236,71911,5,0
348,56,72061,1,0
404,124,72211,2,0,B|368:156|316:140,1,90,8|0
108,104,72510,2,0,B|92:156|72:192,1,90
124,264,72810,2,0,B|148:220|164:176,1,90,8|0
108,104,73109,5,0
124,264,73259,1,0
200,120,73408,1,8
216,280,73558,1,0
404,104,73708,5,0
388,264,73857,1,0
312,120,74007,1,8
296,280,74157,1,0
264,132,74307,6,0,B|272:80|288:40,1,90
316,200,74606,2,0,B|368:208|408:224,1,90,8|0
248,252,74905,2,0,B|240:304|224:344,1,90
196,184,75205,2,0,B|144:176|104:160,1,90,8|0
164,80,75504,5,0
360,128,75654,1,0
348,304,75804,1,8
152,256,75953,2,0,B|104:236|64:240,1,90
124,156,76253,1,0
124,156,76328,1,0
124,156,76402,1,8
124,156,76477,1,0
124,156,76552,1,0
124,156,76627,1,0
124,156,76702,5,4
108,68,76851,1,0
196,52,77001,1,8
220,140,77151,1,0
388,156,77301,5,4
404,68,77450,1,0
316,52,77600,1,8
292,140,77750,1,0
352,208,77899,6,0,B|312:228|248:220,1,90
292,140,78199,1,8
332,304,78348,2,0,B|264:320|212:292,1,90
180,80,78648,2,0,B|248:64|300:92,1,90,0|8
144,260,78947,1,0
144,260,79022,1,0
144,260,79097,5,0
120,172,79247,1,0
196,124,79396,1,8
220,212,79546,1,0
144,260,79696,5,0
256,152,79845,1,0
368,260,79995,2,0,B|324:280|280:260,1,90,8|0
328,184,80295,5,0
252,348,80444,1,0
140,204,80594,1,8
216,40,80744,2,0,B|256:124|228:232,1,180
188,296,81193,5,8
100,320,81342,1,0
260,240,81492,2,0,B|156:192,1,90
24,108,81792,2,0,B|128:60,1,90,8|0
284,48,82091,5,0
348,216,82241,1,0
144,244,82390,2,0,B|156:200|196:160,1,90,8|0
248,100,82690,5,0
372,52,82839,1,0
440,168,82989,1,8
316,224,83139,1,0
344,136,83289,5,0
316,224,83438,1,0
288,308,83588,1,8
220,248,83738,1,0
220,248,83813,1,0
220,248,83887,2,0,B|180:272|120:272,1,90
200,156,84187,2,0,B|176:116|176:56,1,90,8|0
292,136,84486,2,0,B|332:112|392:112,1,90
312,228,84786,2,0,B|336:268|336:328,1,90,8|0
200,156,85085,5,0
312,228,85235,1,0
180,264,85384,1,8
292,136,85534,1,0
180,264,85684,6,0,B|204:304|256:320,1,90
292,328,85908,1,0
336,332,85983,1,0
364,296,86058,1,0
404,276,86133,1,0
448,288,86208,1,0
480,320,86283,6,0,B|496:272|472:212,1,90
436,152,86582,1,8
360,104,86732,2,0,B|332:176|376:216,2,90
436,152,87181,1,8
356,192,87330,2,0,B|268:168|164:196,1,180
88,188,87780,2,0,B|64:80,1,90,8|0
156,116,88079,2,0,B|168:24,1,90
240,80,88378,1,8
416,48,88528,1,0
328,44,88678,2,0,B|332:96|376:124,1,90
444,172,88977,1,8
412,256,89127,6,0,B|332:308|228:292,1,180
156,260,89576,1,8
100,188,89726,1,0
68,272,89875,2,0,B|160:200,1,90
212,164,90175,1,8
140,112,90325,1,0
140,112,90399,1,0
140,112,90474,1,0
216,64,90624,2,0,B|256:148|348:192,1,180
473,144,91073,5,0
404,200,91223,1,0
492,224,91372,1,8
404,200,91522,2,0,B|404:256|440:296,1,90
492,224,91822,1,0
324,156,91971,1,8
332,336,92121,2,0,B|332:272|300:236,2,90
248,312,92570,2,0,B|152:296|60:324,1,180,8|0
76,120,93019,5,0
40,204,93169,1,8
124,232,93319,1,0
160,148,93468,2,0,B|176:108|176:108|212:72,1,90
384,56,93768,1,8
296,32,93917,2,0,B|292:88|344:144,1,90
368,192,94217,5,0
324,272,94366,1,8
280,192,94516,1,0
368,192,94666,5,0
256,344,94816,1,0
144,192,94965,6,0,B|156:144|192:100,1,90,8|0
368,192,95265,2,0,B|356:240|320:284,1,90
288,292,95489,1,0
244,280,95564,1,8
224,240,95639,1,0
224,196,95714,1,0
252,160,95789,1,0
280,196,95863,6,0,B|328:208|380:188,1,90
448,152,96163,1,8
372,108,96313,2,0,B|336:16,1,90
273,86,96612,1,0
450,62,96762,1,8
361,219,96911,2,0,B|269:188|176:207,1,180
312,52,97360,5,8
400,36,97510,1,0
364,120,97660,2,0,B|328:216,1,90
244,228,97959,2,0,B|284:124,1,90,8|0
320,272,98259,5,0
240,316,98408,1,0
160,276,98558,1,8
160,136,98708,2,0,B|147:191|97:212,1,90
74,122,99007,5,0
193,58,99157,1,8
239,184,99307,2,0,B|335:204|447:180,1,180
480,120,99756,2,0,B|392:104,1,90,8|0
348,24,100055,2,0,B|448:40,1,90
336,152,100354,1,8
192,44,100504,1,0
272,88,100654,5,0
188,124,100804,1,0
260,180,100953,1,8
116,68,101103,2,0,B|88:116|108:180,1,90
128,240,101402,1,0
300,296,101552,1,8
212,272,101702,2,0,B|192:212|224:160,2,90
392,272,102151,2,0,B|348:92,1,180,8|0
260,76,102600,1,0
188,128,102750,1,8
260,292,102899,1,0
116,184,103049,5,0
200,216,103199,1,0
272,160,103348,1,8
188,128,103498,2,0,B|120:72,1,90
256,68,103798,1,0
324,128,103947,2,0,B|392:72,1,90,8|0
404,160,104247,5,0
300,244,104396,1,0
300,108,104546,1,8
412,296,104696,1,0
108,160,104845,5,0
212,244,104995,1,0
212,108,105145,1,8
100,296,105295,1,0
100,296,105369,1,0
100,296,105444,2,0,B|188:332|188:332|308:332,1,180,4|0
196,148,105893,2,0,B|256:80|256:80|336:176,1,180
256,216,106342,2,0,B|256:312,1,90
256,306,106642,2,0,B|348:284|348:284|452:312,1,180,4|0
460,220,107091,2,0,B|368:192|368:192|312:100,1,180
324,120,107540,2,0,B|244:172,1,90
56,60,107839,6,0,B|144:96|144:96|232:56,1,180
456,324,108289,2,0,B|368:288|368:288|280:328,1,180
256,240,108738,2,0,B|256:120,1,90
40,192,109037,5,0
472,192,109336,2,0,B|376:192,1,90,2|0
40,192,109636,2,0,B|136:192,1,90,2|0
160,276,109935,1,0
200,256,110010,1,0
244,244,110085,1,0
288,232,110160,1,0
332,220,110235,2,0,B|392:200|440:200,1,90,4|0
480,324,110534,1,0
480,324,110684,2,0,B|424:304|392:268,1,90
392,268,110908,1,0
380,260,110983,1,0
252,116,111133,2,0,B|280:168|304:192,1,90
296,280,111432,6,0,B|208:260|108:288,1,180,4|0
117,285,111881,2,0,B|120:232|88:188,1,90
95,199,112106,1,0
95,199,112181,1,0
52,120,112330,1,0
144,124,112480,1,0
188,204,112630,5,0
204,220,112705,1,0
224,228,112780,1,0
248,228,112854,1,0
268,220,112929,1,0
284,204,113004,1,0
292,184,113079,1,0
288,160,113154,1,0
280,140,113229,1,0
264,124,113304,1,0
264,100,113378,1,0
280,84,113453,1,0
300,72,113528,1,0
324,68,113603,1,0
344,72,113678,1,0
364,84,113753,1,0
372,104,113828,6,0,B|372:136,28,22.5
340,188,115025,6,0,B|320:140|340:72,1,90
172,196,115325,2,0,B|192:244|172:312,1,90
256,192,115624,1,0
256,192,115774,1,0
132,64,116073,6,0,B|132:100,7,22.5
132,64,116372,5,0
256,192,116522,1,0
380,64,116672,1,0
380,64,116971,5,0
208,120,117121,1,0
320,260,117271,1,0
140,284,117420,1,0
88,208,117570,5,0
472,320,117869,1,0
40,64,118169,1,0
256,192,118468,1,0
256,192,118618,1,0
256,192,121313,12,0,122211
256,192,122510,5,8
256,192,122810,1,0
256,192,123109,1,8
152,104,123259,1,0
256,20,123408,5,0
256,20,123708,1,8
256,20,124007,1,0
256,20,124307,1,8
256,192,124456,1,0
256,364,124606,2,0,B|168:304,1,90
256,20,124905,2,0,B|344:80,1,90,8|0
248,112,125205,2,0,B|192:136|148:128,1,90
168,292,125504,1,8
116,220,125654,2,0,B|224:192|320:208,1,180
396,292,126103,2,0,B|336:308|296:288,1,90,8|0
116,92,126402,2,0,B|176:76|216:96,1,90
348,220,126702,5,8
164,164,126851,1,8
256,192,127001,5,0
256,192,127301,1,8
256,192,127600,1,0
256,192,127899,1,8
392,192,128049,1,0
120,192,128199,5,0
120,192,128498,1,8
120,192,128798,1,0
120,192,129097,1,8
256,348,129247,1,0
392,192,129396,6,0,B|404:140|384:84,1,90
120,192,129696,2,0,B|108:244|128:300,1,90,8|0
152,48,129995,2,0,B|232:88|232:88|324:40,1,180,0|8
360,336,130444,2,0,B|280:296|280:296|188:344,1,180
232,128,130893,5,8
191,211,131043,1,0
274,252,131193,1,0
314,169,131342,1,0
328,168,131417,1,0
340,168,131492,1,8
352,168,131567,1,0
364,168,131642,1,0
376,168,131717,1,0
388,168,131792,5,0
388,168,132091,1,8
388,168,132390,1,0
388,168,132690,1,8
256,40,132839,1,0
124,168,132989,5,0
124,168,133289,1,8
124,168,133588,1,0
124,168,133887,2,0,B|20:168,2,90,8|0|0
216,168,134336,1,0
264,244,134486,2,0,B|212:264|164:240,1,90,8|0
172,92,134786,2,0,B|224:72|272:96,1,90
216,168,135085,1,8
124,168,135235,2,0,B|80:252|128:352,1,180
388,216,135684,2,0,B|432:132|384:32,1,180,8|0
388,42,136133,1,0
388,42,136283,1,8
388,42,136432,1,8
388,42,136582,6,0,B|340:48|288:40,1,90,4|0
208,32,136881,1,8
72,136,137031,1,0
140,76,137181,2,0,B|160:132|156:172,1,90
156,163,137480,1,8
208,320,137630,1,0
148,256,137780,6,0,B|200:228|260:228,1,90
324,240,138079,1,8
484,308,138229,1,0
428,240,138378,2,0,B|396:288|384:336,1,90
404,164,138678,2,0,B|444:120|452:72,1,90,8|0
360,84,138977,5,0
340,80,139052,1,0
316,76,139127,1,0
292,76,139202,1,0
268,76,139277,1,0
244,80,139351,1,0
220,84,139426,1,0
200,88,139501,1,0
180,96,139576,1,0
160,104,139651,1,0
140,112,139726,1,0
120,124,139801,1,0
100,136,139875,1,0
84,152,139950,1,0
68,168,140025,1,0
56,188,140100,1,0
44,208,140175,2,0,B|32:236,32,22.5
256,192,155744,12,0,159037
208,60,159336,5,0
196,80,159411,1,0
188,100,159486,1,0
184,124,159561,1,0
184,148,159636,1,0
188,172,159711,1,0
192,192,159786,1,0
200,212,159860,1,0
208,232,159935,2,0,B|228:244|228:244|228:256|228:256|240:252|240:252|240:264|240:264|276:260,1,90
280,256,160310,1,0
292,252,160384,1,0
304,248,160459,1,0
316,244,160534,6,0,B|400:212,1,90
464,148,160833,1,0
480,236,160983,1,0
384,136,161133,2,0,B|340:144|288:132,1,90
344,56,161432,1,0
372,224,161582,1,0
280,224,161732,6,0,B|236:264|228:312,1,90
320,304,162031,1,0
172,200,162181,1,0
240,144,162331,2,0,B|248:100|236:56,1,90
160,104,162630,1,0
324,36,162780,1,0
160,104,162929,6,0,B|116:128|60:116,1,90
108,36,163229,1,0
172,200,163378,1,0
84,192,163528,2,0,B|84:248|136:284,1,90
172,200,163828,1,0
48,324,163977,1,0
120,272,164127,6,0,B|144:324|120:372,1,90
48,324,164426,1,0
228,320,164576,1,0
256,236,164726,2,0,B|308:260|372:248,1,90
448,104,165025,6,0,B|420:156,1,45
380,144,165175,2,0,B|340:88,1,45
316,132,165325,2,0,B|256:148|196:128,1,90
152,80,165624,1,0
64,100,165774,1,0
128,164,165923,2,0,B|80:188|24:180,2,90
108,252,166372,1,0
208,272,166522,1,0
248,192,166672,1,0
308,256,166822,1,0
268,336,166971,1,0
208,272,167121,2,0,B|160:352,2,90
248,192,167570,1,0
332,156,167720,6,0,B|312:208|332:252,1,90
464,364,168019,2,0,B|484:312|464:268,1,90
388,320,168319,1,0
388,320,168468,2,0,B|288:308|288:336|184:320,1,180
132,276,168917,1,0
156,192,169067,5,0
168,188,169142,1,0
180,184,169217,1,0
356,192,169366,1,0
344,196,169441,1,0
332,200,169516,1,0
256,128,169666,5,0
256,140,169741,1,0
256,152,169816,1,0
256,164,169890,1,0
256,176,169965,2,0,B|256:232,2,45
180,124,170265,5,0
92,108,170414,1,0
48,188,170564,1,0
136,196,170714,2,0,B|184:280,2,90
180,124,171163,1,0
256,80,171313,1,0
332,124,171462,5,0
420,108,171612,1,0
464,188,171762,1,0
376,196,171911,2,0,B|328:280,2,90
332,124,172360,1,0
256,80,172510,5,0
256,80,172660,1,0
256,168,172810,1,0
256,168,172959,1,0
300,248,173109,2,0,B|252:276|196:240,1,90
212,136,173408,2,0,B|260:108|316:144,1,90
368,192,173708,5,0
456,192,173857,1,0
412,116,174007,1,0
412,268,174157,1,0
368,192,174307,2,0,B|332:216|332:216|280:184,1,90
144,192,174606,2,0,B|180:168|180:168|232:200,1,90
256,276,174905,6,0,B|256:368,2,90
184,224,175654,2,0,B|136:224,1,45
68,172,175953,1,0
116,96,176103,2,0,B|68:76|16:100,2,90
204,112,176851,2,0,B|232:68,1,45
296,136,177151,1,0
312,48,177301,5,0
324,48,177375,1,0
336,48,177450,1,0
348,48,177525,1,0
360,48,177600,1,0
372,48,177675,1,0
384,48,177750,1,0
396,48,177825,1,0
408,48,177899,2,0,B|436:92,1,45
440,112,178049,2,0,B|428:160,1,45
436,184,178199,2,0,B|464:232,1,45
456,248,178348,2,0,B|432:300,1,45
412,300,178498,6,0,B|388:312,7,22.5
372,312,178798,6,0,B|336:308,7,22.5
328,308,179097,6,0,B|296:324,7,22.5
284,312,179396,5,0
244,300,179471,1,0
204,308,179546,1,0
164,316,179621,1,0
120,324,179696,2,0,B|32:324,1,90
32,160,179995,2,0,B|16:212|28:256,2,90
104,212,180444,2,0,B|144:172|188:160,1,90
268,140,180744,1,0
384,276,180893,6,0,B|340:260|316:212,1,90
268,140,181193,1,0
408,200,181342,1,0
288,296,181492,2,0,B|256:336|192:324,2,90
216,240,181941,1,0
152,176,182091,6,0,B|116:216|128:276,1,90
216,240,182390,1,0
68,140,182540,1,0
152,176,182690,2,0,B|152:84,2,90
216,240,183139,1,0
284,68,183289,5,0
240,148,183438,1,0
300,216,183588,2,0,B|328:172|328:128,1,90
212,168,183887,2,0,B|184:212|184:256,1,90
256,308,184187,5,0
108,208,184336,1,0
400,56,184486,2,0,B|308:88,1,90
112,56,184786,2,0,B|204:88,1,90
197,85,185010,1,0
197,85,185085,2,0,B|180:136|212:192,1,90
314,298,185384,2,0,B|332:248|300:192,1,90
202,173,185684,5,0
309,210,185833,1,0
132,244,185983,1,0
380,140,186133,1,0
292,124,186283,6,0,B|252:44,1,90
220,260,186582,2,0,B|260:340,1,90
320,272,186881,1,0
380,340,187031,2,0,B|416:308|408:252,2,90
192,112,187480,1,0
132,44,187630,2,0,B|96:76|104:132,2,90
192,112,188079,5,0
240,188,188229,1,0
240,188,188304,1,0
240,188,188378,1,0
148,188,188528,1,0
148,188,188603,1,0
148,188,188678,1,0
192,264,188828,1,0
132,332,188977,1,0
92,312,189052,1,0
60,280,189127,1,0
40,240,189202,1,0
44,196,189277,6,0,B|68:140|32:88,1,90
124,68,189576,2,0,B|176:88|220:68,1,90
468,188,189875,6,0,B|444:244|480:296,1,90
388,316,190175,2,0,B|336:296|292:316,1,90
304,220,190474,5,0
256,144,190624,1,0
212,220,190774,1,0
256,144,190923,1,0
304,220,191073,6,0,B|348:316,1,90
212,220,191372,2,0,B|172:312,1,90
168,52,191672,6,0,B|256:80|256:80|376:44,1,180
408,116,192121,2,0,B|320:144,1,90
104,116,192420,2,0,B|192:144,1,90
256,204,192720,1,0
336,244,192869,6,0,B|304:288|240:288,1,90
180,160,193169,2,0,B|212:116|276:116,1,90
336,160,193468,2,0,B|472:44,2,180
336,160,194366,5,0
268,220,194666,1,0
208,284,194965,1,0
144,220,195115,1,0
88,152,195265,1,0
152,88,195564,1,0
216,24,195863,1,0
216,24,196163,5,0
280,84,196313,1,0
360,44,196462,1,0
404,52,196537,1,0
448,64,196612,1,0
472,100,196687,1,0
452,140,196762,1,0
408,152,196836,1,0
364,152,196911,1,0
320,156,196986,1,0
300,196,197061,1,0
312,240,197136,1,0
356,256,197211,1,0
400,248,197286,1,0
444,260,197360,1,0
460,300,197435,1,0
436,340,197510,1,0
392,348,197585,1,0
348,348,197660,6,0,B|320:348,15,22.5
316,348,198259,6,0,B|276:332|276:332|224:352,1,90
232,348,198633,1,0
232,348,198708,1,0
232,348,198783,1,0
232,348,198857,1,0
