osu file format v9

[General]
AudioFilename: 01 Marunouchi surviver.mp3
AudioLeadIn: 0
PreviewTime: 67114
Countdown: 0
SampleSet: Normal
StackLeniency: 0.7
Mode: 0
LetterboxInBreaks: 1

[Editor]
DistanceSpacing: 1
BeatDivisor: 4
GridSize: 8

[Metadata]
Title:Marunouchi surviver
Artist:DJ Sharpnel
Creator:K o h a k u
Version:Hard
Source:
Tags:mawaru penguindrum chocopikel galvenize

[Difficulty]
HPDrainRate:5
CircleSize:4
OverallDifficulty:6
ApproachRate:8
SliderMultiplier:1.4
SliderTickRate:1

[Events]
//Background and Video events
0,0,"f8527499.jpg"
//Break Periods
//Storyboard Layer 0 (Background)
//Storyboard Layer 1 (Fail)
//Storyboard Layer 2 (Pass)
//Storyboard Layer 3 (Foreground)
//Storyboard Sound Samples
//Background Colour Transformations
3,100,163,162,255

[TimingPoints]
62331,299.40119760479,4,1,0,70,1,0
62388,-100,4,1,0,70,0,1
62474,-100,4,1,2,70,0,0
121306,-100,4,1,0,70,0,1
122205,-100,4,1,1,70,0,0
126995,-80,4,1,1,70,0,0
129390,-100,4,1,1,70,0,0
131785,-66.6666666666667,4,1,1,70,0,0
134181,-100,4,1,1,70,0,0
198851,-100,4,1,1,70,0,1
199001,-100,4,1,1,70,0,0

[Colours]
Combo1 : 255,128,64
Combo2 : 255,255,0
Combo3 : 0,0,160

[HitObjects]
88,72,62330,1,0
88,72,62630,1,0
88,208,62929,2,0,B|104:248|152:256,1,70
256,328,63378,5,0
256,328,63678,2,0,B|256:256|256:256,2,70
416,192,64277,5,0
416,192,64426,1,0
416,192,64576,1,0
344,192,64726,2,0,B|344:272|344:272,2,70
344,120,65175,1,0
256,232,65474,6,0,B|256:312|256:312,2,70
120,192,66073,6,0,B|120:112|120:112,2,70
120,264,66522,2,0,B|176:312|256:304,1,140
256,168,67121,5,0
256,168,67271,2,0,B|256:96,1,70
328,88,67570,2,0,B|392:144,1,70
184,88,67869,2,0,B|128:144|128:144,2,70
256,168,68319,6,0,B|304:232|408:240|408:240,2,140
256,168,69217,1,0
256,216,69516,5,0
256,216,69666,2,0,B|256:288,1,70
328,296,69965,2,0,B|392:240,1,70
184,296,70264,2,0,B|128:240|128:240,2,70
256,216,70714,6,0,B|304:152|408:144|408:144,2,140
256,216,71612,1,0
96,192,71911,6,0,B|64:128,1,70
120,40,72211,2,0,B|152:112,1,70
256,96,72510,1,0
256,96,72810,1,0
376,272,73259,6,0,B|376:192|376:192,2,70
304,272,73708,2,0,B|224:272,1,70
192,216,74007,2,0,B|136:144,1,70
224,120,74307,6,0,B|192:56|192:56,2,70
296,120,74756,2,0,B|320:56|320:56,2,70
256,176,75205,2,0,B|256:248|256:248,2,70
328,184,75654,2,0,B|384:232,1,70
344,288,75953,2,0,B|288:336,1,70
168,264,76402,1,0
128,128,76702,6,0,B|144:48|144:48,2,70
200,136,77151,1,0
256,96,77301,2,0,B|208:40|208:40,2,70
328,96,77750,2,0,B|408:96,1,70
440,152,78049,2,0,B|480:224,1,70
320,192,78498,6,0,B|256:240,1,70
200,272,78798,2,0,B|112:224,1,70
72,104,79097,6,0,B|112:136|136:152,1,70
256,160,79396,2,0,B|184:96,1,70
440,280,79696,6,0,B|400:248|376:232,1,70
256,224,79995,2,0,B|328:288,1,70
256,320,80295,5,0
256,320,80444,1,0
256,320,80594,1,0
256,88,80893,6,0,B|256:16|256:16,2,70
256,160,81342,1,0
256,160,81492,2,0,B|176:192|176:192,2,70
312,200,81941,2,0,B|384:256,1,70
416,192,82241,5,0
488,192,82390,1,0
120,192,82839,5,0
160,136,82989,1,0
208,88,83139,1,0
256,136,83289,6,0,B|256:208|256:208,2,70
256,272,83887,1,0
