osu file format v9

[General]
AudioFilename: 01 Marunouchi surviver.mp3
AudioLeadIn: 0
PreviewTime: -1
Countdown: 0
SampleSet: Normal
StackLeniency: 0.4
Mode: 0
LetterboxInBreaks: 1

[Editor]
DistanceSpacing: 1.3
BeatDivisor: 4
GridSize: 8

[Metadata]
Title:Marunouchi surviver
Artist:DJ Sharpnel
Creator:K o h a k u
Version:Chocopikel
Source:
Tags:mawaru penguindrum chocopikel galvenize

[Difficulty]
HPDrainRate:6
CircleSize:4
OverallDifficulty:7
ApproachRate:9
SliderMultiplier:1.6
SliderTickRate:1

[Events]
//Background and Video events
0,0,"f8527499.jpg"
//Break Periods
2,118818,120713
//Storyboard Layer 0 (Background)
//Storyboard Layer 1 (Fail)
//Storyboard Layer 2 (Pass)
//Storyboard Layer 3 (Foreground)
//Storyboard Sound Samples
//Background Colour Transformations
3,100,163,162,255

[TimingPoints]
62331,299.40119760479,4,1,2,70,1,0
77819,-200,4,1,2,70,0,0
79167,-100,4,1,2,70,0,0
80215,-200,4,1,2,70,0,0
80963,-100,4,1,2,70,0,0
105215,-200,4,1,2,70,0,0
112550,-100,4,1,2,70,0,0
113822,-100,4,1,2,60,0,0
115020,-100,4,1,2,70,0,0
118613,-100,4,1,2,70,0,1
118688,-100,4,1,2,70,0,0
121270,-100,4,2,0,30,0,0
122206,-100,4,1,2,70,0,0
140170,-100,4,1,2,60,0,0
141367,-200,4,1,2,70,0,0
150873,-200,4,1,2,60,0,0
158957,-100,4,2,0,5,0,0
159107,-100,4,1,2,70,0,0
159893,-200,4,2,0,5,0,0
160192,-100,4,1,2,70,0,0
174900,-100,4,1,2,60,0,0
176023,-200,4,1,2,50,0,0
177146,-100,4,1,2,70,0,0
179092,-100,4,1,2,60,0,0
179391,-100,4,1,2,70,0,0
194137,-100,4,1,2,60,0,0
194661,-100,4,1,2,50,0,0
194960,-100,4,1,2,40,0,0
195259,-100,4,1,2,50,0,0
195559,-100,4,1,2,60,0,0
195858,-100,4,1,2,70,0,0
198253,-200,4,2,0,5,0,0
198478,-100,4,1,2,70,0,0

[Colours]
Combo1 : 255,128,64
Combo2 : 255,255,0
Combo3 : 0,0,160

[HitObjects]
408,144,62330,2,0,B|376:192|304:208|232:168,1,160,6|2
128,96,62929,1,2
88,248,63079,1,2
304,344,63378,6,0,B|280:288|216:272|152:296,1,160,2|2
88,248,63828,1,2
72,160,63977,1,2
72,160,64277,5,2
160,184,64426,1,2
248,176,64576,1,2
320,128,64726,2,0,B|352:104|400:104,2,80,2|0|2
248,176,65175,2,0,B|240:240|272:288|328:304,1,160,2|0
336,216,65624,1,0
320,128,65774,2,0,B|296:72|240:48|176:64,1,160,2|0
64,120,66223,2,0,B|56:160|88:200,1,80,2|0
168,304,66522,2,0,B|224:288|280:296|312:344,2,160,2|2|0
216,176,67271,5,0
288,128,67420,1,8
368,160,67570,1,0
440,112,67720,2,0,B|464:72|456:24,2,80,0|0|8
408,240,68169,1,0
344,304,68319,2,0,B|312:352|256:368|192:328,2,160,0|8|0
368,160,69067,1,0
368,160,69142,1,0
368,160,69217,1,8
288,128,69366,1,0
216,176,69516,6,0,B|216:216|184:248,1,80
48,272,69816,2,0,B|48:232|80:200,1,80,8|0
136,128,70115,1,0
216,88,70265,1,0
216,176,70414,1,8
136,128,70564,1,0
80,200,70714,2,0,B|104:256|152:272|224:256,2,160,0|8|0
216,88,71462,1,0
296,56,71612,1,8
352,120,71762,1,0
432,152,71911,6,0,B|432:192|456:232,1,80
336,232,72211,2,0,B|360:264|408:280,1,80,8|0
280,344,72510,2,0,B|320:352|368:344,2,80,0|0|8
96,344,72959,2,0,B|40:336|8:272|40:208,1,160
64,136,73408,1,8
144,168,73558,1,0
216,120,73708,2,0,B|256:72|320:64|368:88,2,160,0|8|0
64,136,74456,5,0
48,224,74606,1,8
88,304,74756,1,0
168,344,74905,2,0,B|216:376|272:376|328:352,1,160,0|8
432,232,75354,2,0,B|384:200|328:200|272:224,1,160
192,224,75804,2,0,B|152:200|136:152,1,80,8|0
120,80,76103,2,0,B|160:40|224:32|280:56,2,160,0|8|0
192,224,76851,5,0
256,288,77001,1,8
344,272,77151,1,0
424,312,77301,2,0,B|456:336|504:344,2,80,0|0|8
424,224,77750,1,0
376,152,77899,2,0,B|312:96|224:104,2,160
352,264,79247,5,0
264,280,79396,2,0,B|224:304|176:296,1,80,8|0
160,216,79696,2,0,B|112:216|72:192,1,80
112,120,79995,2,0,B|72:96|64:56,1,80,8|0
208,96,80295,2,0,B|272:40|360:48,1,160
424,104,81043,1,0
464,184,81193,1,8
424,264,81342,1,0
336,248,81492,6,0,B|288:256|240:240,1,80
208,96,81792,2,0,B|256:88|304:104,1,80,8|0
248,168,82091,2,0,B|72:192,1,160,0|8
48,264,82540,1,0
120,312,82690,2,0,B|168:312|208:288,1,80
208,96,82989,2,0,B|160:96|120:120,1,80,8|0
40,224,83289,2,0,B|216:200,2,160,0|8|0
208,96,84037,5,0
272,160,84187,1,8
256,248,84336,1,0
296,328,84486,2,0,B|384:344|448:280,1,160,0|8
488,208,84935,1,0
416,88,85085,5,0
396,83,85160,1,0
376,78,85235,1,0
356,78,85310,1,0
335,78,85384,1,0
315,82,85459,1,0
296,88,85534,1,0
279,99,85609,1,0
264,113,85684,2,0,B|256:136|232:144,3,40
221,155,85983,2,0,B|200:160|184:176,3,40
167,181,86283,6,0,B|128:200|72:200,1,80
32,304,86582,2,0,B|71:285|127:285,1,80,8|0
200,280,86881,1,0
40,128,87031,2,0,B|96:64|192:80,1,160
272,88,87480,5,0
376,112,87630,1,0
352,216,87780,1,8
248,192,87929,1,0
272,88,88079,5,0
350,160,88229,1,0
277,238,88378,1,8
199,166,88528,1,0
272,88,88678,6,0,B|312:72|352:72,1,80
440,200,88977,2,0,B|400:216|360:216,1,80,8|0
277,238,89277,1,0
192,264,89426,1,0
104,256,89576,2,0,B|56:256|24:232,1,80,8|0
80,160,89875,2,0,B|56:128|56:80,1,80
144,80,90175,2,0,B|176:56|224:48,1,80,8|0
304,48,90474,1,0
384,128,90624,1,0
480,72,90774,1,8
488,184,90923,1,0
392,240,91073,6,0,B|392:280|360:320,1,80
280,336,91372,1,8
192,328,91522,2,0,B|128:264|40:272,1,160
88,352,91971,1,8
160,208,92121,2,0,B|224:144|312:152,1,160
392,152,92570,1,8
376,64,92720,1,0
288,48,92869,2,0,B|248:40|200:40,1,80
32,120,93169,2,0,B|72:128|120:128,1,80,8|0
160,208,93468,5,0
232,256,93618,1,0
312,224,93768,1,8
384,272,93917,2,0,B|456:224|456:128,1,160
312,224,94366,2,0,B|272:200|256:160,1,80,8|0
152,64,94666,5,0
136,80,94741,1,0
120,96,94816,1,0
32,192,94965,5,8
52,192,95040,1,0
72,192,95115,1,0
152,320,95265,5,0
136,304,95339,1,0
120,288,95414,1,0
104,272,95489,1,0
88,256,95564,2,0,B|44:232|32:148|56:96,1,160,8|0
152,64,96013,5,0
216,128,96163,1,8
256,48,96313,1,0
168,208,96462,2,0,B|192:240|248:248,1,80
376,160,96762,2,0,B|352:128|296:120,1,80,8|0
216,128,97061,5,0
344,48,97211,1,0
376,160,97360,1,8
320,264,97510,1,0
216,128,97660,5,0
366,122,97810,1,0
338,235,97959,1,8
238,297,98109,1,0
120,296,98259,6,0,B|88:272|80:224,1,80
160,192,98558,2,0,B|248:192,1,80,8|0
120,88,98857,2,0,B|88:112|80:160,2,80,0|0|8
200,56,99307,1,0
256,120,99456,5,0
192,232,99606,1,0
320,232,99756,1,8
256,120,99905,5,0
256,248,100055,1,0
367,184,100205,1,0
368,56,100354,2,0,B|328:32|288:32,1,80,8|0
200,56,100654,5,0
128,104,100804,1,0
40,96,100953,1,8
88,24,101103,2,0,B|136:96|112:200,1,160
120,264,101552,1,8
192,216,101702,2,0,B|232:144|320:120,1,160
400,216,102151,2,0,B|360:288|272:312,2,160,8|0|8
296,216,102899,1,0
208,160,103049,6,0,B|224:120|256:88,2,80,0|0|8
144,224,103498,2,0,B|136:312|48:352,1,160
48,248,103947,1,8
192,336,104097,1,0
280,320,104247,6,0,B|320:328|368:304,1,80
440,176,104546,2,0,B|400:168|352:192,1,80,8|0
280,208,104845,1,0
192,216,104995,1,0
104,208,105145,1,8
32,160,105295,6,0,B|8:128|16:80,1,80,2|0
96,104,105744,1,0
168,64,105893,2,0,B|192:96|184:144,1,80,2|0
192,216,106342,1,0
224,288,106492,6,0,B|256:320|304:320,1,80,2|0
288,240,106941,1,0
352,192,107091,2,0,B|320:160|272:160,1,80,2|0
200,160,107540,1,0
136,208,107690,6,0,B|104:232|88:272,1,80,2|0
168,280,108139,1,0
200,352,108289,2,0,B|232:328|248:288,1,80,2|0
296,224,108738,1,0
376,216,108887,1,0
440,168,109037,6,0,B|456:128|440:80,1,80,2|0
368,128,109486,1,0
312,72,109636,2,0,B|296:88|288:112,1,40,2|0
256,176,109935,1,0
184,208,110085,6,0,B|152:232|104:232,1,80,2|0
128,152,110534,1,0
72,96,110684,2,0,B|104:72|152:72,1,80,2|0
224,56,111133,1,0
296,88,111283,6,0,B|296:128|328:160,1,80,2|0
376,96,111732,1,0
456,104,111881,2,0,B|456:64|424:32,1,80,2|0
376,96,112330,1,0
416,168,112480,1,0
360,280,112630,5,0
345,286,112705,1,0
328,288,112780,1,0
312,289,112854,1,0
296,288,112929,1,0
280,284,113004,1,0
264,280,113079,1,0
250,270,113154,1,0
241,256,113229,1,0
235,241,113304,1,0
231,225,113378,1,0
224,210,113453,1,0
212,198,113528,1,0
200,186,113603,1,0
184,181,113678,1,0
168,178,113753,1,0
151,178,113828,2,0,B|122:178,31,20
122,178,115025,6,0,B|112:264|192:320,2,160,6|2|2
390,178,115774,2,0,B|400:264|320:320,1,160,2|2
128,56,116372,5,2
256,120,116522,1,2
384,56,116672,1,2
256,264,116971,2,0,B|256:352,2,80,2|2|2
176,224,117420,5,2
96,256,117570,1,2
192,84,117869,2,0,B|208:44|256:28|304:44|320:84,1,160,2|2
416,256,118468,1,2
336,224,118618,1,2
256,192,121313,6,0,B|256:224,23,20
256,152,122211,6,0,B|192:88|104:104,1,160,0|8
160,184,122660,1,0
192,264,122810,2,0,B|168:296|168:344,1,80
256,344,123109,1,8
336,304,123259,1,0
424,320,123408,6,0,B|472:256|464:160,1,160,0|8
432,88,123857,1,0
352,120,124007,2,0,B|312:120|264:136,1,80
192,296,124307,2,0,B|232:296|280:280,1,80,8|0
336,208,124606,2,0,B|152:208,1,160,0|8
96,248,125055,1,0
32,184,125205,2,0,B|8:152|16:96,2,80,0|0|8
96,248,125654,2,0,B|160:304|256:288,1,160
336,288,126103,5,8
352,280,126178,1,0
368,272,126253,1,0
464,192,126402,5,0
444,192,126477,1,0
424,192,126552,1,0
336,96,126702,5,8
352,104,126777,1,0
368,112,126851,1,0
384,120,126926,1,0
400,128,127001,6,0,B|472:160,1,80
400,208,127301,2,0,B|432:280,1,80,8|0
344,264,127600,2,0,B|312:336,1,80
264,264,127899,2,0,B|184:288,1,80,8|0
104,264,128199,5,0
40,208,128348,1,0
72,128,128498,1,8
152,160,128648,1,0
232,128,128798,2,0,B|264:104|320:104,1,80
296,192,129097,2,0,B|336:200|376:232,1,80,8|0
304,288,129396,2,0,B|232:344|136:328,2,160,0|8|0
384,248,130145,1,0
448,192,130295,1,8
480,272,130444,1,0
384,248,130594,5,0
368,256,130669,1,0
352,264,130744,1,0
244,260,130893,5,8
224,260,130968,1,0
204,260,131043,1,0
128,184,131193,5,0
144,176,131268,1,0
160,168,131342,1,0
176,160,131417,1,0
192,152,131492,1,8
208,144,131567,1,0
224,136,131642,1,0
240,128,131717,1,0
256,120,131792,6,0,B|288:96|336:80,1,80
416,208,132091,2,0,B|384:232|336:248,1,80,8|0
328,160,132390,2,0,B|365:145|415:142,1,80
459,286,132690,2,0,B|421:300|371:303,1,80,8|0
200,344,132989,5,0
144,272,133139,1,0
56,296,133289,2,0,B|48:336|16:368,2,80,8|0|0
32,208,133738,2,0,B|80:136|176:128,1,160
346,129,134187,6,0,B|432:136|488:216,2,160,0|8|0
344,232,134935,1,0
256,288,135085,1,8
168,232,135235,1,0
165,129,135384,6,0,B|152:96|112:72,1,80
256,48,135684,2,0,B|256:128,1,80,8|0
346,129,135983,2,0,B|360:96|400:72,2,80,0|0|8
344,232,136432,1,0
168,232,136582,5,0
104,288,136732,1,0
40,232,136881,2,0,B|16:192|24:144,1,80,8|0
96,104,137181,2,0,B|168:64|256:80,1,160,0|8
336,88,137630,1,0
408,136,137780,6,0,B|408:176|440:216,2,80,0|0|8
336,88,138229,1,0
264,136,138378,2,0,B|224:216|112:232,1,160,0|8
72,280,138828,1,0
136,336,138977,5,0
160,340,139052,1,0
184,340,139127,1,0
208,336,139202,1,0
232,332,139277,1,0
256,324,139351,1,0
276,312,139426,1,0
292,296,139501,1,0
308,280,139576,1,0
328,264,139651,1,0
348,248,139726,1,0
372,240,139801,1,0
396,236,139875,1,0
420,236,139950,1,0
444,244,140025,1,0
464,252,140100,1,0
484,264,140175,2,0,B|508:276,31,20
464,296,141372,6,0,B|440:336|392:344,1,80,0|8
352,280,141822,1,0
288,328,141971,2,0,B|248:328|208:304,1,80,0|8
144,264,142420,2,0,B|104:280|80:312,2,80,0|8|0
224,256,143169,1,0
272,192,143319,1,0
240,120,143468,1,8
160,112,143618,1,0
80,128,143768,6,0,B|56:160|56:208,1,80,0|8
128,240,144217,1,0
200,208,144366,2,0,B|240:192|280:192,1,80,0|8
336,248,144816,2,0,B|336:288|360:328,2,80,0|8|0
408,208,145564,2,0,B|448:200|480:160,1,80,0|8
408,120,146013,1,0
336,80,146163,6,0,B|296:64|256:64,1,80,0|8
200,120,146612,2,0,B|152:120|112:144,1,80
72,200,147061,1,8
64,280,147211,1,0
120,336,147360,2,0,B|152:360|208:360,2,80,0|8|0
64,280,148109,2,0,B|56:240|72:201,1,80,8|0
104,128,148558,5,8
176,96,148708,2,0,B|216:88|272:104,1,80,0|8
312,160,149157,1,8
392,144,149307,2,0,B|424:168|448:208,1,80,0|8
416,280,149756,1,8
344,320,149905,2,0,B|304:336|256:328,1,80,0|8
200,280,150354,1,8
240,208,150504,2,0,B|240:168|208:128,1,80,0|8
136,104,150953,6,0,B|104:136|104:176,1,80,0|8
136,248,151402,1,0
80,304,151552,2,0,B|104:336|152:336,1,80,0|8
232,328,152001,1,0
296,280,152151,2,0,B|336:304|344:344,2,80,0|8|0
232,232,152899,2,0,B|192:208|184:168,1,80,8|0
152,96,153348,6,0,B|176:64|224:56,1,80,8|0
288,96,153798,1,8
368,112,153947,2,0,B|376:152|408:184,1,80,8|0
464,240,154396,1,8
424,312,154546,2,0,B|384:344|336:344,1,80,8|0
352,264,154995,1,8
280,232,155145,2,0,B|272:280|280:320,1,80,8|0
208,352,155594,1,8
256,192,155744,12,0,159037
84,180,159336,5,0
116,172,159411,1,0
148,172,159486,1,0
180,184,159561,1,0
204,204,159636,1,0
228,224,159711,1,0
256,236,159786,1,0
288,240,159860,1,0
320,236,159935,2,0,B|352:236|376:220,1,60
408,208,160235,1,0
424,180,160310,1,0
424,148,160384,1,0
416,116,160459,1,0
404,88,160534,6,0,B|368:60|312:48,1,80
192,96,160833,2,0,B|228:124|284:136,1,80,8|0
352,144,161133,1,0
384,224,161283,1,0
336,296,161432,2,0,B|296:320|248:312,1,80,8|0
104,256,161732,2,0,B|128:288|168:304,2,80,0|0|8
40,192,162181,1,0
104,128,162331,2,0,B|128:96|168:80,1,80
224,152,162630,2,0,B|264:144|312:168,1,80,8|0
272,248,162929,6,0,B|352:288|360:376,1,160,0|8
264,344,163378,1,0
400,256,163528,2,0,B|392:168|472:112,1,160,0|8
488,208,163977,1,0
336,160,164127,2,0,B|248:176|184:112,1,160,0|8
280,80,164576,1,0
232,232,164726,2,0,B|144:248|104:336,1,160,0|8
208,328,165175,1,0
120,200,165325,6,0,B|88:176|72:136,1,80
160,128,165624,2,0,B|160:88|184:48,1,80,8|0
248,112,165923,2,0,B|288:96|336:96,1,80
312,184,166223,2,0,B|352:192|392:224,1,80,8|0
448,272,166522,5,0
376,328,166672,1,0
240,216,166822,5,8
312,272,166971,1,0
448,152,167121,5,0
376,208,167271,1,0
240,96,167420,5,8
312,152,167570,1,0
376,88,167720,6,0,B|344:64|304:56,1,80
136,88,168019,2,0,B|168:64|208:56,1,80,8|0
216,144,168319,2,0,B|208:192|168:224,1,80
332,213,168618,2,0,B|304:192|296:136,1,80,8|0
256,256,168917,5,0
200,320,169067,2,0,B|176:352,2,40,0|0|8
312,320,169366,2,0,B|336:352,2,40
256,256,169666,1,0
256,240,169741,1,0
256,224,169816,1,8
256,208,169890,1,0
256,192,169965,1,0
256,176,170040,1,0
256,160,170115,6,0,B|256:72,1,80
144,48,170414,2,0,B|176:128,1,80,8|0
338,122,170714,2,0,B|368:48,1,80
432,112,171013,1,8
472,192,171163,1,0
432,272,171313,2,0,B|344:256,1,80
80,272,171612,2,0,B|168:256,1,80,8|0
368,352,171911,2,0,B|296:320,1,80
144,352,172211,2,0,B|216:320,1,80,8|0
256,240,172510,5,8
184,192,172660,2,0,B|144:112|40:128,1,160,8|0
88,208,173109,2,0,B|88:248|120:288,1,80,8|0
216,328,173408,1,0
256,200,173558,1,0
296,328,173708,1,8
192,256,173857,1,0
320,256,174007,1,0
396,281,174157,2,0,B|424:248|424:208,1,80,0|8
461,126,174456,2,0,B|368:112|328:192,1,160,8|0
120,184,174905,5,4
120,184,175055,2,0,B|120:272|216:312,1,160
392,200,175504,1,0
392,200,175654,2,0,B|392:112|296:72,1,160
205,189,176103,5,0
205,189,176253,2,0,B|208:232|248:256,1,80
307,195,176702,1,0
307,195,176851,2,0,B|304:152|264:128,1,80
248,120,177226,5,0
228,116,177301,1,0
208,116,177375,1,0
188,120,177450,1,0
168,128,177525,1,0
152,140,177600,1,0
140,156,177675,1,0
132,176,177750,1,0
132,196,177825,1,0
136,216,177899,1,0
144,232,177974,1,0
160,244,178049,1,0
176,256,178124,1,0
196,260,178199,1,0
216,260,178274,1,0
236,260,178348,1,0
256,260,178423,1,0
276,260,178498,6,0,B|316:260,3,40
336,260,178798,2,0,B|392:260,3,40
396,260,179097,6,0,B|424:260,7,20
436,260,179396,5,0
460,228,179471,1,0
464,188,179546,1,0
460,148,179621,1,0
436,116,179696,6,0,B|412:80|368:64,1,80
328,144,179995,2,0,B|304:176|256:176,1,80,8|0
176,136,180295,1,0
88,160,180444,1,0
64,248,180594,2,0,B|56:288|24:320,1,80,8|0
144,328,180893,2,0,B|216:360|304:336,1,160,0|8
264,256,181342,2,0,B|360:256|408:176,1,160
328,144,181792,2,0,B|360:112|352:64,1,80,8|0
272,40,182091,5,0
200,88,182241,2,0,B|168:120|176:168,1,80,0|8
248,208,182540,1,0
336,208,182690,2,0,B|376:200|424:216,1,80
472,280,182989,1,8
400,328,183139,1,0
320,296,183289,2,0,B|280:312|232:304,1,80
169,217,183588,2,0,B|209:201|257:209,1,80,8|0
160,288,183887,2,0,B|120:304|72:296,1,80
9,209,184187,2,0,B|49:193|97:201,1,80,8|0
160,144,184486,5,0
264,104,184636,1,0
304,208,184786,1,8
200,248,184935,1,0
160,144,185085,5,0
270,161,185235,1,0
252,271,185384,1,8
142,254,185534,1,0
160,144,185684,6,0,B|184:112|224:88,1,80
272,160,185983,2,0,B|312:144|360:152,1,80,8|0
320,232,186283,2,0,B|360:240|400:280,1,80
312,312,186582,2,0,B|288:352|240:360,1,80,8|0
160,352,186881,5,0
80,312,187031,1,0
40,232,187181,1,8
40,144,187331,1,0
80,64,187480,2,0,B|120:56|168:72,1,80
256,176,187780,2,0,B|216:184|168:168,1,80,8|0
40,232,188079,5,0
136,304,188229,2,0,B|104:344,2,40,0|0|8
256,304,188528,2,0,B|256:368,2,40
376,312,188828,1,0
404,296,188902,1,0
428,276,188977,1,8
444,248,189052,1,0
452,216,189127,1,0
448,184,189202,1,0
440,152,189277,6,0,B|440:112|420:68,1,80
304,128,189576,2,0,B|304:168|324:212,1,80,8|0
72,152,189875,2,0,B|72:112|92:68,1,80
208,128,190175,2,0,B|208:168|188:212,1,80,8|0
144,280,190474,5,0
192,352,190624,1,0
256,296,190774,1,8
320,352,190923,1,0
368,280,191073,5,0
256,192,191223,1,0
144,280,191372,1,8
256,296,191522,1,0
176,192,191672,6,0,B|160:160|120:136,1,80
192,40,191971,2,0,B|192:80|216:120,1,80,8|0
298,116,192271,2,0,B|320:80|320:32,1,80
391,136,192570,2,0,B|352:160|336:192,1,80,8|0
162,300,192869,6,0,B|128:280|112:240,1,80
206,153,193169,2,0,B|200:192|219:239,1,80,8|0
295,231,193468,2,0,B|312:192|305:149,1,80
399,240,193768,2,0,B|384:280|344:304,1,80,8|0
256,344,194067,6,0,B|256:264,1,80,4|0
256,216,194516,1,0
256,168,194816,1,0
256,120,195115,1,0
192,56,195414,5,0
320,56,195714,1,0
104,56,196013,1,0
408,56,196313,1,0
440,224,196462,5,0
424,240,196537,1,0
404,252,196612,1,0
380,260,196687,1,0
356,260,196762,1,0
332,252,196836,1,0
312,236,196911,1,0
292,220,196986,1,0
268,212,197061,6,0,B|248:200|224:200,3,40
208,200,197360,1,0
184,204,197435,1,0
160,204,197510,1,0
136,200,197585,1,0
112,196,197660,6,0,B|80:192,15,20
80,192,198259,6,0,B|60:164|64:128,1,60
68,112,198558,1,0
80,92,198633,1,0
100,80,198708,1,0
124,76,198783,1,0
148,76,198857,1,4
