osu file format v12

[General]
AudioFilename: DJ Sharpnel - Ivaltek2.mp3
AudioLeadIn: 0
PreviewTime: 75212
Countdown: 0
SampleSet: Normal
StackLeniency: 0.7
Mode: 1
LetterboxInBreaks: 1

[Editor]
DistanceSpacing: 1.2
BeatDivisor: 4
GridSize: 8

[Metadata]
Title:IVALTEK
TitleUnicode:IVALTEK
Artist:DJ Sharpnel
ArtistUnicode:DJ Sharpnel
Creator:happy30
Version:Phedondon
Source:Final Fantasy XII
Tags:j-core happy hardcore kiss me goodbye gladiool gladi pheon
BeatmapID:155101
BeatmapSetID:50429

[Difficulty]
HPDrainRate:7
CircleSize:5
OverallDifficulty:6
ApproachRate:5
SliderMultiplier:1.4
SliderTickRate:1

[Events]
//Background and Video events
0,0,"background ivaltek.jpg",0,135
//Break Periods
//Storyboard Layer 0 (Background)
//Storyboard Layer 1 (Fail)
//Storyboard Layer 2 (Pass)
//Storyboard Layer 3 (Foreground)
//Storyboard Sound Samples
//Background Colour Transformations
3,100,163,162,255

[TimingPoints]
895,288.322921672273,4,1,0,60,1,0
9833,-100,4,1,0,45,0,0
18194,-100,4,1,0,60,0,0
37728,-100,4,1,0,45,0,0
38380,288.322921672273,4,1,0,60,1,0
38380,-100,4,1,0,45,0,0
75285,-100,4,1,0,60,0,1
109884,-100,4,1,0,60,0,0
112190,-100,4,1,0,60,0,1
150249,-100,4,1,0,60,0,0

[Colours]
Combo1 : 0,0,160
Combo2 : 255,0,0

[HitObjects]
256,192,10121,1,2,0:0:0:0:
256,192,10409,5,2,0:0:0:0:
256,192,10697,1,2,0:0:0:0:
256,192,10986,1,2,0:0:0:0:
256,192,11130,1,2,0:0:0:0:
256,192,11274,1,2,0:0:0:0:
256,192,11562,1,2,0:0:0:0:
256,192,11851,1,2,0:0:0:0:
256,192,12139,1,2,0:0:0:0:
256,192,12283,1,2,0:0:0:0:
256,192,12427,1,2,0:0:0:0:
256,192,12716,1,2,0:0:0:0:
256,192,13004,1,2,0:0:0:0:
256,192,13292,1,2,0:0:0:0:
256,192,13437,1,2,0:0:0:0:
256,192,13581,1,2,0:0:0:0:
256,192,13869,1,2,0:0:0:0:
256,192,14157,1,2,0:0:0:0:
256,192,14446,1,2,0:0:0:0:
256,192,14590,1,2,0:0:0:0:
256,192,14734,1,2,0:0:0:0:
256,192,15022,1,2,0:0:0:0:
256,192,15311,1,2,0:0:0:0:
256,192,15599,1,2,0:0:0:0:
256,192,15743,1,2,0:0:0:0:
256,192,15887,1,2,0:0:0:0:
256,192,16176,1,2,0:0:0:0:
256,192,16464,1,2,0:0:0:0:
256,192,16752,1,2,0:0:0:0:
256,192,16896,1,2,0:0:0:0:
256,192,17041,1,2,0:0:0:0:
256,192,17329,1,2,0:0:0:0:
256,192,17617,1,2,0:0:0:0:
256,192,17906,1,2,0:0:0:0:
256,192,18050,1,2,0:0:0:0:
256,192,18194,5,0,0:0:0:0:
256,192,18482,1,0,0:0:0:0:
256,192,18626,1,0,0:0:0:0:
256,192,18771,5,2,0:0:0:0:
256,192,19059,1,2,0:0:0:0:
256,192,19203,1,2,0:0:0:0:
256,192,19275,1,2,0:0:0:0:
256,192,19347,5,0,0:0:0:0:
256,192,19635,1,0,0:0:0:0:
256,192,19780,1,0,0:0:0:0:
256,192,19924,5,2,0:0:0:0:
256,192,20212,5,0,0:0:0:0:
256,192,20356,1,0,0:0:0:0:
256,192,20428,1,0,0:0:0:0:
256,192,20500,1,0,0:0:0:0:
256,192,20789,1,0,0:0:0:0:
256,192,20933,1,0,0:0:0:0:
256,192,21077,5,2,0:0:0:0:
256,192,21365,5,0,0:0:0:0:
256,192,21510,5,2,0:0:0:0:
256,192,21582,1,2,0:0:0:0:
256,192,21654,5,0,0:0:0:0:
256,192,21942,1,0,0:0:0:0:
256,192,22086,1,0,0:0:0:0:
256,192,22230,5,2,0:0:0:0:
256,192,22519,5,0,0:0:0:0:
256,192,22663,1,0,0:0:0:0:
256,192,22735,1,0,0:0:0:0:
256,192,22807,1,0,0:0:0:0:
256,192,23095,1,0,0:0:0:0:
256,192,23240,1,0,0:0:0:0:
256,192,23384,5,2,0:0:0:0:
256,192,23672,1,2,0:0:0:0:
256,192,23816,1,2,0:0:0:0:
256,192,23888,1,2,0:0:0:0:
256,192,23960,5,0,0:0:0:0:
256,192,24104,1,0,0:0:0:0:
256,192,24249,1,0,0:0:0:0:
256,192,24537,5,2,0:0:0:0:
256,192,24825,5,0,0:0:0:0:
256,192,24969,1,0,0:0:0:0:
256,192,25042,1,0,0:0:0:0:
256,192,25114,1,0,0:0:0:0:
256,192,25258,1,0,0:0:0:0:
256,192,25402,1,0,0:0:0:0:
256,192,25690,5,2,0:0:0:0:
256,192,25979,5,0,0:0:0:0:
256,192,26123,5,2,0:0:0:0:
256,192,26195,1,2,0:0:0:0:
256,192,26267,5,0,0:0:0:0:
256,192,26411,1,0,0:0:0:0:
256,192,26555,1,0,0:0:0:0:
256,192,26844,5,2,0:0:0:0:
256,192,27132,5,0,0:0:0:0:
256,192,27276,1,0,0:0:0:0:
256,192,27348,1,0,0:0:0:0:
256,192,27420,1,0,0:0:0:0:
256,192,27564,1,0,0:0:0:0:
256,192,27709,1,0,0:0:0:0:
256,192,27997,5,2,0:0:0:0:
256,192,28285,1,2,0:0:0:0:
256,192,28357,1,2,0:0:0:0:
256,192,28429,1,2,0:0:0:0:
256,192,28501,1,2,0:0:0:0:
256,192,28574,5,0,0:0:0:0:
256,192,28862,1,0,0:0:0:0:
256,192,29006,5,2,0:0:0:0:
256,192,29150,1,2,0:0:0:0:
256,192,29294,5,0,0:0:0:0:
256,192,29438,1,0,0:0:0:0:
256,192,29583,1,0,0:0:0:0:
256,192,29655,5,2,0:0:0:0:
256,192,29727,5,0,0:0:0:0:
256,192,30015,1,0,0:0:0:0:
256,192,30159,5,2,0:0:0:0:
256,192,30303,1,2,0:0:0:0:
256,192,30448,5,0,0:0:0:0:
256,192,30592,1,0,0:0:0:0:
256,192,30736,5,2,0:0:0:0:
256,192,30808,1,2,0:0:0:0:
256,192,30880,5,0,0:0:0:0:
256,192,31168,1,0,0:0:0:0:
256,192,31313,5,2,0:0:0:0:
256,192,31457,1,2,0:0:0:0:
256,192,31601,5,0,0:0:0:0:
256,192,31745,1,0,0:0:0:0:
256,192,31889,1,0,0:0:0:0:
256,192,31961,5,2,0:0:0:0:
256,192,32033,5,0,0:0:0:0:
256,192,32322,1,0,0:0:0:0:
256,192,32466,5,2,0:0:0:0:
256,192,32610,1,2,0:0:0:0:
256,192,32754,5,0,0:0:0:0:
256,192,32898,1,0,0:0:0:0:
256,192,32970,1,0,0:0:0:0:
256,192,33043,5,2,0:0:0:0:
256,192,33115,1,2,0:0:0:0:
256,192,33187,5,0,0:0:0:0:
256,192,33331,1,0,0:0:0:0:
256,192,33475,1,0,0:0:0:0:
256,192,33619,5,2,0:0:0:0:
256,192,33763,1,2,0:0:0:0:
256,192,33907,5,0,0:0:0:0:
256,192,34052,1,0,0:0:0:0:
256,192,34196,1,0,0:0:0:0:
256,192,34268,5,2,0:0:0:0:
256,192,34340,5,0,0:0:0:0:
256,192,34484,1,0,0:0:0:0:
256,192,34628,1,0,0:0:0:0:
256,192,34772,5,2,0:0:0:0:
256,192,34917,1,2,0:0:0:0:
256,192,35061,1,2,0:0:0:0:
256,192,35205,5,0,0:0:0:0:
256,192,35277,1,0,0:0:0:0:
256,192,35349,5,2,0:0:0:0:
256,192,35421,1,2,0:0:0:0:
256,192,36647,12,0,37800,0:0:0:0:
256,192,38376,5,4,0:0:0:0:
256,192,39244,1,0,0:0:0:0:
256,192,39533,5,2,0:0:0:0:
256,192,40109,5,0,0:0:0:0:
256,192,40398,5,2,0:0:0:0:
256,192,40686,5,0,0:0:0:0:
256,192,41551,1,0,0:0:0:0:
256,192,41839,5,2,0:0:0:0:
256,192,42416,1,2,0:0:0:0:
256,192,42704,1,2,0:0:0:0:
256,192,42993,5,0,0:0:0:0:
256,192,43858,1,0,0:0:0:0:
256,192,44146,5,2,0:0:0:0:
256,192,44723,5,0,0:0:0:0:
256,192,45011,5,2,0:0:0:0:
256,192,45299,5,0,0:0:0:0:
256,192,46164,1,0,0:0:0:0:
256,192,46453,5,2,0:0:0:0:
256,192,47029,1,2,0:0:0:0:
256,192,47318,1,2,0:0:0:0:
256,192,47606,5,0,0:0:0:0:
256,192,48471,1,0,0:0:0:0:
256,192,48759,5,2,0:0:0:0:
256,192,49336,5,0,0:0:0:0:
256,192,49912,1,0,0:0:0:0:
256,192,50777,1,0,0:0:0:0:
256,192,51066,5,2,0:0:0:0:
256,192,51642,1,2,0:0:0:0:
256,192,51931,1,2,0:0:0:0:
256,192,52219,5,0,0:0:0:0:
256,192,53084,1,0,0:0:0:0:
256,192,53372,5,2,0:0:0:0:
256,192,54526,5,0,0:0:0:0:
256,192,55391,1,0,0:0:0:0:
256,192,55679,5,2,0:0:0:0:
256,192,56111,5,0,0:0:0:0:
256,192,56256,5,2,0:0:0:0:
256,192,56544,5,0,0:0:0:0:
256,192,56832,1,4,0:0:0:0:
256,192,57697,1,0,0:0:0:0:
256,192,57985,5,2,0:0:0:0:
256,192,58562,5,0,0:0:0:0:
256,192,59139,1,0,0:0:0:0:
256,192,60004,1,0,0:0:0:0:
256,192,60292,5,2,0:0:0:0:
256,192,60869,1,2,0:0:0:0:
256,192,61445,5,0,0:0:0:0:
256,192,62310,1,0,0:0:0:0:
256,192,62599,5,2,0:0:0:0:
256,192,63175,5,0,0:0:0:0:
256,192,63752,1,0,0:0:0:0:
256,192,64617,1,0,0:0:0:0:
256,192,64905,5,2,0:0:0:0:
256,192,65482,1,2,0:0:0:0:
256,192,66059,5,0,0:0:0:0:
256,192,66923,1,0,0:0:0:0:
256,192,67212,5,2,0:0:0:0:
256,192,67788,5,0,0:0:0:0:
256,192,68365,1,0,0:0:0:0:
256,192,69230,1,0,0:0:0:0:
256,192,69518,5,2,0:0:0:0:
256,192,70095,5,0,0:0:0:0:
256,192,70672,1,0,0:0:0:0:
256,192,71825,1,0,0:0:0:0:
256,192,72978,1,0,0:0:0:0:
256,192,74708,5,2,0:0:0:0:
256,192,74997,1,2,0:0:0:0:
256,192,75285,5,0,0:0:0:0:
256,192,75429,1,0,0:0:0:0:
256,192,75501,1,0,0:0:0:0:
256,192,75573,5,2,0:0:0:0:
256,192,75717,5,0,0:0:0:0:
256,192,75789,1,0,0:0:0:0:
256,192,75861,1,0,0:0:0:0:
256,192,75934,5,2,0:0:0:0:
256,192,76006,5,0,0:0:0:0:
256,192,76078,1,0,0:0:0:0:
256,192,76150,5,2,0:0:0:0:
256,192,76294,5,0,0:0:0:0:
256,192,76366,1,0,0:0:0:0:
256,192,76438,1,0,0:0:0:0:
256,192,76582,1,0,0:0:0:0:
256,192,76654,1,0,0:0:0:0:
256,192,76726,5,2,0:0:0:0:
256,192,76871,1,2,0:0:0:0:
256,192,76943,1,2,0:0:0:0:
256,192,77015,5,0,0:0:0:0:
256,192,77087,5,2,0:0:0:0:
256,192,77159,5,0,0:0:0:0:
256,192,77231,1,0,0:0:0:0:
256,192,77303,5,2,0:0:0:0:
256,192,77447,1,2,0:0:0:0:
256,192,77519,1,2,0:0:0:0:
256,192,77591,5,0,0:0:0:0:
256,192,77736,1,0,0:0:0:0:
256,192,77808,1,0,0:0:0:0:
256,192,77880,5,2,0:0:0:0:
256,192,78024,5,0,0:0:0:0:
256,192,78096,1,0,0:0:0:0:
256,192,78168,1,0,0:0:0:0:
256,192,78240,5,2,0:0:0:0:
256,192,78312,5,0,0:0:0:0:
256,192,78384,1,0,0:0:0:0:
256,192,78456,5,2,0:0:0:0:
256,192,78601,5,0,0:0:0:0:
256,192,78673,1,0,0:0:0:0:
256,192,78745,5,2,0:0:0:0:
256,192,78889,5,0,0:0:0:0:
256,192,79033,5,2,0:0:0:0:
256,192,79177,5,0,0:0:0:0:
256,192,79321,5,2,0:0:0:0:
256,192,79466,5,0,0:0:0:0:
256,192,79610,5,2,0:0:0:0:
256,192,79682,1,2,0:0:0:0:
256,192,79754,1,2,0:0:0:0:
256,192,79826,1,2,0:0:0:0:
256,192,79898,5,0,0:0:0:0:
256,192,80042,1,0,0:0:0:0:
256,192,80114,1,0,0:0:0:0:
256,192,80186,5,2,0:0:0:0:
256,192,80330,5,0,0:0:0:0:
256,192,80403,1,0,0:0:0:0:
256,192,80475,1,0,0:0:0:0:
256,192,80547,5,2,0:0:0:0:
256,192,80619,5,0,0:0:0:0:
256,192,80691,1,0,0:0:0:0:
256,192,80763,5,2,0:0:0:0:
256,192,80907,5,0,0:0:0:0:
256,192,80979,1,0,0:0:0:0:
256,192,81051,1,0,0:0:0:0:
256,192,81195,1,0,0:0:0:0:
256,192,81340,5,2,0:0:0:0:
256,192,81484,5,0,0:0:0:0:
256,192,81556,1,0,0:0:0:0:
256,192,81628,1,0,0:0:0:0:
256,192,81700,5,2,0:0:0:0:
256,192,81772,5,0,0:0:0:0:
256,192,81916,5,2,0:0:0:0:
256,192,82060,1,2,0:0:0:0:
256,192,82133,1,2,0:0:0:0:
256,192,82205,5,0,0:0:0:0:
256,192,82349,1,0,0:0:0:0:
256,192,82421,1,0,0:0:0:0:
256,192,82493,5,2,0:0:0:0:
256,192,82637,5,0,0:0:0:0:
256,192,82709,1,0,0:0:0:0:
256,192,82781,1,0,0:0:0:0:
256,192,82853,5,2,0:0:0:0:
256,192,82925,5,0,0:0:0:0:
256,192,82997,1,0,0:0:0:0:
256,192,83070,5,2,0:0:0:0:
256,192,83214,5,0,0:0:0:0:
256,192,83286,1,0,0:0:0:0:
256,192,83358,1,0,0:0:0:0:
256,192,83502,1,0,0:0:0:0:
256,192,83646,5,2,0:0:0:0:
256,192,83718,1,2,0:0:0:0:
256,192,83790,5,0,0:0:0:0:
256,192,83862,1,0,0:0:0:0:
256,192,83935,5,2,0:0:0:0:
256,192,84007,1,2,0:0:0:0:
256,192,84079,5,0,0:0:0:0:
256,192,84151,1,0,0:0:0:0:
256,192,84223,5,2,0:0:0:0:
256,192,84367,5,0,0:0:0:0:
256,192,84439,1,0,0:0:0:0:
256,192,84511,1,0,0:0:0:0:
256,192,84655,1,0,0:0:0:0:
256,192,84727,1,0,0:0:0:0:
256,192,84799,5,2,0:0:0:0:
256,192,84944,5,0,0:0:0:0:
256,192,85016,5,2,0:0:0:0:
256,192,85088,5,0,0:0:0:0:
256,192,85160,1,0,0:0:0:0:
256,192,85232,1,0,0:0:0:0:
256,192,85376,5,2,0:0:0:0:
256,192,85520,5,0,0:0:0:0:
256,192,85592,1,0,0:0:0:0:
256,192,85664,1,0,0:0:0:0:
256,192,85809,1,0,0:0:0:0:
256,192,85881,1,0,0:0:0:0:
256,192,85953,5,2,0:0:0:0:
256,192,86097,5,0,0:0:0:0:
256,192,86169,5,2,0:0:0:0:
256,192,86241,5,0,0:0:0:0:
256,192,86313,1,0,0:0:0:0:
256,192,86385,5,2,0:0:0:0:
256,192,86457,5,0,0:0:0:0:
256,192,86529,5,2,0:0:0:0:
256,192,86674,1,2,0:0:0:0:
256,192,86746,1,2,0:0:0:0:
256,192,86818,5,0,0:0:0:0:
256,192,86962,1,0,0:0:0:0:
256,192,87034,1,0,0:0:0:0:
256,192,87106,5,2,0:0:0:0:
256,192,87250,5,0,0:0:0:0:
256,192,87322,5,2,0:0:0:0:
256,192,87394,5,0,0:0:0:0:
256,192,87466,1,0,0:0:0:0:
256,192,87539,1,0,0:0:0:0:
256,192,87683,5,2,0:0:0:0:
256,192,87827,5,0,0:0:0:0:
256,192,87899,1,0,0:0:0:0:
256,192,87971,5,2,0:0:0:0:
256,192,88115,5,0,0:0:0:0:
256,192,88259,5,2,0:0:0:0:
256,192,88404,5,0,0:0:0:0:
256,192,88548,5,2,0:0:0:0:
256,192,88620,5,0,0:0:0:0:
256,192,88692,5,2,0:0:0:0:
256,192,88764,1,2,0:0:0:0:
256,192,88836,5,0,0:0:0:0:
256,192,88908,5,2,0:0:0:0:
256,192,88980,1,2,0:0:0:0:
256,192,89052,1,2,0:0:0:0:
256,192,89124,5,0,0:0:0:0:
256,192,89268,1,0,0:0:0:0:
256,192,89413,5,2,0:0:0:0:
256,192,89557,5,0,0:0:0:0:
256,192,89629,1,0,0:0:0:0:
256,192,89701,1,0,0:0:0:0:
256,192,89845,1,0,0:0:0:0:
256,192,89989,5,2,0:0:0:0:
256,192,90278,5,0,0:0:0:0:
256,192,90422,1,0,0:0:0:0:
256,192,90566,5,2,0:0:0:0:
256,192,90710,5,0,0:0:0:0:
256,192,90782,1,0,0:0:0:0:
256,192,90854,1,0,0:0:0:0:
256,192,90998,5,2,0:0:0:0:
256,192,91143,1,2,0:0:0:0:
256,192,91431,5,0,0:0:0:0:
256,192,91575,1,0,0:0:0:0:
256,192,91719,5,2,0:0:0:0:
256,192,92008,5,0,0:0:0:0:
256,192,92152,1,0,0:0:0:0:
256,192,92296,5,2,0:0:0:0:
256,192,92584,5,0,0:0:0:0:
256,192,92656,1,0,0:0:0:0:
256,192,92728,1,0,0:0:0:0:
256,192,92873,5,2,0:0:0:0:
256,192,92945,1,2,0:0:0:0:
256,192,93017,1,2,0:0:0:0:
256,192,93161,5,0,0:0:0:0:
256,192,93233,1,0,0:0:0:0:
256,192,93305,1,0,0:0:0:0:
256,192,93449,5,2,0:0:0:0:
256,192,93521,1,2,0:0:0:0:
256,192,93593,1,2,0:0:0:0:
256,192,93738,5,0,0:0:0:0:
256,192,93810,1,0,0:0:0:0:
256,192,93882,1,0,0:0:0:0:
256,192,94026,5,2,0:0:0:0:
256,192,94170,5,0,0:0:0:0:
256,192,94242,1,0,0:0:0:0:
256,192,94314,1,0,0:0:0:0:
256,192,94386,5,2,0:0:0:0:
256,192,94458,5,0,0:0:0:0:
256,192,94602,5,2,0:0:0:0:
256,192,94747,5,0,0:0:0:0:
256,192,94819,5,2,0:0:0:0:
256,192,94891,5,0,0:0:0:0:
256,192,94963,1,0,0:0:0:0:
256,192,95035,1,0,0:0:0:0:
256,192,95179,5,2,0:0:0:0:
256,192,95323,5,0,0:0:0:0:
256,192,95395,1,0,0:0:0:0:
256,192,95467,1,0,0:0:0:0:
256,192,95540,5,2,0:0:0:0:
256,192,95612,5,0,0:0:0:0:
256,192,95756,5,2,0:0:0:0:
256,192,95900,1,2,0:0:0:0:
256,192,95972,1,2,0:0:0:0:
256,192,96044,5,0,0:0:0:0:
256,192,96116,1,0,0:0:0:0:
256,192,96188,1,0,0:0:0:0:
256,192,96332,5,2,0:0:0:0:
256,192,96621,5,0,0:0:0:0:
256,192,96693,1,0,0:0:0:0:
256,192,96765,1,0,0:0:0:0:
256,192,96909,5,2,0:0:0:0:
256,192,97197,5,0,0:0:0:0:
256,192,97269,1,0,0:0:0:0:
256,192,97342,1,0,0:0:0:0:
256,192,97486,5,2,0:0:0:0:
256,192,97630,5,0,0:0:0:0:
256,192,97702,1,0,0:0:0:0:
256,192,97774,5,2,0:0:0:0:
256,192,97918,5,0,0:0:0:0:
256,192,98062,5,2,0:0:0:0:
256,192,98134,1,2,0:0:0:0:
256,192,98207,1,2,0:0:0:0:
256,192,98279,1,2,0:0:0:0:
256,192,98351,5,0,0:0:0:0:
256,192,98495,1,0,0:0:0:0:
256,192,98639,5,2,0:0:0:0:
256,192,98783,5,0,0:0:0:0:
256,192,98855,1,0,0:0:0:0:
256,192,98927,1,0,0:0:0:0:
256,192,98999,5,2,0:0:0:0:
256,192,99071,5,0,0:0:0:0:
256,192,99144,1,0,0:0:0:0:
256,192,99216,5,2,0:0:0:0:
256,192,99360,5,0,0:0:0:0:
256,192,99432,1,0,0:0:0:0:
256,192,99504,1,0,0:0:0:0:
256,192,99648,1,0,0:0:0:0:
256,192,99792,5,2,0:0:0:0:
256,192,99936,5,0,0:0:0:0:
256,192,100009,5,2,0:0:0:0:
256,192,100081,5,0,0:0:0:0:
256,192,100153,1,0,0:0:0:0:
256,192,100225,5,2,0:0:0:0:
256,192,100297,5,0,0:0:0:0:
256,192,100369,5,2,0:0:0:0:
256,192,100513,1,2,0:0:0:0:
256,192,100585,1,2,0:0:0:0:
256,192,100657,5,0,0:0:0:0:
256,192,100801,1,0,0:0:0:0:
256,192,100873,1,0,0:0:0:0:
256,192,100946,5,2,0:0:0:0:
256,192,101234,5,0,0:0:0:0:
256,192,101378,1,0,0:0:0:0:
256,192,101450,1,0,0:0:0:0:
256,192,101522,5,2,0:0:0:0:
256,192,101811,5,0,0:0:0:0:
256,192,101955,1,0,0:0:0:0:
256,192,102027,1,0,0:0:0:0:
256,192,102099,5,2,0:0:0:0:
256,192,102243,5,0,0:0:0:0:
256,192,102387,1,0,0:0:0:0:
256,192,102459,5,2,0:0:0:0:
256,192,102531,5,0,0:0:0:0:
256,192,102603,1,0,0:0:0:0:
256,192,102676,5,2,0:0:0:0:
256,192,102748,1,2,0:0:0:0:
256,192,102820,1,2,0:0:0:0:
256,192,102892,1,2,0:0:0:0:
256,192,102964,5,0,0:0:0:0:
256,192,103108,1,0,0:0:0:0:
256,192,103252,5,2,0:0:0:0:
256,192,103396,5,0,0:0:0:0:
256,192,103468,1,0,0:0:0:0:
256,192,103540,1,0,0:0:0:0:
256,192,103613,1,0,0:0:0:0:
256,192,103685,1,0,0:0:0:0:
256,192,103829,5,2,0:0:0:0:
256,192,104117,5,0,0:0:0:0:
256,192,104261,1,0,0:0:0:0:
256,192,104405,5,2,0:0:0:0:
256,192,104550,1,2,0:0:0:0:
256,192,104622,1,2,0:0:0:0:
256,192,104694,5,0,0:0:0:0:
256,192,104766,1,0,0:0:0:0:
256,192,104838,1,0,0:0:0:0:
256,192,104982,5,2,0:0:0:0:
256,192,105270,5,0,0:0:0:0:
256,192,105415,1,0,0:0:0:0:
256,192,105559,5,2,0:0:0:0:
256,192,105703,5,0,0:0:0:0:
256,192,105775,1,0,0:0:0:0:
256,192,105847,5,2,0:0:0:0:
256,192,105919,1,2,0:0:0:0:
256,192,105991,5,0,0:0:0:0:
256,192,106135,5,2,0:0:0:0:
256,192,106280,5,0,0:0:0:0:
256,192,106352,1,0,0:0:0:0:
256,192,106424,1,0,0:0:0:0:
256,192,106568,1,0,0:0:0:0:
256,192,106712,5,2,0:0:0:0:
256,192,107000,1,2,0:0:0:0:
256,192,107145,5,0,0:0:0:0:
256,192,107289,5,2,0:0:0:0:
256,192,107433,1,2,0:0:0:0:
256,192,107577,5,0,0:0:0:0:
256,192,107721,1,0,0:0:0:0:
256,192,107865,1,0,0:0:0:0:
256,192,108154,5,2,0:0:0:0:
256,192,108298,5,0,0:0:0:0:
256,192,108442,1,0,0:0:0:0:
256,192,108730,1,0,0:0:0:0:
256,192,108874,1,0,0:0:0:0:
256,192,109019,1,0,0:0:0:0:
256,192,109307,5,2,0:0:0:0:
256,192,109451,5,0,0:0:0:0:
256,192,109595,1,0,0:0:0:0:
256,192,109739,5,2,0:0:0:0:
256,192,109884,5,0,0:0:0:0:
256,192,110172,1,0,0:0:0:0:
256,192,110460,1,0,0:0:0:0:
256,192,110749,1,0,0:0:0:0:
256,192,111037,1,0,0:0:0:0:
256,192,111614,5,2,0:0:0:0:
256,192,111902,1,2,0:0:0:0:
256,192,112190,5,0,0:0:0:0:
256,192,112334,1,0,0:0:0:0:
256,192,112406,1,0,0:0:0:0:
256,192,112478,5,2,0:0:0:0:
256,192,112623,5,0,0:0:0:0:
256,192,112695,1,0,0:0:0:0:
256,192,112767,5,2,0:0:0:0:
256,192,112839,5,0,0:0:0:0:
256,192,112911,5,2,0:0:0:0:
256,192,112983,1,2,0:0:0:0:
256,192,113055,5,0,0:0:0:0:
256,192,113199,1,0,0:0:0:0:
256,192,113271,1,0,0:0:0:0:
256,192,113343,1,0,0:0:0:0:
256,192,113488,1,0,0:0:0:0:
256,192,113560,1,0,0:0:0:0:
256,192,113632,5,2,0:0:0:0:
256,192,113776,5,0,0:0:0:0:
256,192,113848,1,0,0:0:0:0:
256,192,113920,5,2,0:0:0:0:
256,192,113992,1,2,0:0:0:0:
256,192,114064,5,0,0:0:0:0:
256,192,114136,5,2,0:0:0:0:
256,192,114208,5,0,0:0:0:0:
256,192,114353,5,2,0:0:0:0:
256,192,114425,1,2,0:0:0:0:
256,192,114497,5,0,0:0:0:0:
256,192,114641,1,0,0:0:0:0:
256,192,114713,1,0,0:0:0:0:
256,192,114785,5,2,0:0:0:0:
256,192,114929,5,0,0:0:0:0:
256,192,115001,1,0,0:0:0:0:
256,192,115073,5,2,0:0:0:0:
256,192,115145,5,0,0:0:0:0:
256,192,115218,5,2,0:0:0:0:
256,192,115290,1,2,0:0:0:0:
256,192,115362,5,0,0:0:0:0:
256,192,115506,1,0,0:0:0:0:
256,192,115578,1,0,0:0:0:0:
256,192,115650,5,2,0:0:0:0:
256,192,115794,5,0,0:0:0:0:
256,192,115938,5,2,0:0:0:0:
256,192,116083,5,0,0:0:0:0:
256,192,116155,1,0,0:0:0:0:
256,192,116227,5,2,0:0:0:0:
256,192,116299,1,2,0:0:0:0:
256,192,116371,5,0,0:0:0:0:
256,192,116515,5,2,0:0:0:0:
256,192,116587,1,2,0:0:0:0:
256,192,116659,5,0,0:0:0:0:
256,192,116731,5,2,0:0:0:0:
256,192,116803,5,0,0:0:0:0:
256,192,116947,1,0,0:0:0:0:
256,192,117020,1,0,0:0:0:0:
256,192,117092,5,2,0:0:0:0:
256,192,117236,5,0,0:0:0:0:
256,192,117308,1,0,0:0:0:0:
256,192,117380,5,2,0:0:0:0:
256,192,117452,5,0,0:0:0:0:
256,192,117524,5,2,0:0:0:0:
256,192,117596,1,2,0:0:0:0:
256,192,117668,5,0,0:0:0:0:
256,192,117812,1,0,0:0:0:0:
256,192,117885,1,0,0:0:0:0:
256,192,117957,1,0,0:0:0:0:
256,192,118101,1,0,0:0:0:0:
256,192,118173,1,0,0:0:0:0:
256,192,118245,5,2,0:0:0:0:
256,192,118389,1,2,0:0:0:0:
256,192,118461,5,0,0:0:0:0:
256,192,118533,5,2,0:0:0:0:
256,192,118605,1,2,0:0:0:0:
256,192,118677,5,0,0:0:0:0:
256,192,118750,5,2,0:0:0:0:
256,192,118822,5,0,0:0:0:0:
256,192,118966,5,2,0:0:0:0:
256,192,119038,1,2,0:0:0:0:
256,192,119110,5,0,0:0:0:0:
256,192,119254,1,0,0:0:0:0:
256,192,119326,1,0,0:0:0:0:
256,192,119398,5,2,0:0:0:0:
256,192,119542,5,0,0:0:0:0:
256,192,119614,1,0,0:0:0:0:
256,192,119687,5,2,0:0:0:0:
256,192,119759,5,0,0:0:0:0:
256,192,119831,5,2,0:0:0:0:
256,192,119903,1,2,0:0:0:0:
256,192,119975,5,0,0:0:0:0:
256,192,120119,1,0,0:0:0:0:
256,192,120191,1,0,0:0:0:0:
256,192,120263,1,0,0:0:0:0:
256,192,120407,1,0,0:0:0:0:
256,192,120552,5,2,0:0:0:0:
256,192,120696,5,0,0:0:0:0:
256,192,120840,1,0,0:0:0:0:
256,192,120912,5,2,0:0:0:0:
256,192,120984,5,0,0:0:0:0:
256,192,121056,1,0,0:0:0:0:
256,192,121128,5,2,0:0:0:0:
256,192,121200,5,0,0:0:0:0:
256,192,121272,5,2,0:0:0:0:
256,192,121344,1,2,0:0:0:0:
256,192,121417,5,0,0:0:0:0:
256,192,121561,1,0,0:0:0:0:
256,192,121705,5,2,0:0:0:0:
256,192,121849,5,0,0:0:0:0:
256,192,121921,1,0,0:0:0:0:
256,192,121993,1,0,0:0:0:0:
256,192,122065,5,2,0:0:0:0:
256,192,122137,5,0,0:0:0:0:
256,192,122281,5,2,0:0:0:0:
256,192,122426,5,0,0:0:0:0:
256,192,122498,1,0,0:0:0:0:
256,192,122570,1,0,0:0:0:0:
256,192,122714,1,0,0:0:0:0:
256,192,122858,5,2,0:0:0:0:
256,192,123002,5,0,0:0:0:0:
256,192,123074,5,2,0:0:0:0:
256,192,123146,5,0,0:0:0:0:
256,192,123219,1,0,0:0:0:0:
256,192,123291,1,0,0:0:0:0:
256,192,123435,5,2,0:0:0:0:
256,192,123579,1,2,0:0:0:0:
256,192,123651,1,2,0:0:0:0:
256,192,123723,5,0,0:0:0:0:
256,192,123867,1,0,0:0:0:0:
256,192,124011,5,2,0:0:0:0:
256,192,124156,5,0,0:0:0:0:
256,192,124228,1,0,0:0:0:0:
256,192,124300,1,0,0:0:0:0:
256,192,124444,1,0,0:0:0:0:
256,192,124588,5,2,0:0:0:0:
256,192,124732,5,0,0:0:0:0:
256,192,124804,1,0,0:0:0:0:
256,192,124876,5,2,0:0:0:0:
256,192,125021,5,0,0:0:0:0:
256,192,125165,5,2,0:0:0:0:
256,192,125237,1,2,0:0:0:0:
256,192,125309,5,0,0:0:0:0:
256,192,125381,1,0,0:0:0:0:
256,192,125453,5,2,0:0:0:0:
256,192,125525,1,2,0:0:0:0:
256,192,125597,5,0,0:0:0:0:
256,192,125741,5,2,0:0:0:0:
256,192,125886,5,0,0:0:0:0:
256,192,125958,1,0,0:0:0:0:
256,192,126030,1,0,0:0:0:0:
256,192,126174,1,0,0:0:0:0:
256,192,126318,5,2,0:0:0:0:
256,192,126462,5,0,0:0:0:0:
256,192,126534,1,0,0:0:0:0:
256,192,126606,1,0,0:0:0:0:
256,192,126750,1,0,0:0:0:0:
256,192,126895,5,2,0:0:0:0:
256,192,127183,5,0,0:0:0:0:
256,192,127327,1,0,0:0:0:0:
256,192,127471,5,2,0:0:0:0:
256,192,127615,5,0,0:0:0:0:
256,192,127688,1,0,0:0:0:0:
256,192,127760,5,2,0:0:0:0:
256,192,127904,1,2,0:0:0:0:
256,192,127976,1,2,0:0:0:0:
256,192,128048,1,2,0:0:0:0:
256,192,128336,5,0,0:0:0:0:
256,192,128480,1,0,0:0:0:0:
256,192,128625,5,2,0:0:0:0:
256,192,128913,5,0,0:0:0:0:
256,192,129057,1,0,0:0:0:0:
256,192,129201,5,2,0:0:0:0:
256,192,129490,5,0,0:0:0:0:
256,192,129562,1,0,0:0:0:0:
256,192,129634,1,0,0:0:0:0:
256,192,129778,5,2,0:0:0:0:
256,192,129850,1,2,0:0:0:0:
256,192,129922,1,2,0:0:0:0:
256,192,130066,5,0,0:0:0:0:
256,192,130138,1,0,0:0:0:0:
256,192,130210,1,0,0:0:0:0:
256,192,130355,5,2,0:0:0:0:
256,192,130427,1,2,0:0:0:0:
256,192,130499,1,2,0:0:0:0:
256,192,130643,5,0,0:0:0:0:
256,192,130787,1,0,0:0:0:0:
256,192,130859,1,0,0:0:0:0:
256,192,130931,5,2,0:0:0:0:
256,192,131075,1,2,0:0:0:0:
256,192,131147,1,2,0:0:0:0:
256,192,131219,5,0,0:0:0:0:
256,192,131364,1,0,0:0:0:0:
256,192,131508,5,2,0:0:0:0:
256,192,131652,5,0,0:0:0:0:
256,192,131724,1,0,0:0:0:0:
256,192,131796,1,0,0:0:0:0:
256,192,131940,1,0,0:0:0:0:
256,192,132012,1,0,0:0:0:0:
256,192,132084,5,2,0:0:0:0:
256,192,132229,1,2,0:0:0:0:
256,192,132301,1,2,0:0:0:0:
256,192,132373,5,0,0:0:0:0:
256,192,132517,1,0,0:0:0:0:
256,192,132661,5,2,0:0:0:0:
256,192,132805,5,0,0:0:0:0:
256,192,132877,1,0,0:0:0:0:
256,192,132949,1,0,0:0:0:0:
256,192,133094,1,0,0:0:0:0:
256,192,133166,1,0,0:0:0:0:
256,192,133238,5,2,0:0:0:0:
256,192,133526,5,0,0:0:0:0:
256,192,133670,1,0,0:0:0:0:
256,192,133742,1,0,0:0:0:0:
256,192,133814,5,2,0:0:0:0:
256,192,134103,5,0,0:0:0:0:
256,192,134247,1,0,0:0:0:0:
256,192,134319,1,0,0:0:0:0:
256,192,134391,5,2,0:0:0:0:
256,192,134535,5,0,0:0:0:0:
256,192,134607,1,0,0:0:0:0:
256,192,134679,5,2,0:0:0:0:
256,192,134824,5,0,0:0:0:0:
256,192,134968,5,2,0:0:0:0:
256,192,135040,1,2,0:0:0:0:
256,192,135112,1,2,0:0:0:0:
256,192,135184,1,2,0:0:0:0:
256,192,135256,5,0,0:0:0:0:
256,192,135400,1,0,0:0:0:0:
256,192,135472,1,0,0:0:0:0:
256,192,135544,5,2,0:0:0:0:
256,192,135688,5,0,0:0:0:0:
256,192,135761,1,0,0:0:0:0:
256,192,135833,1,0,0:0:0:0:
256,192,135905,5,2,0:0:0:0:
256,192,135977,5,0,0:0:0:0:
256,192,136049,1,0,0:0:0:0:
256,192,136121,5,2,0:0:0:0:
256,192,136265,5,0,0:0:0:0:
256,192,136337,1,0,0:0:0:0:
256,192,136409,1,0,0:0:0:0:
256,192,136553,1,0,0:0:0:0:
256,192,136626,1,0,0:0:0:0:
256,192,136698,5,2,0:0:0:0:
256,192,136842,1,2,0:0:0:0:
256,192,136914,1,2,0:0:0:0:
256,192,136986,5,0,0:0:0:0:
256,192,137058,5,2,0:0:0:0:
256,192,137130,5,0,0:0:0:0:
256,192,137202,1,0,0:0:0:0:
256,192,137274,5,2,0:0:0:0:
256,192,137418,1,2,0:0:0:0:
256,192,137491,1,2,0:0:0:0:
256,192,137563,5,0,0:0:0:0:
256,192,137707,1,0,0:0:0:0:
256,192,137779,1,0,0:0:0:0:
256,192,137851,5,2,0:0:0:0:
256,192,138139,5,0,0:0:0:0:
256,192,138283,1,0,0:0:0:0:
256,192,138355,1,0,0:0:0:0:
256,192,138428,5,2,0:0:0:0:
256,192,138716,5,0,0:0:0:0:
256,192,138788,1,0,0:0:0:0:
256,192,138860,1,0,0:0:0:0:
256,192,138932,1,0,0:0:0:0:
256,192,139004,5,2,0:0:0:0:
256,192,139148,5,0,0:0:0:0:
256,192,139293,5,2,0:0:0:0:
256,192,139437,5,0,0:0:0:0:
256,192,139581,5,2,0:0:0:0:
256,192,139653,1,2,0:0:0:0:
256,192,139725,1,2,0:0:0:0:
256,192,139797,1,2,0:0:0:0:
256,192,139869,5,0,0:0:0:0:
256,192,140013,1,0,0:0:0:0:
256,192,140157,5,2,0:0:0:0:
256,192,140302,5,0,0:0:0:0:
256,192,140374,1,0,0:0:0:0:
256,192,140446,1,0,0:0:0:0:
256,192,140518,5,2,0:0:0:0:
256,192,140590,5,0,0:0:0:0:
256,192,140734,5,2,0:0:0:0:
256,192,141022,5,0,0:0:0:0:
256,192,141167,1,0,0:0:0:0:
256,192,141311,5,2,0:0:0:0:
256,192,141455,5,0,0:0:0:0:
256,192,141527,5,2,0:0:0:0:
256,192,141599,5,0,0:0:0:0:
256,192,141671,1,0,0:0:0:0:
256,192,141743,1,0,0:0:0:0:
256,192,141887,5,2,0:0:0:0:
256,192,142176,5,0,0:0:0:0:
256,192,142248,1,0,0:0:0:0:
256,192,142320,1,0,0:0:0:0:
256,192,142464,5,2,0:0:0:0:
256,192,142608,5,0,0:0:0:0:
256,192,142680,1,0,0:0:0:0:
256,192,142752,1,0,0:0:0:0:
256,192,142897,1,0,0:0:0:0:
256,192,143041,5,2,0:0:0:0:
256,192,143329,5,0,0:0:0:0:
256,192,143401,1,0,0:0:0:0:
256,192,143473,1,0,0:0:0:0:
256,192,143617,5,2,0:0:0:0:
256,192,143762,5,0,0:0:0:0:
256,192,143834,1,0,0:0:0:0:
256,192,143906,5,2,0:0:0:0:
256,192,144050,5,0,0:0:0:0:
256,192,144194,5,2,0:0:0:0:
256,192,144338,1,2,0:0:0:0:
256,192,144482,5,0,0:0:0:0:
256,192,144771,1,0,0:0:0:0:
256,192,144915,1,0,0:0:0:0:
256,192,145059,5,2,0:0:0:0:
256,192,145203,1,2,0:0:0:0:
256,192,145347,1,2,0:0:0:0:
256,192,145636,5,0,0:0:0:0:
256,192,145924,5,2,0:0:0:0:
256,192,146068,5,0,0:0:0:0:
256,192,146212,5,2,0:0:0:0:
256,192,146356,1,2,0:0:0:0:
256,192,146501,5,0,0:0:0:0:
256,192,146645,5,2,0:0:0:0:
256,192,146789,5,0,0:0:0:0:
256,192,147077,1,0,0:0:0:0:
256,192,147221,1,0,0:0:0:0:
256,192,147366,5,2,0:0:0:0:
256,192,147510,1,2,0:0:0:0:
256,192,147654,1,2,0:0:0:0:
256,192,147942,5,0,0:0:0:0:
256,192,148086,1,0,0:0:0:0:
256,192,148231,5,2,0:0:0:0:
256,192,148375,5,0,0:0:0:0:
256,192,148447,1,0,0:0:0:0:
256,192,148519,1,0,0:0:0:0:
256,192,148663,1,0,0:0:0:0:
256,192,148735,1,0,0:0:0:0:
256,192,148807,5,2,0:0:0:0:
256,192,148951,1,2,0:0:0:0:
256,192,149023,1,2,0:0:0:0:
256,192,149096,5,0,0:0:0:0:
256,192,149384,12,0,150249,0:0:0:0:
