osu file format v12

[General]
AudioFilename: DJ Sharpnel - Ivaltek2.mp3
AudioLeadIn: 0
PreviewTime: 75212
Countdown: 0
SampleSet: Normal
StackLeniency: 0.7
Mode: 0
LetterboxInBreaks: 1
EpilepsyWarning: 1

[Editor]
Bookmarks: 143040
DistanceSpacing: 1
BeatDivisor: 4
GridSize: 8

[Metadata]
Title:IVALTEK
TitleUnicode:IVALTEK
Artist:DJ Sharpnel
ArtistUnicode:DJ Sharpnel
Creator:happy30
Version:Normal
Source:Final Fantasy XII
Tags:j-core happy hardcore kiss me goodbye gladiool gladi pheon
BeatmapID:177863
BeatmapSetID:50429

[Difficulty]
HPDrainRate:4
CircleSize:4
OverallDifficulty:4
ApproachRate:5
SliderMultiplier:1.2
SliderTickRate:1

[Events]
//Background and Video events
0,0,"background ivaltek.jpg",0,0
//Break Periods
2,73178,74085
2,110084,110990
//Storyboard Layer 0 (Background)
//Storyboard Layer 1 (Fail)
//Storyboard Layer 2 (Pass)
//Storyboard Layer 3 (Foreground)
Sprite,Foreground,Centre,"SB\black.png",320,240 M,0,1,,320,240 F,0,1,606,0,1 F,0,606,19059,1 F,0,19059,19347,1,0.8816 F,0,38376,,1 F,0,75282,,0 F,0,150249,,1 F,0,153709,,1
Animation,Foreground,Centre,"SB\noise.jpg",320,240,3,70,LoopForever S,0,38380,,0.8016 F,0,38380,61445,0,0.666657 M,0,57553,,320,240 M,0,57553,,320,240 S,0,57553,72257,0.8207999,0.8016 M,0,57625,,303,264 S,0,57625,,0.8847999 M,0,57697,,320,240 S,0,57697,,0.8016 F,2,61445,75285,0.666657,0 M,0,62094,,320,240 S,0,62094,,0.8016 M,0,62166,,312,233 S,0,62166,,0.8207999 M,0,62238,,320,240 S,0,62238,,0.8016 M,0,66996,,320,240 S,0,66996,,0.8016 M,0,67068,,324,240 S,0,67068,,0.8207999 M,0,67140,,320,240 S,0,67140,,0.8016 M,0,72257,,320,240 M,0,72330,72402,318,234,320,240 S,0,72330,72402,0.8079998,0.8016
Sprite,Foreground,Centre,"SB\normal.jpg",320,240 S,0,38380,,0.8015999 F,0,38380,52219,0.4064001,0.5304 F,0,52219,56832,0.5304,0.4607999 M,0,55391,,320,240 S,0,55391,,0.8015999 M,0,55463,,299,226 S,0,55463,,0.8783998 M,0,55535,,320,240 S,0,55535,,0.8015999 F,0,56832,72978,0.4607999,0
Sprite,Foreground,Centre,"SB\black.png",320,240 F,0,78745,79285,0,0.6816 F,0,79321,,0 F,0,83358,83610,0,0.6112 F,0,83646,,0 F,0,86818,87070,0,0.6048001 F,0,87106,,0 F,0,91431,92548,0,0.912 F,0,92584,,0 F,0,97197,97450,0,0.72 F,0,97486,,0 F,0,101811,102351,0,0.5792 F,0,102387,,0 F,0,109884,112154,0,0.6847999 F,0,112190,,0 F,0,115650,116191,0,0.72 F,0,116227,,0 F,0,120263,120515,0,0.6432 F,0,120552,,0 F,0,123723,123975,0,0.5376 F,0,123975,,0.5376 F,0,124011,,0 F,0,124011,,0 F,0,128336,129454,0,0.9119999 F,0,129490,,0 F,0,134103,134355,0,0.7135999 F,0,134391,,0 F,0,138716,139256,0,0.6336 F,0,139293,,0
Animation,Foreground,Centre,"SB\noise.jpg",320,240,3,30,LoopForever F,0,79321,,1 S,0,79321,,0.8655999 F,0,79538,,0 F,0,79610,,1 F,0,79826,,0 F,0,83646,,1 F,0,83862,,0 F,0,83935,,1 F,0,84151,,0 F,0,87106,,1 F,0,87247,,0 F,0,87394,,1 F,0,87539,,0 F,0,87683,,1 F,0,87827,,0 F,0,92584,,1 F,0,92800,,0 F,0,92873,,1 F,0,93089,,0 F,0,93161,,1 F,0,93377,,0 F,0,93449,,1 F,0,93665,,0 F,0,97486,,1 F,0,97918,,0 F,0,102387,,1 F,0,102531,,0 F,0,116227,,1 F,0,116443,,0 F,0,116515,,1 F,0,116731,,0 F,0,120552,,1 F,0,120768,,0 F,0,120840,,1 F,0,121056,,0 F,0,124011,,1 F,0,124156,,0 F,0,124300,,1 F,0,124444,,0 F,0,124588,,1 F,0,124732,,0 F,0,129490,,1 F,0,129706,,0 F,0,129778,,1 F,0,129994,,0 F,0,130066,,1 F,0,130282,,0 F,0,130355,,1 F,0,130571,,0 F,0,134391,,1 F,0,134824,,0 F,0,139293,,1 F,0,139437,,0
Sprite,Foreground,Centre,"SB\white.png",320,240 F,0,38380,41839,1,0 F,0,75285,76438,1,0
Sprite,Foreground,Centre,"SB\white.png",320,240 F,0,79321,,1 S,0,79321,,1 F,0,79357,,0 F,0,79393,,1 F,0,79429,,0 F,0,79466,,1 F,0,79502,,0 F,0,79610,,1 F,0,79646,,0 F,0,79646,,0 F,0,79682,,1 F,0,79718,,0 F,0,79754,,1 F,0,79790,,0 F,0,83646,,1 F,0,83682,,0 F,0,83718,,1 F,0,83754,,0 F,0,83790,,1 F,0,83826,,0 F,0,83935,,1 F,0,83971,,0 F,0,84007,,1 F,0,84043,,0 F,0,84079,,1 F,0,84115,,0 F,0,87106,,1 F,0,87142,,0 F,0,87178,,1 F,0,87214,,0 F,0,87394,,1 F,0,87430,,0 F,0,87466,,1 F,0,87503,,0 F,0,87683,,1 F,0,87719,,0 F,0,87755,,1 F,0,87791,,0 F,0,92584,,1 F,0,92620,,0 F,0,92656,,1 F,0,92692,,0 F,0,92728,,1 F,0,92764,,0 F,0,92873,,1 F,0,92909,,0 F,0,92945,,1 F,0,92981,,0 F,0,93017,,1 F,0,93053,,0 F,0,93161,,1 F,0,93197,,0 F,0,93233,,1 F,0,93269,,0 F,0,93305,,1 F,0,93341,,0 F,0,93449,,1 F,0,93485,,0 F,0,93521,,1 F,0,93557,,0 F,0,93593,,1 F,0,93629,,0 F,0,97486,,1 F,0,97522,,0 F,0,97558,,1 F,0,97594,,0 F,0,97630,,1 F,0,97666,,0 F,0,97702,,1 F,0,97738,,0 F,0,97774,,1 F,0,97810,,0 F,0,97846,,1 F,0,97882,,0 F,0,102387,,1 F,0,102423,,0 F,0,102459,,1 F,0,102495,,0 F,0,112190,113343,1,0 F,0,116227,,1 F,0,116263,,0 F,0,116299,,1 F,0,116335,,0 F,0,116371,,1 F,0,116407,,0 F,0,116515,,1 F,0,116551,,0 F,0,116587,,1 F,0,116623,,0 F,0,116659,,1 F,0,116695,,0 F,0,120552,,1 F,0,120588,,0 F,0,120624,,1 F,0,120660,,0 F,0,120696,,1 F,0,120732,,0 F,0,120840,,1 F,0,120876,,0 F,0,120912,,1 F,0,120948,,0 F,0,120984,,1 F,0,121020,,0 F,0,124011,,1 F,0,124047,,0 F,0,124083,,1 F,0,124120,,0 F,0,124300,,1 F,0,124336,,0 F,0,124372,,1 F,0,124408,,0 F,0,124588,,1 F,0,124624,,0 F,0,124660,,1 F,0,124696,,0 F,0,129490,,1 F,0,129526,,0 F,0,129562,,1 F,0,129598,,0 F,0,129634,,1 F,0,129670,,0 F,0,129778,,1 F,0,129814,,0 F,0,129850,,1 F,0,129886,,0 F,0,129922,,1 F,0,129958,,0 F,0,130066,,1 F,0,130102,,0 F,0,130138,,1 F,0,130174,,0 F,0,130210,,1 F,0,130246,,0 F,0,130355,,1 F,0,130391,,0 F,0,130427,,1 F,0,130463,,0 F,0,130499,,1 F,0,130535,,0 F,0,134391,,1 F,0,134427,,0 F,0,134463,,1 F,0,134499,,0 F,0,134535,,1 F,0,134571,,0 F,0,134607,,1 F,0,134643,,0 F,0,134679,,1 F,0,134715,,0 F,0,134751,,1 F,0,134787,,0 F,0,139293,,1 F,0,139329,,0 F,0,139365,,1 F,0,139401,,0 F,0,149096,150249,0,1 F,0,150249,151402,1,0
//Storyboard Sound Samples
//Background Colour Transformations
3,100,163,162,255

[TimingPoints]
895,288.322921672273,4,1,1,60,1,0
9833,-125,4,2,1,60,0,0
18194,-125,4,1,1,60,0,0
35493,-125,4,2,1,60,0,0
38380,288.322921672273,4,2,1,60,1,0
38380,-200,4,2,1,60,0,0
75285,-125,4,1,1,60,0,1
79898,-125,4,1,1,60,0,1
84223,-125,4,1,1,60,0,1
93738,-125,4,1,1,60,0,1
109884,-125,4,1,1,60,0,0
112190,-125,4,1,1,60,0,1
116803,-125,4,1,1,60,0,1
121128,-125,4,1,1,60,0,1
130643,-125,4,1,1,60,0,1
150249,-100,4,1,1,60,0,0

[Colours]
Combo1 : 255,255,0
Combo2 : 255,0,0
Combo3 : 0,0,160
Combo4 : 255,255,255

[HitObjects]
16,280,10121,2,0,B|120:288|192:368,3,192,4|0|0|0,0:0|0:0|0:0|0:0,0:0:0:0:
256,296,12139,1,2,0:0:0:0:
326,360,12427,6,0,B|392:288|496:280,3,192
304,272,14734,6,0,B|256:336|152:288|192:192,1,192
280,184,15599,1,0,0:0:0:0:
368,152,15887,2,0,B|401:75|297:27|249:91,2,192
472,312,17617,1,0,0:0:0:0:
280,304,18194,5,0,0:0:0:0:
192,344,18482,1,0,0:0:0:0:
104,376,18771,1,0,0:0:0:0:
24,200,19347,6,0,B|104:176|104:176|144:208|120:304,1,192,4|0,0:0|0:0,0:0:0:0:
80,88,20500,1,0,0:0:0:0:
176,88,20789,1,0,0:0:0:0:
248,152,21077,1,0,0:0:0:0:
248,152,21654,6,0,B|232:224|232:224|256:280|256:280|240:352,1,192,4|0,0:0|0:0,0:0:0:0:
392,216,22807,1,0,0:0:0:0:
480,176,23095,1,0,0:0:0:0:
400,120,23384,1,0,0:0:0:0:
392,312,23960,6,0,B|312:336|312:336|272:304|296:208,1,192,4|0,0:0|0:0,0:0:0:0:
168,88,25114,2,0,B|248:64|248:64|288:96|264:192,1,192
200,344,26267,6,0,B|120:368|120:368|80:336|104:240,1,192,4|0,0:0|0:0,0:0:0:0:
288,280,27420,2,0,B|384:288|384:288|464:368,1,192
504,168,28574,5,4,0:0:0:0:
312,184,29150,1,0,0:0:0:0:
296,88,29438,1,0,0:0:0:0:
344,8,29727,1,0,0:0:0:0:
464,160,30303,1,0,0:0:0:0:
304,272,30880,5,4,0:0:0:0:
192,120,31457,1,0,0:0:0:0:
104,160,31745,1,0,0:0:0:0:
112,64,32033,1,0,0:0:0:0:
216,232,32610,1,0,0:0:0:0:
40,312,33187,6,0,B|120:368|120:368|216:352,1,192,4|0,0:0|0:0,0:0:0:0:
400,304,34340,2,0,B|320:248|320:248|224:264,1,192
256,192,35493,12,2,37728,0:0:0:0:
136,256,38380,6,0,B|216:280|296:240|376:256,1,240,4|2,0:0|0:0,0:0:0:0:
408,144,40109,1,0,0:0:0:0:
296,96,40686,2,0,B|192:80|144:184|224:256,1,240,0|2,0:0|0:0,0:0:0:0:
296,344,42416,1,0,0:0:0:0:
352,224,42993,6,0,B|456:240|504:136|424:64,1,240,0|2,0:0|0:0,0:0:0:0:
328,88,44723,1,0,0:0:0:0:
256,184,45299,2,0,B|296:360,1,180
360,312,46453,2,0,B|400:272|472:256,1,120,2|0,0:0|0:0,0:0:0:0:
352,208,47606,6,0,B|288:288|184:256,1,180
136,312,48759,2,0,B|72:320|24:368,1,120,2|0,0:0|0:0,0:0:0:0:
64,232,49912,2,0,B|104:56,1,180
176,32,51066,5,2,0:0:0:0:
344,256,52219,2,0,B|256:312|176:256,1,180
232,200,53372,2,0,B|320:144|352:40,1,180,2|0,0:0|0:0,0:0:0:0:
416,32,54526,5,0,0:0:0:0:
456,144,55102,1,0,0:0:0:0:
384,240,55679,1,2,0:0:0:0:
344,128,56256,1,0,0:0:0:0:
240,192,56832,6,0,B|280:368,1,180,0|0,0:0|0:0,0:0:0:0:
344,328,57985,1,2,0:0:0:0:
168,264,58562,1,0,0:0:0:0:
56,360,59139,2,0,B|24:248|112:176,1,180
168,144,60292,2,0,B|232:152|296:120,1,120,2|0,0:0|0:0,0:0:0:0:
368,208,61445,6,0,B|456:240|512:328,1,180
464,384,62599,1,2,0:0:0:0:
328,288,63175,1,0,0:0:0:0:
464,184,63752,2,0,B|488:120|496:48,1,120
304,96,64905,2,0,B|280:160|272:232,1,120,2|0,0:0|0:0,0:0:0:0:
160,336,66059,6,0,B|152:256|80:176,1,180
40,248,67212,1,2,0:0:0:0:
200,184,67788,1,0,0:0:0:0:
288,328,68365,2,0,B|368:376|472:336,1,180
432,264,69518,1,2,0:0:0:0:
256,192,70672,12,0,72978,0:0:0:0:
176,304,75285,6,0,B|88:344|88:344|24:328,2,144,4|0|2,0:0|0:0|0:0,0:0:0:0:
264,344,76438,2,0,B|416:272,1,144,0|2,0:0|0:0,0:0:0:0:
440,144,77303,1,2,0:0:0:0:
352,184,77591,5,0,0:0:0:0:
264,224,77880,2,0,B|224:136,1,96
136,168,78456,2,0,B|96:80,1,96
24,144,79033,1,0,0:0:0:0:
72,224,79321,2,0,B|56:248,2,24
128,304,79610,1,0,0:0:0:0:
224,264,79898,6,0,B|312:224|312:224|376:240,2,144,4|2|2,0:0|0:0|0:0,0:0:0:0:
176,176,81051,2,0,B|328:104,1,144,0|2,0:0|0:0,0:0:0:0:
448,152,81916,1,2,0:0:0:0:
352,192,82204,5,0,0:0:0:0:
264,232,82493,2,0,B|224:320,1,96
136,280,83069,2,0,B|96:368,1,96
24,304,83646,2,0,B|16:264,2,24
64,216,83935,2,0,B|56:176,2,24
224,320,84511,6,0,B|269:308|269:308|357:348,2,144,4|2|2,0:0|0:0|0:0,0:0:0:0:
264,232,85664,2,0,B|336:80,1,144,0|2,0:0|0:0,0:0:0:0:
472,88,86529,1,2,0:0:0:0:
432,176,86817,5,0,0:0:0:0:
480,264,87106,1,0,0:0:0:0:
384,264,87394,1,0,0:0:0:0:
440,344,87683,1,0,0:0:0:0:
344,360,87971,2,0,B|272:320|200:344,1,144,4|2,0:0|0:0,0:0:0:0:
64,304,88836,1,2,0:0:0:0:
120,224,89124,6,0,B|112:136|80:64,1,144,4|2,0:0|0:0,0:0:0:0:
200,32,89989,1,2,0:0:0:0:
240,120,90278,2,0,B|216:171|208:259,1,144,0|2,0:0|0:0,0:0:0:0:
304,368,91142,1,2,0:0:0:0:
384,312,91430,1,4,0:0:0:0:
416,224,91719,2,0,B|384:128,1,96
280,280,92584,6,0,B|272:312,2,24
184,280,92873,2,0,B|176:312,2,24
112,216,93161,2,0,B|104:248,2,24
16,208,93450,2,0,B|8:240,2,24
40,120,93738,6,0,B|64:48|64:48|184:56,1,192,4|2,0:0|0:0,0:0:0:0:
200,152,94602,2,0,B|232:312,1,144,2|2,0:0|0:0,0:0:0:0:
352,368,95467,1,2,0:0:0:0:
440,320,95756,2,0,B|496:216|416:144,1,192,2|0,0:0|0:0,0:0:0:0:
320,152,96621,5,0,0:0:0:0:
280,240,96909,1,0,0:0:0:0:
336,312,97197,1,0,0:0:0:0:
264,376,97486,2,0,B|224:384,6,24
48,368,98351,6,0,B|72:296|72:296|184:256,1,192,4|2,0:0|0:0,0:0:0:0:
272,224,99215,2,0,B|304:64,1,144,2|2,0:0|0:0,0:0:0:0:
160,40,100080,1,2,0:0:0:0:
72,80,100369,2,0,B|16:184|96:256,1,192
184,296,101234,5,0,0:0:0:0:
288,288,101522,1,0,0:0:0:0:
376,240,101810,1,0,0:0:0:0:
408,152,102099,1,0,0:0:0:0:
368,64,102387,2,0,B|408:48,2,24
288,16,102676,1,0,0:0:0:0:
200,56,102964,6,0,B|144:152|200:248,1,192,4|2,0:0|0:0,0:0:0:0:
256,312,103829,1,2,0:0:0:0:
168,344,104117,2,0,B|96:368|8:352,2,144,0|2|2,0:0|0:0|0:0,0:0:0:0:
256,312,105270,6,0,B|328:288|416:304,2,144,0|2|2,0:0|0:0|0:0,0:0:0:0:
216,224,106424,1,0,0:0:0:0:
352,176,106856,1,2,0:0:0:0:
488,232,107289,1,2,0:0:0:0:
256,192,107577,12,4,109884,0:0:0:0:
336,304,112190,6,0,B|424:344|424:344|488:328,2,144,4|2|2,0:0|0:0|0:0,0:0:0:0:
248,344,113343,2,0,B|96:272,1,144,0|2,0:0|0:0,0:0:0:0:
72,144,114208,1,2,0:0:0:0:
160,184,114496,5,0,0:0:0:0:
248,224,114785,2,0,B|288:136,1,96
376,168,115361,2,0,B|416:80,1,96
488,144,115938,1,0,0:0:0:0:
440,224,116226,2,0,B|456:248,2,24
384,304,116515,1,0,0:0:0:0:
288,264,116803,6,0,B|200:224|200:224|136:240,2,144,4|2|2,0:0|0:0|0:0,0:0:0:0:
336,176,117956,2,0,B|184:104,1,144,0|2,0:0|0:0,0:0:0:0:
64,152,118821,1,2,0:0:0:0:
160,192,119109,5,0,0:0:0:0:
248,232,119398,2,0,B|288:320,1,96
376,280,119974,2,0,B|416:368,1,96
488,304,120551,2,0,B|496:264,2,24
448,216,120840,2,0,B|456:176,2,24
288,320,121416,6,0,B|242:308|242:308|154:348,2,144,4|2|2,0:0|0:0|0:0,0:0:0:0:
248,232,122569,2,0,B|176:80,1,144,0|2,0:0|0:0,0:0:0:0:
40,88,123434,1,2,0:0:0:0:
80,176,123722,5,0,0:0:0:0:
32,264,124011,1,0,0:0:0:0:
128,264,124299,1,0,0:0:0:0:
72,344,124588,1,0,0:0:0:0:
168,360,124876,2,0,B|240:320|312:344,1,144,4|2,0:0|0:0,0:0:0:0:
448,304,125741,1,2,0:0:0:0:
392,224,126029,6,0,B|400:136|432:64,1,144,0|2,0:0|0:0,0:0:0:0:
312,32,126894,1,2,0:0:0:0:
272,120,127183,2,0,B|295:171|303:259,1,144,0|2,0:0|0:0,0:0:0:0:
208,368,128047,1,2,0:0:0:0:
128,312,128335,1,4,0:0:0:0:
96,224,128624,2,0,B|128:128,1,96
232,280,129489,6,0,B|240:312,2,24
280,208,129778,2,0,B|288:176,2,24
360,256,130066,2,0,B|368:288,2,24
416,192,130355,2,0,B|424:160,2,24
480,272,130643,6,0,B|456:344|456:344|336:368,1,192,4|2,0:0|0:0,0:0:0:0:
264,312,131507,2,0,B|232:152,1,144,2|2,0:0|0:0,0:0:0:0:
168,40,132372,1,2,0:0:0:0:
80,80,132661,6,0,B|24:184|104:256,1,192
32,312,133526,1,0,0:0:0:0:
104,376,133814,1,0,0:0:0:0:
200,360,134102,1,0,0:0:0:0:
256,280,134391,2,0,B|296:288,6,24
368,192,135256,6,0,B|344:120|344:120|224:96,1,192,4|2,0:0|0:0,0:0:0:0:
152,152,136120,2,0,B|120:312,1,144,2|2,0:0|0:0,0:0:0:0:
248,368,136985,1,2,0:0:0:0:
336,336,137274,6,0,B|440:392|512:312,1,192
448,240,138139,1,0,0:0:0:0:
360,208,138427,1,0,0:0:0:0:
272,256,138715,1,0,0:0:0:0:
184,296,139004,1,0,0:0:0:0:
88,288,139292,2,0,B|72:312,2,24
24,216,139581,1,0,0:0:0:0:
72,128,139869,6,0,B|168:72|248:144,1,192,4|2,0:0|0:0,0:0:0:0:
256,240,140734,1,2,0:0:0:0:
328,304,141022,2,0,B|400:328|488:312,2,144,0|2|2,0:0|0:0|0:0,0:0:0:0:
248,360,142176,6,0,B|176:336|88:352,2,144,0|2|2,0:0|0:0|0:0,0:0:0:0:
328,304,143329,1,0,0:0:0:0:
200,240,143761,1,2,0:0:0:0:
56,272,144194,1,2,0:0:0:0:
16,184,144482,6,0,B|32:96|104:64,1,144,4|2,0:0|0:0,0:0:0:0:
216,144,145347,1,2,0:0:0:0:
296,200,145636,2,0,B|312:264|320:344,2,144,0|2|2,0:0|0:0|0:0,0:0:0:0:
256,192,146789,12,4,150249,0:0:0:0:
