osu file format v12

[General]
AudioFilename: DJ Sharpnel - Ivaltek2.mp3
AudioLeadIn: 0
PreviewTime: 75212
Countdown: 0
SampleSet: Normal
StackLeniency: 0.7
Mode: 1
LetterboxInBreaks: 1

[Editor]
DistanceSpacing: 1.2
BeatDivisor: 4
GridSize: 8

[Metadata]
Title:IVALTEK
TitleUnicode:IVALTEK
Artist:DJ Sharpnel
ArtistUnicode:DJ Sharpnel
Creator:happy30
Version:Muzukashii
Source:Final Fantasy XII
Tags:j-core happy hardcore kiss me goodbye gladiool gladi pheon
BeatmapID:222766
BeatmapSetID:50429

[Difficulty]
HPDrainRate:5
CircleSize:5
OverallDifficulty:5
ApproachRate:5
SliderMultiplier:1.4
SliderTickRate:1

[Events]
//Background and Video events
0,0,"background ivaltek.jpg",0,135
//Break Periods
//Storyboard Layer 0 (Background)
//Storyboard Layer 1 (Fail)
//Storyboard Layer 2 (Pass)
//Storyboard Layer 3 (Foreground)
//Storyboard Sound Samples
//Background Colour Transformations
3,100,163,162,255

[TimingPoints]
895,288.322921672273,4,1,0,60,1,0
9833,-100,4,1,0,45,0,0
18194,-100,4,1,0,60,0,0
37728,-100,4,1,0,45,0,0
38380,288.322921672273,4,1,0,60,1,0
38380,-100,4,1,0,45,0,0
75285,-100,4,1,0,60,0,1
109884,-100,4,1,0,60,0,0
112190,-100,4,1,0,60,0,1
150249,-100,4,1,0,60,0,0

[Colours]
Combo1 : 0,0,160
Combo2 : 255,0,0

[HitObjects]
256,192,10121,5,4,0:0:0:0:
256,192,10697,1,8,0:0:0:0:
256,192,11274,1,0,0:0:0:0:
256,192,11562,1,0,0:0:0:0:
256,192,11851,1,8,0:0:0:0:
256,192,12427,1,0,0:0:0:0:
256,192,13004,1,8,0:0:0:0:
256,192,13581,1,0,0:0:0:0:
256,192,13869,1,0,0:0:0:0:
256,192,14157,1,8,0:0:0:0:
256,192,14734,1,0,0:0:0:0:
256,192,15311,1,8,0:0:0:0:
256,192,15455,1,0,0:0:0:0:
256,192,15887,1,0,0:0:0:0:
256,192,16464,1,8,0:0:0:0:
256,192,16608,1,0,0:0:0:0:
256,192,17041,1,0,0:0:0:0:
256,192,17617,1,8,0:0:0:0:
256,192,17761,1,0,0:0:0:0:
256,192,18194,1,0,0:0:0:0:
256,192,18482,1,0,0:0:0:0:
256,192,18626,1,0,0:0:0:0:
256,192,18771,1,8,0:0:0:0:
256,192,19059,1,8,0:0:0:0:
256,192,19203,1,8,0:0:0:0:
256,192,19347,1,4,0:0:0:0:
256,192,19635,1,0,0:0:0:0:
256,192,19780,1,0,0:0:0:0:
256,192,19924,1,8,0:0:0:0:
256,192,20212,1,8,0:0:0:0:
256,192,20356,1,8,0:0:0:0:
256,192,20500,1,0,0:0:0:0:
256,192,20789,1,0,0:0:0:0:
256,192,21077,1,8,0:0:0:0:
256,192,21365,1,0,0:0:0:0:
256,192,21510,1,8,0:0:0:0:
256,192,21654,1,0,0:0:0:0:
256,192,21942,1,0,0:0:0:0:
256,192,22086,1,0,0:0:0:0:
256,192,22230,1,8,0:0:0:0:
256,192,22519,1,8,0:0:0:0:
256,192,22663,1,8,0:0:0:0:
256,192,22807,1,0,0:0:0:0:
256,192,23095,1,0,0:0:0:0:
256,192,23240,1,0,0:0:0:0:
256,192,23384,1,8,0:0:0:0:
256,192,23672,1,8,0:0:0:0:
256,192,23816,1,0,0:0:0:0:
256,192,23960,1,0,0:0:0:0:
256,192,24249,1,0,0:0:0:0:
256,192,24393,1,0,0:0:0:0:
256,192,24537,1,8,0:0:0:0:
256,192,24825,1,8,0:0:0:0:
256,192,25114,1,0,0:0:0:0:
256,192,25402,1,0,0:0:0:0:
256,192,25546,1,0,0:0:0:0:
256,192,25690,1,8,0:0:0:0:
256,192,25834,1,0,0:0:0:0:
256,192,26123,1,0,0:0:0:0:
256,192,26267,1,0,0:0:0:0:
256,192,26411,1,8,0:0:0:0:
256,192,26699,1,0,0:0:0:0:
256,192,26844,1,0,0:0:0:0:
256,192,26988,1,8,0:0:0:0:
256,192,27276,1,8,0:0:0:0:
256,192,27420,1,0,0:0:0:0:
256,192,27564,1,0,0:0:0:0:
256,192,27709,1,8,0:0:0:0:
256,192,27997,1,0,0:0:0:0:
256,192,28141,1,8,0:0:0:0:
256,192,28429,1,8,0:0:0:0:
256,192,28574,1,4,0:0:0:0:
256,192,28862,1,8,0:0:0:0:
256,192,29150,1,0,0:0:0:0:
256,192,29294,1,8,0:0:0:0:
256,192,29583,1,0,0:0:0:0:
256,192,29727,1,0,0:0:0:0:
256,192,29871,1,8,0:0:0:0:
256,192,30015,1,0,0:0:0:0:
256,192,30303,1,0,0:0:0:0:
256,192,30448,1,8,0:0:0:0:
256,192,30736,1,0,0:0:0:0:
256,192,30880,1,0,0:0:0:0:
256,192,31168,1,8,0:0:0:0:
256,192,31457,1,0,0:0:0:0:
256,192,31601,1,8,0:0:0:0:
256,192,31889,1,8,0:0:0:0:
256,192,32033,1,0,0:0:0:0:
256,192,32178,1,0,0:0:0:0:
256,192,32322,1,0,0:0:0:0:
256,192,32610,1,0,0:0:0:0:
256,192,32754,1,8,0:0:0:0:
256,192,33043,1,8,0:0:0:0:
256,192,33187,1,0,0:0:0:0:
256,192,33331,1,8,0:0:0:0:
256,192,33475,1,0,0:0:0:0:
256,192,33763,1,0,0:0:0:0:
256,192,33907,1,8,0:0:0:0:
256,192,34196,1,8,0:0:0:0:
256,192,34340,1,0,0:0:0:0:
256,192,34484,1,8,0:0:0:0:
256,192,34628,1,0,0:0:0:0:
256,192,34917,1,0,0:0:0:0:
256,192,35061,1,8,0:0:0:0:
256,192,35493,12,0,37728,0:0:0:0:
256,192,38376,1,4,0:0:0:0:
256,192,39244,1,0,0:0:0:0:
256,192,39533,1,8,0:0:0:0:
256,192,40109,1,8,0:0:0:0:
256,192,40686,1,0,0:0:0:0:
256,192,41551,1,0,0:0:0:0:
256,192,41839,1,8,0:0:0:0:
256,192,42416,1,8,0:0:0:0:
256,192,42704,1,0,0:0:0:0:
256,192,42993,1,0,0:0:0:0:
256,192,43858,1,0,0:0:0:0:
256,192,44146,1,8,0:0:0:0:
256,192,44723,1,8,0:0:0:0:
256,192,45299,1,0,0:0:0:0:
256,192,46164,1,0,0:0:0:0:
256,192,46453,1,8,0:0:0:0:
256,192,46885,1,8,0:0:0:0:
256,192,47029,1,8,0:0:0:0:
256,192,47318,1,8,0:0:0:0:
256,192,47606,1,0,0:0:0:0:
256,192,48471,1,0,0:0:0:0:
256,192,48759,1,8,0:0:0:0:
256,192,49336,1,8,0:0:0:0:
256,192,49912,1,0,0:0:0:0:
256,192,50777,1,0,0:0:0:0:
256,192,51066,1,8,0:0:0:0:
256,192,51498,1,8,0:0:0:0:
256,192,51931,1,8,0:0:0:0:
256,192,52219,1,0,0:0:0:0:
256,192,53084,1,0,0:0:0:0:
256,192,53372,1,8,0:0:0:0:
256,192,53949,1,8,0:0:0:0:
256,192,54526,1,0,0:0:0:0:
256,192,54958,1,8,0:0:0:0:
256,192,55102,1,0,0:0:0:0:
256,192,55391,1,0,0:0:0:0:
256,192,55679,1,8,0:0:0:0:
256,192,56111,1,0,0:0:0:0:
256,192,56256,1,8,0:0:0:0:
256,192,56544,1,0,0:0:0:0:
256,192,56832,1,4,0:0:0:0:
256,192,57697,1,0,0:0:0:0:
256,192,57985,1,8,0:0:0:0:
256,192,58562,1,8,0:0:0:0:
256,192,59139,1,0,0:0:0:0:
256,192,60004,1,0,0:0:0:0:
256,192,60292,1,8,0:0:0:0:
256,192,60869,1,8,0:0:0:0:
256,192,61157,1,0,0:0:0:0:
256,192,61445,1,0,0:0:0:0:
256,192,62310,1,0,0:0:0:0:
256,192,62599,1,8,0:0:0:0:
256,192,63175,1,8,0:0:0:0:
256,192,63752,1,0,0:0:0:0:
256,192,64617,1,0,0:0:0:0:
256,192,64905,1,8,0:0:0:0:
256,192,65338,1,8,0:0:0:0:
256,192,65482,1,0,0:0:0:0:
256,192,65770,1,8,0:0:0:0:
256,192,66059,1,0,0:0:0:0:
256,192,66923,1,0,0:0:0:0:
256,192,67212,1,8,0:0:0:0:
256,192,67788,1,0,0:0:0:0:
256,192,68077,1,8,0:0:0:0:
256,192,68365,1,0,0:0:0:0:
256,192,69230,1,0,0:0:0:0:
256,192,69518,1,8,0:0:0:0:
256,192,70672,1,0,0:0:0:0:
256,192,71537,1,0,0:0:0:0:
256,192,71825,1,8,0:0:0:0:
256,192,72257,1,8,0:0:0:0:
256,192,72402,1,0,0:0:0:0:
256,192,72978,1,0,0:0:0:0:
256,192,74708,1,8,0:0:0:0:
256,192,75285,1,4,0:0:0:0:
256,192,75573,1,8,0:0:0:0:
256,192,75861,1,0,0:0:0:0:
256,192,76150,1,8,0:0:0:0:
256,192,76438,1,0,0:0:0:0:
256,192,76582,1,0,0:0:0:0:
256,192,76726,1,8,0:0:0:0:
256,192,77015,1,0,0:0:0:0:
256,192,77303,1,8,0:0:0:0:
256,192,77447,1,0,0:0:0:0:
256,192,77591,1,0,0:0:0:0:
256,192,77880,1,8,0:0:0:0:
256,192,78168,1,0,0:0:0:0:
256,192,78312,1,0,0:0:0:0:
256,192,78456,1,8,0:0:0:0:
256,192,78745,1,8,0:0:0:0:
256,192,78889,1,8,0:0:0:0:
256,192,79033,1,0,0:0:0:0:
256,192,79321,1,0,0:0:0:0:
256,192,79393,1,0,0:0:0:0:
256,192,79466,1,0,0:0:0:0:
256,192,79610,1,0,0:0:0:0:
256,192,79898,1,0,0:0:0:0:
256,192,80186,1,8,0:0:0:0:
256,192,80475,1,0,0:0:0:0:
256,192,80619,1,0,0:0:0:0:
256,192,80763,1,8,0:0:0:0:
256,192,81051,1,0,0:0:0:0:
256,192,81340,1,8,0:0:0:0:
256,192,81484,1,0,0:0:0:0:
256,192,81772,1,0,0:0:0:0:
256,192,81916,1,8,0:0:0:0:
256,192,82205,1,0,0:0:0:0:
256,192,82493,1,8,0:0:0:0:
256,192,82781,1,0,0:0:0:0:
256,192,82925,1,0,0:0:0:0:
256,192,83070,1,8,0:0:0:0:
256,192,83358,1,8,0:0:0:0:
256,192,83502,1,8,0:0:0:0:
256,192,83646,1,8,0:0:0:0:
256,192,83935,1,0,0:0:0:0:
256,192,84007,1,0,0:0:0:0:
256,192,84079,1,0,0:0:0:0:
256,192,84223,1,0,0:0:0:0:
256,192,84511,1,0,0:0:0:0:
256,192,84655,1,0,0:0:0:0:
256,192,84799,1,8,0:0:0:0:
256,192,84944,1,0,0:0:0:0:
256,192,85232,1,0,0:0:0:0:
256,192,85376,1,8,0:0:0:0:
256,192,85664,1,0,0:0:0:0:
256,192,85953,1,8,0:0:0:0:
256,192,86097,1,0,0:0:0:0:
256,192,86241,1,0,0:0:0:0:
256,192,86529,1,8,0:0:0:0:
256,192,86674,1,8,0:0:0:0:
256,192,86818,1,0,0:0:0:0:
256,192,87106,1,12,0:0:0:0:
256,192,87394,1,12,0:0:0:0:
256,192,87683,1,12,0:0:0:0:
256,192,87971,1,4,0:0:0:0:
256,192,88259,1,8,0:0:0:0:
256,192,88404,1,0,0:0:0:0:
256,192,88548,1,0,0:0:0:0:
256,192,88620,1,0,0:0:0:0:
256,192,88692,1,0,0:0:0:0:
256,192,88836,1,0,0:0:0:0:
256,192,89124,1,0,0:0:0:0:
256,192,89268,1,0,0:0:0:0:
256,192,89413,1,8,0:0:0:0:
256,192,89557,1,0,0:0:0:0:
256,192,89701,1,0,0:0:0:0:
256,192,89845,1,0,0:0:0:0:
256,192,89989,1,8,0:0:0:0:
256,192,90278,1,0,0:0:0:0:
256,192,90566,1,8,0:0:0:0:
256,192,90854,1,8,0:0:0:0:
256,192,91287,1,0,0:0:0:0:
256,192,91431,1,8,0:0:0:0:
256,192,91575,1,8,0:0:0:0:
256,192,91719,1,8,0:0:0:0:
256,192,92008,1,8,0:0:0:0:
256,192,92440,1,0,0:0:0:0:
256,192,92584,1,12,0:0:0:0:
256,192,92873,1,12,0:0:0:0:
256,192,93161,1,12,0:0:0:0:
256,192,93449,1,4,0:0:0:0:
256,192,93738,1,0,0:0:0:0:
256,192,94026,1,8,0:0:0:0:
256,192,94170,1,0,0:0:0:0:
256,192,94314,1,0,0:0:0:0:
256,192,94603,1,8,0:0:0:0:
256,192,94891,1,0,0:0:0:0:
256,192,95035,1,0,0:0:0:0:
256,192,95179,1,8,0:0:0:0:
256,192,95468,1,0,0:0:0:0:
256,192,95756,1,8,0:0:0:0:
256,192,95900,1,0,0:0:0:0:
256,192,96044,1,0,0:0:0:0:
256,192,96333,1,8,0:0:0:0:
256,192,96621,1,0,0:0:0:0:
256,192,96765,1,8,0:0:0:0:
256,192,96909,1,0,0:0:0:0:
256,192,97198,1,8,0:0:0:0:
256,192,97342,1,8,0:0:0:0:
256,192,97486,2,8,L|480:192,1,210
256,192,98351,1,0,0:0:0:0:
256,192,98639,1,8,0:0:0:0:
256,192,98928,1,0,0:0:0:0:
256,192,99072,1,0,0:0:0:0:
256,192,99216,1,8,0:0:0:0:
256,192,99504,1,0,0:0:0:0:
256,192,99793,1,8,0:0:0:0:
256,192,99937,1,0,0:0:0:0:
256,192,100225,1,0,0:0:0:0:
256,192,100369,1,8,0:0:0:0:
256,192,100658,1,0,0:0:0:0:
256,192,100946,1,8,0:0:0:0:
256,192,101234,1,0,0:0:0:0:
256,192,101378,1,0,0:0:0:0:
256,192,101523,1,8,0:0:0:0:
256,192,101811,1,8,0:0:0:0:
256,192,101955,1,0,0:0:0:0:
256,192,102099,1,8,0:0:0:0:
256,192,102388,1,8,0:0:0:0:
256,192,102460,1,8,0:0:0:0:
256,192,102532,1,8,0:0:0:0:
256,192,102676,1,8,0:0:0:0:
256,192,102964,1,4,0:0:0:0:
256,192,103108,1,0,0:0:0:0:
256,192,103252,1,8,0:0:0:0:
256,192,103397,1,0,0:0:0:0:
256,192,103685,1,0,0:0:0:0:
256,192,103829,1,8,0:0:0:0:
256,192,104117,1,0,0:0:0:0:
256,192,104406,1,8,0:0:0:0:
256,192,104550,1,0,0:0:0:0:
256,192,104838,1,0,0:0:0:0:
256,192,104982,1,8,0:0:0:0:
256,192,105127,1,8,0:0:0:0:
256,192,105271,1,0,0:0:0:0:
256,192,105415,1,0,0:0:0:0:
256,192,105559,1,8,0:0:0:0:
256,192,105703,1,0,0:0:0:0:
256,192,105847,1,8,0:0:0:0:
256,192,105991,1,0,0:0:0:0:
256,192,106136,1,8,0:0:0:0:
256,192,106424,1,0,0:0:0:0:
256,192,106712,1,0,0:0:0:0:
256,192,106857,1,8,0:0:0:0:
256,192,107001,1,0,0:0:0:0:
256,192,107073,1,0,0:0:0:0:
256,192,107145,1,0,0:0:0:0:
256,192,107289,1,0,0:0:0:0:
256,192,107577,1,0,0:0:0:0:
256,192,107721,1,0,0:0:0:0:
256,192,107866,1,8,0:0:0:0:
256,192,108010,1,0,0:0:0:0:
256,192,108154,1,8,0:0:0:0:
256,192,108298,1,0,0:0:0:0:
256,192,108442,1,8,0:0:0:0:
256,192,108731,1,0,0:0:0:0:
256,192,109019,1,8,0:0:0:0:
256,192,109163,1,0,0:0:0:0:
256,192,109307,1,8,0:0:0:0:
256,192,109451,1,0,0:0:0:0:
256,192,109595,1,8,0:0:0:0:
256,192,109884,1,8,0:0:0:0:
256,192,110028,1,0,0:0:0:0:
256,192,110172,1,0,0:0:0:0:
256,192,110316,1,8,0:0:0:0:
256,192,110461,1,0,0:0:0:0:
256,192,110749,1,8,0:0:0:0:
256,192,110893,1,0,0:0:0:0:
256,192,111037,1,8,0:0:0:0:
256,192,111181,1,0,0:0:0:0:
256,192,111325,1,0,0:0:0:0:
256,192,111469,1,8,0:0:0:0:
256,192,111614,1,0,0:0:0:0:
256,192,111902,1,8,0:0:0:0:
256,192,112046,1,0,0:0:0:0:
256,192,112190,1,4,0:0:0:0:
256,192,112478,1,8,0:0:0:0:
256,192,112766,1,0,0:0:0:0:
256,192,113055,1,8,0:0:0:0:
256,192,113343,1,0,0:0:0:0:
256,192,113487,1,0,0:0:0:0:
256,192,113631,1,8,0:0:0:0:
256,192,113920,1,0,0:0:0:0:
256,192,114208,1,8,0:0:0:0:
256,192,114352,1,0,0:0:0:0:
256,192,114496,1,0,0:0:0:0:
256,192,114785,1,8,0:0:0:0:
256,192,115073,1,0,0:0:0:0:
256,192,115217,1,0,0:0:0:0:
256,192,115361,1,8,0:0:0:0:
256,192,115650,1,8,0:0:0:0:
256,192,115794,1,8,0:0:0:0:
256,192,115938,1,0,0:0:0:0:
256,192,116226,1,0,0:0:0:0:
256,192,116298,1,0,0:0:0:0:
256,192,116371,1,0,0:0:0:0:
256,192,116515,1,0,0:0:0:0:
256,192,116659,1,8,0:0:0:0:
256,192,116803,1,0,0:0:0:0:
256,192,117091,1,8,0:0:0:0:
256,192,117380,1,0,0:0:0:0:
256,192,117524,1,0,0:0:0:0:
256,192,117668,1,8,0:0:0:0:
256,192,117956,1,0,0:0:0:0:
256,192,118245,1,8,0:0:0:0:
256,192,118389,1,0,0:0:0:0:
256,192,118677,1,0,0:0:0:0:
256,192,118821,1,8,0:0:0:0:
256,192,119110,1,0,0:0:0:0:
256,192,119398,1,8,0:0:0:0:
256,192,119686,1,0,0:0:0:0:
256,192,119830,1,0,0:0:0:0:
256,192,119975,1,8,0:0:0:0:
256,192,120263,1,8,0:0:0:0:
256,192,120407,1,8,0:0:0:0:
256,192,120551,1,8,0:0:0:0:
256,192,120840,1,0,0:0:0:0:
256,192,120912,1,0,0:0:0:0:
256,192,120984,1,0,0:0:0:0:
256,192,121128,1,0,0:0:0:0:
256,192,121272,1,8,0:0:0:0:
256,192,121416,1,0,0:0:0:0:
256,192,121560,1,0,0:0:0:0:
256,192,121704,1,8,0:0:0:0:
256,192,121849,1,0,0:0:0:0:
256,192,122137,1,0,0:0:0:0:
256,192,122281,1,8,0:0:0:0:
256,192,122569,1,0,0:0:0:0:
256,192,122858,1,8,0:0:0:0:
256,192,123002,1,0,0:0:0:0:
256,192,123146,1,0,0:0:0:0:
256,192,123434,1,8,0:0:0:0:
256,192,123579,1,8,0:0:0:0:
256,192,123723,1,0,0:0:0:0:
256,192,124011,1,12,0:0:0:0:
256,192,124299,1,12,0:0:0:0:
256,192,124588,1,12,0:0:0:0:
256,192,124876,1,4,0:0:0:0:
256,192,125164,1,8,0:0:0:0:
256,192,125309,1,0,0:0:0:0:
256,192,125453,1,0,0:0:0:0:
256,192,125525,1,0,0:0:0:0:
256,192,125597,1,0,0:0:0:0:
256,192,125741,1,0,0:0:0:0:
256,192,125886,1,8,0:0:0:0:
256,192,126029,1,0,0:0:0:0:
256,192,126173,1,0,0:0:0:0:
256,192,126318,1,8,0:0:0:0:
256,192,126462,1,0,0:0:0:0:
256,192,126606,1,0,0:0:0:0:
256,192,126750,1,0,0:0:0:0:
256,192,126894,1,8,0:0:0:0:
256,192,127183,1,0,0:0:0:0:
256,192,127471,1,8,0:0:0:0:
256,192,127759,1,8,0:0:0:0:
256,192,128192,1,0,0:0:0:0:
256,192,128336,1,8,0:0:0:0:
256,192,128480,1,8,0:0:0:0:
256,192,128624,1,8,0:0:0:0:
256,192,128913,1,8,0:0:0:0:
256,192,129345,1,0,0:0:0:0:
256,192,129489,1,12,0:0:0:0:
256,192,129778,1,12,0:0:0:0:
256,192,130066,1,12,0:0:0:0:
256,192,130354,1,4,0:0:0:0:
256,192,130643,1,0,0:0:0:0:
256,192,130931,1,8,0:0:0:0:
256,192,131075,1,0,0:0:0:0:
256,192,131219,1,0,0:0:0:0:
256,192,131508,1,8,0:0:0:0:
256,192,131796,1,0,0:0:0:0:
256,192,131940,1,0,0:0:0:0:
256,192,132084,1,8,0:0:0:0:
256,192,132373,1,0,0:0:0:0:
256,192,132661,1,8,0:0:0:0:
256,192,132805,1,0,0:0:0:0:
256,192,132949,1,0,0:0:0:0:
256,192,133238,1,8,0:0:0:0:
256,192,133526,1,0,0:0:0:0:
256,192,133670,1,8,0:0:0:0:
256,192,133814,1,0,0:0:0:0:
256,192,134103,1,8,0:0:0:0:
256,192,134247,1,8,0:0:0:0:
256,192,134391,2,8,L|480:192,1,210
256,192,135256,1,0,0:0:0:0:
256,192,135544,1,8,0:0:0:0:
256,192,135833,1,0,0:0:0:0:
256,192,135977,1,0,0:0:0:0:
256,192,136121,1,8,0:0:0:0:
256,192,136409,1,0,0:0:0:0:
256,192,136698,1,8,0:0:0:0:
256,192,136842,1,0,0:0:0:0:
256,192,137130,1,0,0:0:0:0:
256,192,137274,1,8,0:0:0:0:
256,192,137563,1,0,0:0:0:0:
256,192,137851,1,8,0:0:0:0:
256,192,138139,1,0,0:0:0:0:
256,192,138283,1,0,0:0:0:0:
256,192,138428,1,8,0:0:0:0:
256,192,138716,1,8,0:0:0:0:
256,192,138860,1,0,0:0:0:0:
256,192,139004,1,8,0:0:0:0:
256,192,139293,1,8,0:0:0:0:
256,192,139365,1,8,0:0:0:0:
256,192,139437,1,8,0:0:0:0:
256,192,139581,1,8,0:0:0:0:
256,192,139725,1,0,0:0:0:0:
256,192,139869,1,4,0:0:0:0:
256,192,140013,1,0,0:0:0:0:
256,192,140157,1,8,0:0:0:0:
256,192,140302,1,0,0:0:0:0:
256,192,140590,1,0,0:0:0:0:
256,192,140734,1,8,0:0:0:0:
256,192,141022,1,0,0:0:0:0:
256,192,141311,1,8,0:0:0:0:
256,192,141455,1,0,0:0:0:0:
256,192,141599,1,0,0:0:0:0:
256,192,141887,1,8,0:0:0:0:
256,192,142032,1,8,0:0:0:0:
256,192,142176,1,0,0:0:0:0:
256,192,142320,1,0,0:0:0:0:
256,192,142464,1,8,0:0:0:0:
256,192,142608,1,0,0:0:0:0:
256,192,142752,1,8,0:0:0:0:
256,192,142896,1,0,0:0:0:0:
256,192,143041,1,8,0:0:0:0:
256,192,143329,1,0,0:0:0:0:
256,192,143617,1,0,0:0:0:0:
256,192,143762,1,8,0:0:0:0:
256,192,143906,1,0,0:0:0:0:
256,192,143978,1,0,0:0:0:0:
256,192,144050,1,0,0:0:0:0:
256,192,144194,1,0,0:0:0:0:
256,192,144338,1,8,0:0:0:0:
256,192,144482,1,0,0:0:0:0:
256,192,144626,1,0,0:0:0:0:
256,192,144771,1,8,0:0:0:0:
256,192,144915,1,0,0:0:0:0:
256,192,145059,1,8,0:0:0:0:
256,192,145203,1,0,0:0:0:0:
256,192,145347,1,8,0:0:0:0:
256,192,145636,1,0,0:0:0:0:
256,192,145924,1,8,0:0:0:0:
256,192,146068,1,0,0:0:0:0:
256,192,146212,1,8,0:0:0:0:
256,192,146356,1,0,0:0:0:0:
256,192,146500,1,8,0:0:0:0:
256,192,146789,1,8,0:0:0:0:
256,192,146933,1,0,0:0:0:0:
256,192,147077,1,0,0:0:0:0:
256,192,147221,1,8,0:0:0:0:
256,192,147366,1,0,0:0:0:0:
256,192,147654,1,8,0:0:0:0:
256,192,147798,1,0,0:0:0:0:
256,192,147942,1,8,0:0:0:0:
256,192,148086,1,0,0:0:0:0:
256,192,148230,1,0,0:0:0:0:
256,192,148374,1,8,0:0:0:0:
256,192,148519,1,0,0:0:0:0:
256,192,148807,1,8,0:0:0:0:
256,192,148951,1,0,0:0:0:0:
256,192,149384,12,0,150249,0:0:0:0:
