osu file format v12

[General]
AudioFilename: DJ Sharpnel - Ivaltek2.mp3
AudioLeadIn: 0
PreviewTime: 75212
Countdown: 0
SampleSet: Normal
StackLeniency: 0.7
Mode: 0
LetterboxInBreaks: 1
EpilepsyWarning: 1

[Editor]
Bookmarks: 143040
DistanceSpacing: 1.3
BeatDivisor: 4
GridSize: 8

[Metadata]
Title:IVALTEK
TitleUnicode:IVALTEK
Artist:DJ Sharpnel
ArtistUnicode:DJ Sharpnel
Creator:happy30
Version:Easy
Source:Final Fantasy XII
Tags:j-core happy hardcore kiss me goodbye gladiool gladi pheon
BeatmapID:178027
BeatmapSetID:50429

[Difficulty]
HPDrainRate:2
CircleSize:3
OverallDifficulty:2
ApproachRate:3
SliderMultiplier:0.8
SliderTickRate:1

[Events]
//Background and Video events
0,0,"background ivaltek.jpg",0,0
//Break Periods
//Storyboard Layer 0 (Background)
//Storyboard Layer 1 (Fail)
//Storyboard Layer 2 (Pass)
//Storyboard Layer 3 (Foreground)
Sprite,Foreground,Centre,"SB\black.png",320,240 M,0,1,,320,240 F,0,1,606,0,1 F,0,606,19059,1 F,0,19059,19347,1,0.8816 F,0,38376,,1 F,0,75282,,0 F,0,150249,,1 F,0,153709,,1
Animation,Foreground,Centre,"SB\noise.jpg",320,240,3,70,LoopForever S,0,38380,,0.8016 F,0,38380,61445,0,0.666657 M,0,57553,,320,240 M,0,57553,,320,240 S,0,57553,72257,0.8207999,0.8016 M,0,57625,,303,264 S,0,57625,,0.8847999 M,0,57697,,320,240 S,0,57697,,0.8016 F,2,61445,75285,0.666657,0 M,0,62094,,320,240 S,0,62094,,0.8016 M,0,62166,,312,233 S,0,62166,,0.8207999 M,0,62238,,320,240 S,0,62238,,0.8016 M,0,66996,,320,240 S,0,66996,,0.8016 M,0,67068,,324,240 S,0,67068,,0.8207999 M,0,67140,,320,240 S,0,67140,,0.8016 M,0,72257,,320,240 M,0,72330,72402,318,234,320,240 S,0,72330,72402,0.8079998,0.8016
Sprite,Foreground,Centre,"SB\normal.jpg",320,240 S,0,38380,,0.8015999 F,0,38380,52219,0.4064001,0.5304 F,0,52219,56832,0.5304,0.4607999 M,0,55391,,320,240 S,0,55391,,0.8015999 M,0,55463,,299,226 S,0,55463,,0.8783998 M,0,55535,,320,240 S,0,55535,,0.8015999 F,0,56832,72978,0.4607999,0
Sprite,Foreground,Centre,"SB\white.png",320,240 F,0,38380,41839,1,0 F,0,75285,76438,1,0
Animation,Foreground,Centre,"SB\noise.jpg",320,240,3,30,LoopForever F,0,79321,,1 S,0,79321,,0.8655999 F,0,79538,,0 F,0,79610,,1 F,0,79826,,0 F,0,83646,,1 F,0,83862,,0 F,0,83935,,1 F,0,84151,,0 F,0,87106,,1 F,0,87247,,0 F,0,87394,,1 F,0,87539,,0 F,0,87683,,1 F,0,87827,,0 F,0,92584,,1 F,0,92800,,0 F,0,92873,,1 F,0,93089,,0 F,0,93161,,1 F,0,93377,,0 F,0,93449,,1 F,0,93665,,0 F,0,97486,,1 F,0,97918,,0 F,0,102387,,1 F,0,102531,,0 F,0,116227,,1 F,0,116443,,0 F,0,116515,,1 F,0,116731,,0 F,0,120552,,1 F,0,120768,,0 F,0,120840,,1 F,0,121056,,0 F,0,124011,,1 F,0,124156,,0 F,0,124300,,1 F,0,124444,,0 F,0,124588,,1 F,0,124732,,0 F,0,129490,,1 F,0,129706,,0 F,0,129778,,1 F,0,129994,,0 F,0,130066,,1 F,0,130282,,0 F,0,130355,,1 F,0,130571,,0 F,0,134391,,1 F,0,134824,,0 F,0,139293,,1 F,0,139437,,0
Sprite,Foreground,Centre,"SB\white.png",320,240 F,0,79321,,1 S,0,79321,,1 F,0,79357,,0 F,0,79393,,1 F,0,79429,,0 F,0,79466,,1 F,0,79502,,0 F,0,79610,,1 F,0,79646,,0 F,0,79646,,0 F,0,79682,,1 F,0,79718,,0 F,0,79754,,1 F,0,79790,,0 F,0,83646,,1 F,0,83682,,0 F,0,83718,,1 F,0,83754,,0 F,0,83790,,1 F,0,83826,,0 F,0,83935,,1 F,0,83971,,0 F,0,84007,,1 F,0,84043,,0 F,0,84079,,1 F,0,84115,,0 F,0,87106,,1 F,0,87142,,0 F,0,87178,,1 F,0,87214,,0 F,0,87394,,1 F,0,87430,,0 F,0,87466,,1 F,0,87503,,0 F,0,87683,,1 F,0,87719,,0 F,0,87755,,1 F,0,87791,,0 F,0,92584,,1 F,0,92620,,0 F,0,92656,,1 F,0,92692,,0 F,0,92728,,1 F,0,92764,,0 F,0,92873,,1 F,0,92909,,0 F,0,92945,,1 F,0,92981,,0 F,0,93017,,1 F,0,93053,,0 F,0,93161,,1 F,0,93197,,0 F,0,93233,,1 F,0,93269,,0 F,0,93305,,1 F,0,93341,,0 F,0,93449,,1 F,0,93485,,0 F,0,93521,,1 F,0,93557,,0 F,0,93593,,1 F,0,93629,,0 F,0,97486,,1 F,0,97522,,0 F,0,97558,,1 F,0,97594,,0 F,0,97630,,1 F,0,97666,,0 F,0,97702,,1 F,0,97738,,0 F,0,97774,,1 F,0,97810,,0 F,0,97846,,1 F,0,97882,,0 F,0,102387,,1 F,0,102423,,0 F,0,102459,,1 F,0,102495,,0 F,0,112190,113343,1,0 F,0,116227,,1 F,0,116263,,0 F,0,116299,,1 F,0,116335,,0 F,0,116371,,1 F,0,116407,,0 F,0,116515,,1 F,0,116551,,0 F,0,116587,,1 F,0,116623,,0 F,0,116659,,1 F,0,116695,,0 F,0,120552,,1 F,0,120588,,0 F,0,120624,,1 F,0,120660,,0 F,0,120696,,1 F,0,120732,,0 F,0,120840,,1 F,0,120876,,0 F,0,120912,,1 F,0,120948,,0 F,0,120984,,1 F,0,121020,,0 F,0,124011,,1 F,0,124047,,0 F,0,124083,,1 F,0,124120,,0 F,0,124300,,1 F,0,124336,,0 F,0,124372,,1 F,0,124408,,0 F,0,124588,,1 F,0,124624,,0 F,0,124660,,1 F,0,124696,,0 F,0,129490,,1 F,0,129526,,0 F,0,129562,,1 F,0,129598,,0 F,0,129634,,1 F,0,129670,,0 F,0,129778,,1 F,0,129814,,0 F,0,129850,,1 F,0,129886,,0 F,0,129922,,1 F,0,129958,,0 F,0,130066,,1 F,0,130102,,0 F,0,130138,,1 F,0,130174,,0 F,0,130210,,1 F,0,130246,,0 F,0,130355,,1 F,0,130391,,0 F,0,130427,,1 F,0,130463,,0 F,0,130499,,1 F,0,130535,,0 F,0,134391,,1 F,0,134427,,0 F,0,134463,,1 F,0,134499,,0 F,0,134535,,1 F,0,134571,,0 F,0,134607,,1 F,0,134643,,0 F,0,134679,,1 F,0,134715,,0 F,0,134751,,1 F,0,134787,,0 F,0,139293,,1 F,0,139329,,0 F,0,139365,,1 F,0,139401,,0 F,0,149096,150249,0,1 F,0,150249,151402,1,0
Sprite,Foreground,Centre,"SB\black.png",320,240 F,0,78745,79285,0,0.6816 F,0,79321,,0 F,0,83358,83610,0,0.6112 F,0,83646,,0 F,0,86818,87070,0,0.6048001 F,0,87106,,0 F,0,91431,92548,0,0.912 F,0,92584,,0 F,0,97197,97450,0,0.72 F,0,97486,,0 F,0,101811,102351,0,0.5792 F,0,102387,,0 F,0,109884,112154,0,0.6847999 F,0,112190,,0 F,0,115650,116191,0,0.72 F,0,116227,,0 F,0,120263,120515,0,0.6432 F,0,120552,,0 F,0,123723,123975,0,0.5376 F,0,123975,,0.5376 F,0,124011,,0 F,0,124011,,0 F,0,128336,129454,0,0.9119999 F,0,129490,,0 F,0,134103,134355,0,0.7135999 F,0,134391,,0 F,0,138716,139256,0,0.6336 F,0,139293,,0
//Storyboard Sound Samples
//Background Colour Transformations
3,100,163,162,255

[TimingPoints]
895,288.322921672273,4,1,1,60,1,0
9833,-125,4,2,1,60,0,0
18194,-125,4,1,1,60,0,0
35493,-125,4,2,1,60,0,0
38380,288.322921672273,4,2,1,60,1,0
38380,-200,4,2,1,60,0,0
75285,-125,4,1,1,60,0,1
79898,-125,4,1,1,60,0,1
84223,-125,4,1,1,60,0,1
93738,-125,4,1,1,60,0,1
109884,-125,4,1,1,60,0,0
112190,-125,4,1,1,60,0,1
116803,-125,4,1,1,60,0,1
121128,-125,4,1,1,60,0,1
130643,-125,4,1,1,60,0,1
150249,-100,4,1,1,60,0,0

[Colours]
Combo1 : 255,255,0
Combo2 : 255,0,0
Combo3 : 0,0,160
Combo4 : 255,255,255

[HitObjects]
80,192,10121,2,0,P|120:264|256:208,1,256,4|2,0:0|0:0,0:0:0:0:
336,112,11851,1,0,0:0:0:0:
440,184,12427,2,0,B|392:232|376:296,1,128
264,360,13581,2,0,B|192:360|144:320,1,128,2|0,0:0|0:0,0:0:0:0:
56,224,14734,6,0,P|96:152|232:208,1,256,0|2,0:0|0:0,0:0:0:0:
352,256,16464,1,0,0:0:0:0:
432,160,17040,2,0,B|384:112|368:48,1,128
240,24,18194,5,0,0:0:0:0:
152,112,18771,1,0,0:0:0:0:
232,216,19347,2,0,B|224:344,1,128,4|0,0:0|0:0,0:0:0:0:
344,288,20500,2,0,B|352:160,1,128
360,32,21654,1,0,0:0:0:0:
464,104,22230,1,0,0:0:0:0:
416,224,22807,2,0,B|336:224|304:280,1,128
216,368,23960,5,0,0:0:0:0:
120,296,24537,2,0,B|64:256|0:248,2,128
240,248,26267,2,0,B|312:128,2,128
144,168,27997,1,0,0:0:0:0:
176,40,28574,6,0,B|240:0|304:40,1,128,4|0,0:0|0:0,0:0:0:0:
368,144,29727,2,0,B|304:104|240:144,1,128
296,256,30880,2,0,B|272:384,1,128
400,352,32033,2,0,B|424:224,1,128
448,104,33187,5,0,0:0:0:0:
328,144,33763,1,0,0:0:0:0:
296,264,34340,1,0,0:0:0:0:
360,376,34917,1,0,0:0:0:0:
256,192,35493,12,2,37728,0:0:0:0:
120,320,38380,6,0,P|184:368|312:224,1,320,4|0,0:0|0:0,0:0:0:0:
152,112,41839,1,2,0:0:0:0:
152,112,42416,1,0,0:0:0:0:
152,112,42993,2,0,B|248:144|288:96|392:112,1,240
456,184,45299,2,0,P|472:264|344:304,1,240
264,256,47606,6,0,B|232:152|296:120|248:16,1,240
152,88,49912,1,0,0:0:0:0:
336,192,51066,1,2,0:0:0:0:
48,304,52219,2,0,P|112:352|232:200,1,320
136,168,55102,1,0,0:0:0:0:
168,72,55679,1,2,0:0:0:0:
264,104,56256,1,2,0:0:0:0:
240,200,56832,6,0,P|368:344|432:296,1,320
368,112,60291,1,2,0:0:0:0:
368,112,60869,1,0,0:0:0:0:
368,112,61445,2,0,B|272:144|232:96|128:112,1,240
80,192,63752,2,0,P|64:272|192:312,1,240
264,248,66058,6,0,B|368:280|400:216|504:264,1,240
448,344,68364,1,0,0:0:0:0:
360,176,69518,1,2,0:0:0:0:
224,312,70671,6,0,P|160:360|40:208,1,320
120,120,75285,6,0,B|56:256|56:256|104:280|136:328,1,256,4|2,0:0|0:0,0:0:0:0:
256,208,77015,1,0,0:0:0:0:
377,325,77591,2,0,B|408:280|456:256|456:256|392:120,1,256,0|2,0:0|0:0,0:0:0:0:
232,64,79321,1,2,0:0:0:0:
200,144,79610,1,2,0:0:0:0:
120,112,79898,6,4,P|64:168|128:312,1,256,4|2,0:0|0:0,0:0:0:0:
256,200,81628,1,0,0:0:0:0:
384,312,82205,2,0,P|447:169|391:113,1,256,0|2,0:0|0:0,0:0:0:0:
312,80,83646,1,2,0:0:0:0:
232,56,83935,1,2,0:0:0:0:
328,176,84511,6,0,B|464:224|536:208|472:312,1,256,4|2,0:0|0:0,0:0:0:0:
256,368,86241,1,0,0:0:0:0:
40,312,86818,2,0,B|-23:209|48:225|184:177,1,256,0|2,0:0|0:0,0:0:0:0:
304,152,88404,1,0,0:0:0:0:
264,272,88836,1,0,0:0:0:0:
312,344,89124,6,0,P|416:360|440:288,1,192,4|0,0:0|0:0,0:0:0:0:
384,232,90278,2,0,B|296:144|240:232|152:112,1,256,2|4,0:0|0:0,0:0:0:0:
32,232,92008,5,2,0:0:0:0:
160,336,92584,1,6,0:0:0:0:
176,256,92873,1,2,0:0:0:0:
232,200,93161,1,2,0:0:0:0:
248,120,93449,1,2,0:0:0:0:
312,64,93738,6,0,P|400:136|320:224,1,256,4|2,0:0|0:0,0:0:0:0:
232,360,95467,1,0,0:0:0:0:
96,264,96044,1,0,0:0:0:0:
40,200,96332,2,0,P|64:80|184:88,1,256,0|2,0:0|0:0,0:0:0:0:
328,288,98351,6,0,P|256:202|184:288,1,256,4|2,0:0|0:0,0:0:0:0:
328,376,100080,1,0,0:0:0:0:
464,280,100657,1,0,0:0:0:0:
464,192,100945,2,0,P|440:72|327:75,1,256
352,152,102387,1,2,0:0:0:0:
376,232,102676,1,2,0:0:0:0:
296,256,102964,6,0,P|224:200|64:144,1,256,4|2,0:0|0:0,0:0:0:0:
16,304,104694,1,0,0:0:0:0:
176,360,105270,2,0,B|264:280|184:208|280:128,1,256,0|2,0:0|0:0,0:0:0:0:
400,120,106856,1,0,0:0:0:0:
336,232,107289,1,0,0:0:0:0:
256,192,107577,12,4,109884,0:0:0:0:
392,264,112190,6,0,B|456:128|456:128|408:104|376:56,1,256,4|2,0:0|0:0,0:0:0:0:
256,176,113920,1,0,0:0:0:0:
134,58,114496,2,0,B|104:104|56:128|56:128|120:264,1,256,0|2,0:0|0:0,0:0:0:0:
272,336,116226,1,2,0:0:0:0:
304,256,116515,1,2,0:0:0:0:
384,288,116803,6,4,P|440:232|376:88,1,256,4|2,0:0|0:0,0:0:0:0:
256,200,118533,1,0,0:0:0:0:
134,88,119110,2,0,P|72:232|128:288,1,256,0|2,0:0|0:0,0:0:0:0:
208,312,120551,1,2,0:0:0:0:
288,336,120840,1,2,0:0:0:0:
184,208,121416,6,0,B|48:160|-24:176|40:72,1,256,4|2,0:0|0:0,0:0:0:0:
256,120,123146,1,0,0:0:0:0:
472,72,123723,2,0,B|535:174|463:158|327:206,1,256,0|2,0:0|0:0,0:0:0:0:
208,232,125309,1,0,0:0:0:0:
256,120,125741,1,0,0:0:0:0:
208,48,126030,6,0,P|104:32|80:104,1,192,4|0,0:0|0:0,0:0:0:0:
128,168,127183,2,0,B|216:256|272:168|360:288,1,256,2|4,0:0|0:0,0:0:0:0:
480,152,128913,5,2,0:0:0:0:
352,48,129489,1,6,0:0:0:0:
336,128,129778,1,2,0:0:0:0:
280,184,130066,1,2,0:0:0:0:
264,264,130354,1,2,0:0:0:0:
200,320,130643,6,0,P|80:272|104:160,1,256,4|2,0:0|0:0,0:0:0:0:
248,240,132372,1,0,0:0:0:0:
480,168,133237,2,0,P|456:48|336:56,1,256,0|2,0:0|0:0,0:0:0:0:
80,72,135256,6,0,P|152:160|240:80,1,256,4|2,0:0|0:0,0:0:0:0:
384,168,136985,1,0,0:0:0:0:
200,336,137851,2,0,P|86:338|62:218,1,256
104,144,139292,1,2,0:0:0:0:
184,136,139581,1,2,0:0:0:0:
224,208,139869,6,0,P|296:264|456:320,1,256,4|2,0:0|0:0,0:0:0:0:
504,160,141599,1,0,0:0:0:0:
376,48,142175,2,0,B|288:128|368:200|272:280,1,256,0|2,0:0|0:0,0:0:0:0:
152,264,143761,1,0,0:0:0:0:
192,144,144194,1,0,0:0:0:0:
112,120,144482,6,0,L|88:16,2,96,4|0|0,0:0|0:0|0:0,0:0:0:0:
32,152,145636,2,0,L|8:48,2,96,2|0|0,0:0|0:0|0:0,0:0:0:0:
256,192,146789,12,0,149096,2:0:0:0:
256,192,150249,5,4,0:0:0:0:
