osu file format v7

[General]
AudioFilename: Exciting Hyper Highspeed Star.mp3
AudioLeadIn: 3000
PreviewTime: 5035
Countdown: 0
SampleSet: Soft
StackLeniency: 0.7
Mode: 0
LetterboxInBreaks: 1

[Editor]
DistanceSpacing: 1
BeatDivisor: 4
GridSize: 8

[Metadata]
Title:Exciting Hyper Highspeed Star
Artist:DJ Sharpnel
Creator:xBubu
Version:Hard
Source:
Tags:h-boy eveless

[Difficulty]
HPDrainRate:0
CircleSize:3
OverallDifficulty:5
SliderMultiplier:1.4
SliderTickRate:1

[Events]
//Background and Video events
0,0,"anime3_1024_768.jpg"
//Break Periods
//Storyboard Layer 0 (Background)
//Storyboard Layer 1 (Fail)
//Storyboard Layer 2 (Pass)
//Storyboard Layer 3 (Foreground)
//Storyboard Sound Samples
//Background Colour Transformations
3,100,163,162,255

[TimingPoints]
295,333.055786844296,4,2,0,60,1,0
5540,-100,4,1,0,51,0,0
56248,-100,4,1,0,51,0,1
56914,-100,4,1,0,51,0,0
58912,-100,4,1,0,51,0,1
59578,-100,4,1,0,51,0,0
61577,-100,4,1,0,51,0,1
80228,-100,4,1,0,51,0,0
104125,-200,4,1,0,51,0,0
104707,-200,4,1,0,0,0,0

[Colours]
Combo1 : 185,185,255
Combo2 : 128,255,255

[HitObjects]
112,96,295,2,0,L|112:248,1,140,8|8
224,160,961,1,8
224,160,1294,1,8
352,96,1627,1,8
352,96,1793,1,0
352,96,1960,1,8
496,96,2293,2,0,L|496:256,1,140,8|8
368,176,2959,5,8
416,304,3292,1,0
304,224,3625,1,8
368,352,3958,1,0
256,272,4291,5,8
208,224,4458,1,8
160,272,4624,1,8
112,224,4791,1,8
64,272,4957,1,4
16,224,5124,5,0
16,224,5290,1,4
16,224,5457,1,4
48,160,5623,2,0,B|192:144|320:224,1,280,8|8
432,144,6623,1,8
352,32,6956,6,0,B|208:128|160:256,1,280,8|8
304,272,7955,1,8
432,224,8288,6,0,B|336:112|192:64,1,280,8|8
256,192,9287,1,8
112,192,9620,5,8
240,240,9953,1,8
368,288,10286,2,0,B|456:328,2,70,8|8|8
368,288,10952,6,0,B|496:224|432:32,1,280,8|8
336,128,11951,1,0
208,160,12285,5,0
336,224,12618,1,0
192,208,12951,1,0
320,272,13284,1,0
208,352,13617,6,0,B|240:272,1,70,8|0
264,224,13950,2,0,B|296:144,1,70,8|0
320,96,14283,2,0,B|352:16,2,70,8|0|8
272,64,14949,6,0,B|176:64,1,70,8|0
208,128,15282,2,0,B|112:128,1,70,8|0
144,192,15615,1,0
80,64,15948,1,8
16,192,16281,5,0
176,192,16614,2,0,B|304:96,1,140
400,192,17280,1,0
280,264,17613,6,0,B|432:304,3,140
336,192,18946,6,0,B|256:176,1,70,8|0
336,192,19279,2,0,B|304:112,1,70,8|0
336,192,19612,2,0,B|368:112,1,70,8|0
336,192,19945,2,0,B|416:176,1,70,8|0
480,160,20278,5,0
384,64,20611,2,0,B|320:32|224:32,1,140
128,96,21277,1,8
240,176,21610,6,0,B|176:128,2,70,8|0|8
344,272,22276,2,0,B|408:320,2,70,8|0|8
208,272,22942,6,0,B|128:272,2,70,8|0|8
88,200,23608,2,0,B|184:200,2,70,8|0|8
184,96,24275,6,0,B|264:96,2,70,8|0|8
304,168,24941,2,0,B|208:168,2,70
184,240,25607,5,0
312,240,25940,1,0
184,176,26273,2,0,B|232:96,1,70,8|0
272,120,26606,2,0,B|320:200,1,70,8|0
368,224,26939,6,0,B|448:112|336:32,1,210,8|0
280,32,27605,2,0,B|208:24,2,70,8|0|8
144,80,28271,2,0,B|144:0,2,70,8|0|8
144,144,28771,1,0
48,192,28937,2,0,B|128:240,1,70,8|0
176,224,29270,2,0,B|240:176,1,70,8|0
352,112,29770,6,0,B|448:112,4,70,0|8|0|8|0
288,112,30603,1,4
160,80,30936,6,2,B|80:128|64:208,1,140,2|2
208,192,31602,2,2,B|176:272|96:304,1,140
256,320,32268,6,0,B|352:320,2,70
384,256,32934,2,0,B|304:256,2,70
416,112,33600,6,0,B|400:192|304:224,1,140
176,240,34266,2,0,B|192:160|288:128,1,140
272,280,34932,2,0,B|344:280,1,70
336,136,35432,6,0,L|304:120|304:152|272:136|288:168|240:152|240:184|208:168|208:200,1,280
144,192,36265,1,8
144,192,36598,1,8
48,304,36931,5,0
112,272,37097,1,0
176,304,37264,1,0
240,272,37430,1,0
304,304,37597,5,8
368,272,37763,2,0,B|448:192|400:64,1,210,0|8
264,72,38596,2,0,B|296:160,1,70
152,184,39095,6,0,B|72:184,6,70,0|8|0|8|0|8|0
112,320,40428,6,0,B|184:256,1,70,0|8
232,272,40761,2,0,B|312:272,1,70,0|8
352,320,41094,2,0,B|416:272,1,70,0|8
416,208,41427,1,0
416,208,41593,6,2,B|400:128|320:80,1,140
208,96,42260,2,2,B|224:176|304:208,1,140
160,224,42926,6,0,B|96:256,2,70,8|0|0
304,224,43592,2,0,B|368:256,2,70,8|0|0
256,96,44258,6,0,B|176:96|112:160,1,140
256,208,44924,2,0,B|352:208|400:144,1,140
256,96,45590,2,0,B|256:176,1,70
240,304,46090,2,0,L|176:256|320:256|256:304,1,280
256,352,46922,1,0
128,288,47255,5,8
16,192,47588,1,8
128,96,47921,1,8
224,192,48255,1,0
336,96,48588,2,0,L|400:144,1,70,8|0
384,272,49087,2,0,L|320:320,2,70,0|8|0
256,96,49920,5,8
112,96,50253,1,8
112,240,50586,1,8
256,240,50919,1,0
184,120,51252,2,0,L|184:200,1,70,8|0
184,328,51752,2,0,L|184:248,2,70,0|8|0
336,192,52584,5,8
456,120,52917,1,8
456,264,53250,1,8
336,192,53583,1,0
192,192,53916,2,0,L|96:192,1,70,8|0
256,192,54416,2,0,L|336:192,2,70,0|8|0
256,16,55249,5,8
184,136,55582,1,8
328,136,55915,1,8
256,256,56248,5,4
256,256,56581,1,4
256,256,56914,1,4
96,112,57414,1,0
224,48,57747,1,0
288,80,57913,2,0,L|368:128,2,70,8|0|8
448,304,58912,5,4
448,304,59245,1,4
448,304,59578,2,0,L|352:304,1,70,12|0
304,304,59911,2,0,L|224:304,1,70,8|0
304,112,60578,2,0,L|224:112,2,70,0|8|0
192,192,61244,6,0,B|112:192,1,70
192,192,61577,2,2,B|272:160|352:208,1,140,6|2
448,272,62243,2,2,B|384:320|304:272,1,140
176,272,62909,6,0,B|248:272,6,70,8|0|8|0|8|0|8
80,168,64241,6,2,B|144:120|240:184,1,140
80,224,64907,2,2,B|160:272|224:208,1,140
336,192,65573,2,0,B|432:192,6,70,8|0|8|0|8|0|8
400,64,66906,6,2,B|312:32|248:112,1,140
336,208,67572,2,2,B|272:256|192:208,1,140
80,144,68238,6,0,B|160:144,1,70,8|0
176,80,68571,2,0,B|232:152,1,70,8|0
432,144,69237,5,8
432,144,69404,2,2,B|416:240|352:320|304:320|240:320|176:304|128:240|112:144,1,490,2|2
256,144,70902,2,0,B|352:144,2,70,4|0|4
464,144,71735,6,0,B|464:64,2,70,0|8|0
464,144,72235,2,2,B|464:224|336:224,1,140
304,96,72901,2,2,B|192:96|192:192,1,140
64,224,73567,2,0,B|-16:224,6,70,8|0|8|0|8|0|8
168,312,74899,6,2,B|264:280|280:200,1,140
376,128,75565,2,2,B|293:155|277:219,1,140
136,192,76231,2,0,B|56:192,6,70,8|0|8|0|8|0|8
176,56,77563,6,2,B|272:56|288:152,1,140
288,272,78230,2,2,B|192:272|176:176,1,140
336,192,78896,2,0,B|336:280,1,70,8|0
408,264,79229,2,0,B|408:184,1,70
200,192,79895,1,0
256,192,80228,12,0,81560
464,160,82393,6,0,B|488:240,2,70,0|8|0
464,160,82892,2,0,B|320:144|192:224,1,280,8|8
80,144,83892,1,8
160,32,84225,6,0,B|304:128|352:256,1,280,8|8
208,272,85224,1,8
80,224,85557,6,0,B|176:112|320:64,1,280,8|8
256,192,86556,1,8
400,192,86889,5,8
272,240,87222,1,8
144,288,87555,2,0,B|64:328,2,70,8|8|8
144,288,88221,6,0,B|16:224|80:32,1,280,8|8
176,128,89220,1,0
304,160,89554,5,0
176,224,89887,1,0
320,208,90220,1,0
192,272,90553,1,0
304,352,90886,6,0,B|272:272,1,70,8|0
248,224,91219,2,0,B|216:144,1,70,8|0
192,96,91552,2,0,B|160:16,2,70,8|0|8
240,64,92218,6,0,B|336:64,1,70,8|0
304,128,92551,2,0,B|400:128,1,70,8|0
368,192,92884,1,0
432,64,93217,1,8
496,192,93550,5,0
336,192,93883,2,0,B|208:96,1,140
112,192,94549,1,0
240,248,94882,6,0,B|88:320,3,140
176,192,96215,6,0,B|256:176,1,70,8|0
176,192,96548,2,0,B|208:112,1,70,8|0
176,192,96881,2,0,B|144:112,1,70,8|0
176,192,97214,2,0,B|96:176,1,70,8|0
32,160,97547,5,0
128,64,97880,2,0,B|192:32|288:32,1,140
384,96,98546,1,8
272,176,98879,6,0,B|336:128,2,70,8|0|8
160,264,99545,2,0,B|96:312,2,70,8|0|8
304,272,100211,6,0,B|384:272,2,70,8|0|8
424,200,100877,2,0,B|328:200,2,70,8|0|8
336,88,101543,6,0,B|256:88,2,70,8|0|8
144,160,102210,2,0,B|240:160,2,70,8|0|8
336,240,102876,5,0
200,240,103209,1,0
328,176,103542,2,0,B|280:96,1,70,8|0
240,120,103875,2,0,B|192:200,1,70,8|0
272,208,104208,2,0,B|272:352,1,140
