osu file format v14

[General]
AudioFilename: Exciting Hyper Highspeed Star.mp3
AudioLeadIn: 0
PreviewTime: -1
Countdown: 1
SampleSet: None
StackLeniency: 0.7
Mode: 3
LetterboxInBreaks: 1
SpecialStyle: 1
WidescreenStoryboard: 1

[Editor]
DistanceSpacing: 0.8
BeatDivisor: 4
GridSize: 16
TimelineZoom: 1

[Metadata]
Title:Exciting Hyper Highspeed Star
TitleUnicode:Exciting Hyper Highspeed Star
Artist:DJ Sharpnel
ArtistUnicode:DJ Sharpnel
Creator:Nyong-
Version:5k MX
Source:
Tags:Nyong, 5KEY, Mania, DJ Sharpnel
BeatmapID:686276
BeatmapSetID:304514

[Difficulty]
HPDrainRate:5
CircleSize:5
OverallDifficulty:5
ApproachRate:5
SliderMultiplier:1.4
SliderTickRate:1

[Events]
//Background and Video events
0,0,"ec9980ec9db4eb939c_ec9584eb8b8c_eab283_eb93a4_6_674wjdrnjs.jpg",0,0
//Break Periods
//Storyboard Layer 0 (Background)
//Storyboard Layer 1 (Fail)
//Storyboard Layer 2 (Pass)
//Storyboard Layer 3 (Foreground)
//Storyboard Sound Samples

[TimingPoints]
295,333.055786844296,4,3,0,5,1,0

[HitObjects]
51,192,295,5,0,0:0:0:0:
460,192,295,1,0,0:0:0:0:
153,192,628,1,0,0:0:0:0:
358,192,628,1,0,0:0:0:0:
460,192,961,1,0,0:0:0:0:
51,192,961,1,0,0:0:0:0:
358,192,1294,1,0,0:0:0:0:
153,192,1294,1,0,0:0:0:0:
51,192,1627,1,0,0:0:0:0:
460,192,1627,1,0,0:0:0:0:
153,192,1960,1,0,0:0:0:0:
358,192,1960,1,0,0:0:0:0:
256,192,2293,1,0,0:0:0:0:
153,192,2626,1,0,0:0:0:0:
358,192,2626,1,0,0:0:0:0:
51,192,2959,1,0,0:0:0:0:
256,192,2959,1,0,0:0:0:0:
460,192,2959,1,0,0:0:0:0:
153,192,3292,1,0,0:0:0:0:
358,192,3292,1,0,0:0:0:0:
256,192,3292,1,0,0:0:0:0:
460,192,3625,1,0,0:0:0:0:
51,192,3625,1,0,0:0:0:0:
256,192,3625,1,0,0:0:0:0:
153,192,3958,1,0,0:0:0:0:
358,192,3958,1,0,0:0:0:0:
460,192,4291,1,0,0:0:0:0:
51,192,4291,1,0,0:0:0:0:
153,192,4624,1,0,0:0:0:0:
358,192,4624,1,0,0:0:0:0:
256,192,4957,1,0,0:0:0:0:
153,192,5124,1,0,0:0:0:0:
358,192,5124,1,0,0:0:0:0:
460,192,5290,1,0,0:0:0:0:
51,192,5290,1,0,0:0:0:0:
153,192,5457,1,0,0:0:0:0:
358,192,5457,1,0,0:0:0:0:
460,192,5623,1,0,0:0:0:0:
256,192,5623,1,0,0:0:0:0:
256,192,5956,1,0,0:0:0:0:
51,192,5956,1,0,0:0:0:0:
256,192,6123,1,0,0:0:0:0:
153,192,6206,1,0,0:0:0:0:
358,192,6206,1,0,0:0:0:0:
460,192,6373,1,0,0:0:0:0:
358,192,6456,1,0,0:0:0:0:
256,192,6539,1,0,0:0:0:0:
51,192,6539,1,0,0:0:0:0:
153,192,6623,1,0,0:0:0:0:
256,192,6706,1,0,0:0:0:0:
358,192,6706,1,0,0:0:0:0:
460,192,6789,1,0,0:0:0:0:
51,192,6872,1,0,0:0:0:0:
358,192,6872,1,0,0:0:0:0:
256,192,6956,1,0,0:0:0:0:
153,192,6956,1,0,0:0:0:0:
51,192,7122,1,0,0:0:0:0:
460,192,7205,1,0,0:0:0:0:
460,192,7372,1,0,0:0:0:0:
51,192,7455,1,0,0:0:0:0:
153,192,7622,1,0,0:0:0:0:
358,192,7622,1,0,0:0:0:0:
460,192,7705,1,0,0:0:0:0:
51,192,7705,1,0,0:0:0:0:
153,192,7788,1,0,0:0:0:0:
358,192,7788,1,0,0:0:0:0:
256,192,7872,1,0,0:0:0:0:
358,192,8038,1,0,0:0:0:0:
153,192,8121,1,0,0:0:0:0:
460,192,8288,1,0,0:0:0:0:
256,192,8288,1,0,0:0:0:0:
51,192,8454,1,0,0:0:0:0:
256,192,8454,1,0,0:0:0:0:
153,192,8538,1,0,0:0:0:0:
460,192,8704,1,0,0:0:0:0:
256,192,8704,1,0,0:0:0:0:
358,192,8787,1,0,0:0:0:0:
51,192,8871,1,0,0:0:0:0:
153,192,8954,1,0,0:0:0:0:
256,192,8954,1,0,0:0:0:0:
358,192,9037,1,0,0:0:0:0:
460,192,9120,1,0,0:0:0:0:
358,192,9204,1,0,0:0:0:0:
153,192,9204,1,0,0:0:0:0:
51,192,9370,1,0,0:0:0:0:
460,192,9454,1,0,0:0:0:0:
51,192,9620,1,0,0:0:0:0:
256,192,9620,1,0,0:0:0:0:
358,192,9787,1,0,0:0:0:0:
153,192,9870,1,0,0:0:0:0:
153,192,10036,1,0,0:0:0:0:
51,192,10036,1,0,0:0:0:0:
358,192,10120,1,0,0:0:0:0:
460,192,10120,1,0,0:0:0:0:
256,192,10286,1,0,0:0:0:0:
153,192,10369,1,0,0:0:0:0:
358,192,10369,1,0,0:0:0:0:
256,192,10453,1,0,0:0:0:0:
51,192,10536,1,0,0:0:0:0:
460,192,10536,1,0,0:0:0:0:
153,192,10702,1,0,0:0:0:0:
358,192,10786,1,0,0:0:0:0:
256,192,10952,1,0,0:0:0:0:
153,192,10952,1,0,0:0:0:0:
460,192,11285,1,0,0:0:0:0:
51,192,11285,1,0,0:0:0:0:
256,192,11452,1,0,0:0:0:0:
153,192,11535,1,0,0:0:0:0:
358,192,11535,1,0,0:0:0:0:
460,192,11702,1,0,0:0:0:0:
51,192,11785,1,0,0:0:0:0:
358,192,11868,1,0,0:0:0:0:
153,192,11951,1,0,0:0:0:0:
256,192,12035,1,0,0:0:0:0:
51,192,12118,1,0,0:0:0:0:
460,192,12201,1,0,0:0:0:0:
358,192,12285,1,0,0:0:0:0:
153,192,12285,1,0,0:0:0:0:
153,192,12451,1,0,0:0:0:0:
51,192,12534,1,0,0:0:0:0:
256,192,12534,1,0,0:0:0:0:
358,192,12701,1,0,0:0:0:0:
256,192,12784,1,0,0:0:0:0:
460,192,12784,1,0,0:0:0:0:
51,192,12951,1,0,0:0:0:0:
460,192,12951,1,0,0:0:0:0:
358,192,13034,1,0,0:0:0:0:
153,192,13117,1,0,0:0:0:0:
256,192,13117,1,0,0:0:0:0:
358,192,13200,1,0,0:0:0:0:
51,192,13367,1,0,0:0:0:0:
460,192,13367,1,0,0:0:0:0:
358,192,13450,1,0,0:0:0:0:
153,192,13450,1,0,0:0:0:0:
256,192,13617,1,0,0:0:0:0:
153,192,13783,1,0,0:0:0:0:
358,192,13867,1,0,0:0:0:0:
460,192,14033,1,0,0:0:0:0:
51,192,14116,1,0,0:0:0:0:
153,192,14200,1,0,0:0:0:0:
256,192,14283,1,0,0:0:0:0:
358,192,14283,1,0,0:0:0:0:
460,192,14366,1,0,0:0:0:0:
358,192,14449,1,0,0:0:0:0:
256,192,14533,1,0,0:0:0:0:
51,192,14533,1,0,0:0:0:0:
460,192,14699,1,0,0:0:0:0:
153,192,14782,1,0,0:0:0:0:
460,192,14949,1,0,0:0:0:0:
51,192,14949,1,0,0:0:0:0:
358,192,15115,1,0,0:0:0:0:
153,192,15199,1,0,0:0:0:0:
460,192,15365,1,0,0:0:0:0:
51,192,15365,1,0,0:0:0:0:
256,192,15449,1,0,0:0:0:0:
256,192,15615,128,0,15948:0:0:0:0:
153,192,15948,128,0,16281:0:0:0:0:
358,192,15948,128,0,16281:0:0:0:0:
460,192,16281,1,0,0:0:0:0:
51,192,16281,1,0,0:0:0:0:
153,192,16614,1,0,0:0:0:0:
358,192,16614,1,0,0:0:0:0:
460,192,16781,1,0,0:0:0:0:
256,192,16864,1,0,0:0:0:0:
51,192,16864,1,0,0:0:0:0:
460,192,17031,1,0,0:0:0:0:
358,192,17114,1,0,0:0:0:0:
153,192,17114,1,0,0:0:0:0:
51,192,17197,1,0,0:0:0:0:
256,192,17280,1,0,0:0:0:0:
460,192,17280,1,0,0:0:0:0:
358,192,17364,1,0,0:0:0:0:
256,192,17447,1,0,0:0:0:0:
51,192,17447,1,0,0:0:0:0:
153,192,17530,1,0,0:0:0:0:
460,192,17613,1,0,0:0:0:0:
358,192,17613,1,0,0:0:0:0:
51,192,17780,1,0,0:0:0:0:
460,192,17780,1,0,0:0:0:0:
256,192,17863,1,0,0:0:0:0:
153,192,18030,1,0,0:0:0:0:
358,192,18030,1,0,0:0:0:0:
256,192,18113,1,0,0:0:0:0:
51,192,18280,1,0,0:0:0:0:
460,192,18280,1,0,0:0:0:0:
256,192,18363,1,0,0:0:0:0:
153,192,18446,1,0,0:0:0:0:
358,192,18446,1,0,0:0:0:0:
256,192,18529,1,0,0:0:0:0:
256,192,18696,1,0,0:0:0:0:
51,192,18779,1,0,0:0:0:0:
460,192,18779,1,0,0:0:0:0:
51,192,18946,1,0,0:0:0:0:
256,192,18946,1,0,0:0:0:0:
358,192,19112,1,0,0:0:0:0:
256,192,19195,1,0,0:0:0:0:
460,192,19195,1,0,0:0:0:0:
153,192,19362,1,0,0:0:0:0:
51,192,19445,1,0,0:0:0:0:
256,192,19445,1,0,0:0:0:0:
460,192,19528,1,0,0:0:0:0:
358,192,19612,1,0,0:0:0:0:
153,192,19612,1,0,0:0:0:0:
256,192,19695,1,0,0:0:0:0:
460,192,19778,1,0,0:0:0:0:
358,192,19778,1,0,0:0:0:0:
256,192,19862,1,0,0:0:0:0:
51,192,19862,1,0,0:0:0:0:
153,192,20028,1,0,0:0:0:0:
256,192,20111,1,0,0:0:0:0:
358,192,20111,1,0,0:0:0:0:
460,192,20278,1,0,0:0:0:0:
51,192,20278,1,0,0:0:0:0:
153,192,20444,1,0,0:0:0:0:
358,192,20528,1,0,0:0:0:0:
256,192,20694,1,0,0:0:0:0:
51,192,20694,1,0,0:0:0:0:
460,192,20777,1,0,0:0:0:0:
153,192,20944,1,0,0:0:0:0:
358,192,20944,1,0,0:0:0:0:
256,192,21027,1,0,0:0:0:0:
358,192,21110,1,0,0:0:0:0:
153,192,21110,1,0,0:0:0:0:
460,192,21194,1,0,0:0:0:0:
51,192,21194,1,0,0:0:0:0:
153,192,21360,1,0,0:0:0:0:
256,192,21360,1,0,0:0:0:0:
358,192,21444,1,0,0:0:0:0:
460,192,21444,1,0,0:0:0:0:
153,192,21610,1,0,0:0:0:0:
51,192,21610,1,0,0:0:0:0:
358,192,21943,1,0,0:0:0:0:
460,192,21943,1,0,0:0:0:0:
153,192,22110,1,0,0:0:0:0:
51,192,22193,1,0,0:0:0:0:
256,192,22193,1,0,0:0:0:0:
460,192,22359,1,0,0:0:0:0:
358,192,22443,1,0,0:0:0:0:
153,192,22443,1,0,0:0:0:0:
460,192,22526,1,0,0:0:0:0:
51,192,22609,1,0,0:0:0:0:
256,192,22609,1,0,0:0:0:0:
358,192,22693,1,0,0:0:0:0:
460,192,22776,1,0,0:0:0:0:
256,192,22776,1,0,0:0:0:0:
358,192,22859,1,0,0:0:0:0:
256,192,22942,1,0,0:0:0:0:
153,192,22942,1,0,0:0:0:0:
51,192,23109,1,0,0:0:0:0:
153,192,23192,1,0,0:0:0:0:
256,192,23192,1,0,0:0:0:0:
460,192,23359,1,0,0:0:0:0:
358,192,23442,1,0,0:0:0:0:
256,192,23442,1,0,0:0:0:0:
256,192,23608,1,0,0:0:0:0:
358,192,23692,1,0,0:0:0:0:
460,192,23692,1,0,0:0:0:0:
51,192,23775,1,0,0:0:0:0:
153,192,23858,1,0,0:0:0:0:
256,192,23858,1,0,0:0:0:0:
460,192,24025,1,0,0:0:0:0:
358,192,24108,1,0,0:0:0:0:
153,192,24108,1,0,0:0:0:0:
51,192,24275,1,0,0:0:0:0:
256,192,24275,1,0,0:0:0:0:
460,192,24275,1,0,0:0:0:0:
153,192,24441,1,0,0:0:0:0:
358,192,24441,1,0,0:0:0:0:
256,192,24524,1,0,0:0:0:0:
153,192,24691,1,0,0:0:0:0:
51,192,24774,1,0,0:0:0:0:
256,192,24774,1,0,0:0:0:0:
153,192,24857,1,0,0:0:0:0:
256,192,24941,1,0,0:0:0:0:
460,192,24941,1,0,0:0:0:0:
358,192,25024,1,0,0:0:0:0:
256,192,25107,1,0,0:0:0:0:
153,192,25107,1,0,0:0:0:0:
51,192,25190,1,0,0:0:0:0:
460,192,25190,1,0,0:0:0:0:
153,192,25357,1,0,0:0:0:0:
358,192,25357,1,0,0:0:0:0:
256,192,25440,1,0,0:0:0:0:
460,192,25607,1,0,0:0:0:0:
51,192,25607,1,0,0:0:0:0:
358,192,25773,1,0,0:0:0:0:
153,192,25857,1,0,0:0:0:0:
51,192,26023,1,0,0:0:0:0:
460,192,26106,1,0,0:0:0:0:
153,192,26273,128,0,26606:0:0:0:0:
358,192,26273,128,0,26606:0:0:0:0:
256,192,26606,128,0,26939:0:0:0:0:
51,192,27105,128,0,27272:0:0:0:0:
460,192,27105,128,0,27272:0:0:0:0:
153,192,27272,128,0,27439:0:0:0:0:
358,192,27272,128,0,27439:0:0:0:0:
51,192,27439,128,0,27605:0:0:0:0:
460,192,27439,128,0,27605:0:0:0:0:
256,192,27605,128,0,27772:0:0:0:0:
153,192,27772,128,0,27938:0:0:0:0:
358,192,27772,128,0,27938:0:0:0:0:
51,192,27938,128,0,28105:0:0:0:0:
460,192,27938,128,0,28105:0:0:0:0:
153,192,28105,128,0,28438:0:0:0:0:
358,192,28105,128,0,28438:0:0:0:0:
256,192,28438,128,0,28604:0:0:0:0:
51,192,28604,128,0,28771:0:0:0:0:
460,192,28604,128,0,28771:0:0:0:0:
153,192,28771,128,0,28937:0:0:0:0:
358,192,28771,128,0,28937:0:0:0:0:
51,192,28937,128,0,29104:0:0:0:0:
460,192,28937,128,0,29104:0:0:0:0:
256,192,29104,128,0,29270:0:0:0:0:
51,192,29270,128,0,29437:0:0:0:0:
460,192,29270,128,0,29437:0:0:0:0:
153,192,29437,128,0,29770:0:0:0:0:
358,192,29437,128,0,29770:0:0:0:0:
460,192,29770,128,0,29936:0:0:0:0:
51,192,29936,128,0,30103:0:0:0:0:
358,192,30103,128,0,30270:0:0:0:0:
153,192,30270,128,0,30436:0:0:0:0:
460,192,30436,128,0,30603:0:0:0:0:
51,192,30603,128,0,30769:0:0:0:0:
460,192,30769,128,0,30936:0:0:0:0:
51,192,30936,128,0,31269:0:0:0:0:
358,192,30936,128,0,31269:0:0:0:0:
153,192,31269,128,0,31602:0:0:0:0:
460,192,31269,128,0,31602:0:0:0:0:
358,192,31602,128,0,31935:0:0:0:0:
256,192,31602,128,0,31935:0:0:0:0:
51,192,31935,128,0,32268:0:0:0:0:
460,192,31935,128,0,32268:0:0:0:0:
153,192,32268,128,0,32601:0:0:0:0:
358,192,32268,128,0,32601:0:0:0:0:
460,192,32601,128,0,32767:0:0:0:0:
51,192,32601,128,0,32767:0:0:0:0:
256,192,32767,128,0,33267:0:0:0:0:
51,192,33767,128,0,33933:0:0:0:0:
256,192,33767,128,0,33933:0:0:0:0:
153,192,33933,128,0,34100:0:0:0:0:
358,192,33933,128,0,34100:0:0:0:0:
460,192,34100,128,0,34266:0:0:0:0:
256,192,34100,128,0,34266:0:0:0:0:
358,192,34266,128,0,34433:0:0:0:0:
153,192,34266,128,0,34433:0:0:0:0:
256,192,34433,128,0,34599:0:0:0:0:
460,192,34433,128,0,34599:0:0:0:0:
358,192,34599,128,0,34766:0:0:0:0:
153,192,34599,128,0,34766:0:0:0:0:
256,192,34766,128,0,34932:0:0:0:0:
51,192,34766,128,0,34932:0:0:0:0:
460,192,34932,128,0,35099:0:0:0:0:
358,192,34932,128,0,35099:0:0:0:0:
256,192,35099,128,0,35265:0:0:0:0:
153,192,35099,128,0,35265:0:0:0:0:
460,192,35432,128,0,36265:0:0:0:0:
358,192,35432,128,0,36265:0:0:0:0:
256,192,36931,1,0,0:0:0:0:
153,192,37014,1,0,0:0:0:0:
358,192,37014,1,0,0:0:0:0:
51,192,37097,1,0,0:0:0:0:
460,192,37097,1,0,0:0:0:0:
358,192,37180,1,0,0:0:0:0:
153,192,37180,1,0,0:0:0:0:
256,192,37264,1,0,0:0:0:0:
153,192,37347,1,0,0:0:0:0:
358,192,37347,1,0,0:0:0:0:
256,192,37430,1,0,0:0:0:0:
153,192,37513,1,0,0:0:0:0:
358,192,37513,1,0,0:0:0:0:
51,192,37597,1,0,0:0:0:0:
460,192,37597,1,0,0:0:0:0:
358,192,37680,1,0,0:0:0:0:
256,192,37763,1,0,0:0:0:0:
153,192,37847,1,0,0:0:0:0:
358,192,37847,1,0,0:0:0:0:
460,192,37930,1,0,0:0:0:0:
358,192,38013,1,0,0:0:0:0:
256,192,38013,1,0,0:0:0:0:
51,192,38096,1,0,0:0:0:0:
153,192,38180,1,0,0:0:0:0:
460,192,38263,1,0,0:0:0:0:
256,192,38263,1,0,0:0:0:0:
358,192,38346,1,0,0:0:0:0:
51,192,38429,1,0,0:0:0:0:
153,192,38513,1,0,0:0:0:0:
256,192,38596,1,0,0:0:0:0:
460,192,38679,1,0,0:0:0:0:
358,192,38679,1,0,0:0:0:0:
256,192,38762,1,0,0:0:0:0:
51,192,38846,1,0,0:0:0:0:
358,192,38846,1,0,0:0:0:0:
256,192,38929,1,0,0:0:0:0:
460,192,38929,1,0,0:0:0:0:
358,192,39012,1,0,0:0:0:0:
153,192,39095,1,0,0:0:0:0:
51,192,39095,1,0,0:0:0:0:
256,192,39179,1,0,0:0:0:0:
153,192,39262,1,0,0:0:0:0:
460,192,39345,1,0,0:0:0:0:
256,192,39345,1,0,0:0:0:0:
358,192,39429,1,0,0:0:0:0:
460,192,39512,1,0,0:0:0:0:
51,192,39512,1,0,0:0:0:0:
153,192,39595,1,0,0:0:0:0:
358,192,39595,1,0,0:0:0:0:
51,192,39678,1,0,0:0:0:0:
256,192,39678,1,0,0:0:0:0:
153,192,39762,1,0,0:0:0:0:
256,192,39845,1,0,0:0:0:0:
358,192,39928,1,0,0:0:0:0:
460,192,40011,1,0,0:0:0:0:
153,192,40011,1,0,0:0:0:0:
51,192,40095,1,0,0:0:0:0:
153,192,40178,1,0,0:0:0:0:
460,192,40261,1,0,0:0:0:0:
358,192,40344,1,0,0:0:0:0:
51,192,40344,1,0,0:0:0:0:
153,192,40428,1,0,0:0:0:0:
460,192,40511,1,0,0:0:0:0:
256,192,40594,1,0,0:0:0:0:
51,192,40594,1,0,0:0:0:0:
153,192,40678,1,0,0:0:0:0:
358,192,40761,1,0,0:0:0:0:
256,192,40844,1,0,0:0:0:0:
460,192,40844,1,0,0:0:0:0:
358,192,40927,1,0,0:0:0:0:
51,192,40927,1,0,0:0:0:0:
153,192,41011,1,0,0:0:0:0:
256,192,41011,1,0,0:0:0:0:
460,192,41094,1,0,0:0:0:0:
51,192,41177,1,0,0:0:0:0:
153,192,41260,1,0,0:0:0:0:
358,192,41260,1,0,0:0:0:0:
256,192,41344,1,0,0:0:0:0:
460,192,41427,1,0,0:0:0:0:
358,192,41510,1,0,0:0:0:0:
460,192,41593,1,0,0:0:0:0:
51,192,41593,1,0,0:0:0:0:
256,192,41593,1,0,0:0:0:0:
153,192,41926,1,0,0:0:0:0:
358,192,41926,1,0,0:0:0:0:
51,192,42260,1,0,0:0:0:0:
460,192,42260,1,0,0:0:0:0:
256,192,42260,1,0,0:0:0:0:
460,192,42509,1,0,0:0:0:0:
51,192,42509,1,0,0:0:0:0:
153,192,42593,1,0,0:0:0:0:
358,192,42593,1,0,0:0:0:0:
256,192,42593,1,0,0:0:0:0:
460,192,42759,1,0,0:0:0:0:
51,192,42759,1,0,0:0:0:0:
460,192,42926,1,0,0:0:0:0:
358,192,43009,1,0,0:0:0:0:
256,192,43092,1,0,0:0:0:0:
51,192,43092,1,0,0:0:0:0:
153,192,43175,1,0,0:0:0:0:
256,192,43259,1,0,0:0:0:0:
358,192,43342,1,0,0:0:0:0:
51,192,43342,1,0,0:0:0:0:
256,192,43425,1,0,0:0:0:0:
460,192,43425,1,0,0:0:0:0:
153,192,43508,1,0,0:0:0:0:
358,192,43508,1,0,0:0:0:0:
51,192,43592,1,0,0:0:0:0:
153,192,43675,1,0,0:0:0:0:
256,192,43758,1,0,0:0:0:0:
460,192,43758,1,0,0:0:0:0:
153,192,43842,1,0,0:0:0:0:
256,192,43925,1,0,0:0:0:0:
358,192,44008,1,0,0:0:0:0:
460,192,44008,1,0,0:0:0:0:
256,192,44091,1,0,0:0:0:0:
358,192,44175,1,0,0:0:0:0:
153,192,44175,1,0,0:0:0:0:
460,192,44258,1,0,0:0:0:0:
51,192,44258,1,0,0:0:0:0:
358,192,44341,1,0,0:0:0:0:
153,192,44341,1,0,0:0:0:0:
256,192,44424,1,0,0:0:0:0:
153,192,44508,1,0,0:0:0:0:
460,192,44508,1,0,0:0:0:0:
51,192,44591,1,0,0:0:0:0:
358,192,44591,1,0,0:0:0:0:
153,192,44674,1,0,0:0:0:0:
460,192,44674,1,0,0:0:0:0:
256,192,44757,1,0,0:0:0:0:
358,192,44841,1,0,0:0:0:0:
460,192,44841,1,0,0:0:0:0:
256,192,44924,1,0,0:0:0:0:
153,192,45007,1,0,0:0:0:0:
358,192,45007,1,0,0:0:0:0:
51,192,45091,1,0,0:0:0:0:
460,192,45091,1,0,0:0:0:0:
153,192,45174,1,0,0:0:0:0:
256,192,45257,1,0,0:0:0:0:
51,192,45257,1,0,0:0:0:0:
358,192,45340,1,0,0:0:0:0:
460,192,45424,1,0,0:0:0:0:
256,192,45424,1,0,0:0:0:0:
358,192,45507,1,0,0:0:0:0:
153,192,45507,1,0,0:0:0:0:
256,192,45590,1,0,0:0:0:0:
153,192,45673,1,0,0:0:0:0:
51,192,45673,1,0,0:0:0:0:
256,192,45757,1,0,0:0:0:0:
460,192,45757,1,0,0:0:0:0:
358,192,45840,1,0,0:0:0:0:
460,192,45923,1,0,0:0:0:0:
256,192,45923,1,0,0:0:0:0:
153,192,46006,1,0,0:0:0:0:
51,192,46090,1,0,0:0:0:0:
358,192,46090,1,0,0:0:0:0:
256,192,46173,1,0,0:0:0:0:
153,192,46173,1,0,0:0:0:0:
460,192,46256,1,0,0:0:0:0:
358,192,46339,1,0,0:0:0:0:
256,192,46423,1,0,0:0:0:0:
51,192,46423,1,0,0:0:0:0:
153,192,46506,1,0,0:0:0:0:
460,192,46506,1,0,0:0:0:0:
358,192,46589,1,0,0:0:0:0:
256,192,46589,1,0,0:0:0:0:
460,192,46673,1,0,0:0:0:0:
51,192,46756,1,0,0:0:0:0:
358,192,46839,1,0,0:0:0:0:
153,192,46839,1,0,0:0:0:0:
256,192,46922,1,0,0:0:0:0:
460,192,47006,1,0,0:0:0:0:
153,192,47089,1,0,0:0:0:0:
256,192,47089,1,0,0:0:0:0:
51,192,47172,1,0,0:0:0:0:
256,192,47255,128,0,47588:0:0:0:0:
358,192,47255,1,0,0:0:0:0:
153,192,47588,128,0,47921:0:0:0:0:
358,192,47588,128,0,47921:0:0:0:0:
51,192,47921,128,0,48255:0:0:0:0:
256,192,47921,128,0,48255:0:0:0:0:
460,192,47921,128,0,48255:0:0:0:0:
358,192,48255,1,0,0:0:0:0:
153,192,48255,1,0,0:0:0:0:
51,192,48588,1,0,0:0:0:0:
153,192,48588,1,0,0:0:0:0:
358,192,48588,1,0,0:0:0:0:
460,192,48588,1,0,0:0:0:0:
256,192,48921,1,0,0:0:0:0:
153,192,49254,1,0,0:0:0:0:
358,192,49254,1,0,0:0:0:0:
256,192,49587,1,0,0:0:0:0:
51,192,49587,1,0,0:0:0:0:
460,192,49587,1,0,0:0:0:0:
153,192,49920,1,0,0:0:0:0:
358,192,49920,1,0,0:0:0:0:
51,192,50253,1,0,0:0:0:0:
460,192,50253,1,0,0:0:0:0:
358,192,50586,1,0,0:0:0:0:
256,192,50586,1,0,0:0:0:0:
153,192,50586,1,0,0:0:0:0:
460,192,50919,1,0,0:0:0:0:
256,192,50919,1,0,0:0:0:0:
153,192,50919,1,0,0:0:0:0:
358,192,51252,1,0,0:0:0:0:
256,192,51252,1,0,0:0:0:0:
51,192,51252,1,0,0:0:0:0:
153,192,51585,1,0,0:0:0:0:
358,192,51585,1,0,0:0:0:0:
256,192,51918,1,0,0:0:0:0:
153,192,51918,1,0,0:0:0:0:
358,192,51918,1,0,0:0:0:0:
51,192,52251,1,0,0:0:0:0:
256,192,52251,1,0,0:0:0:0:
460,192,52251,1,0,0:0:0:0:
51,192,52584,1,0,0:0:0:0:
256,192,52584,1,0,0:0:0:0:
153,192,52584,1,0,0:0:0:0:
256,192,52917,1,0,0:0:0:0:
358,192,52917,1,0,0:0:0:0:
460,192,52917,1,0,0:0:0:0:
358,192,53250,1,0,0:0:0:0:
256,192,53250,1,0,0:0:0:0:
153,192,53250,1,0,0:0:0:0:
256,192,53583,1,0,0:0:0:0:
153,192,53583,1,0,0:0:0:0:
460,192,53583,1,0,0:0:0:0:
460,192,53916,1,0,0:0:0:0:
358,192,53916,1,0,0:0:0:0:
153,192,53916,1,0,0:0:0:0:
51,192,54250,1,0,0:0:0:0:
256,192,54250,1,0,0:0:0:0:
358,192,54250,1,0,0:0:0:0:
51,192,54583,1,0,0:0:0:0:
153,192,54583,1,0,0:0:0:0:
358,192,54583,1,0,0:0:0:0:
460,192,54916,1,0,0:0:0:0:
256,192,54916,1,0,0:0:0:0:
51,192,54916,1,0,0:0:0:0:
153,192,55249,1,0,0:0:0:0:
256,192,55249,1,0,0:0:0:0:
358,192,55249,1,0,0:0:0:0:
51,192,55582,1,0,0:0:0:0:
153,192,55582,1,0,0:0:0:0:
460,192,55582,1,0,0:0:0:0:
460,192,55915,1,0,0:0:0:0:
358,192,55915,1,0,0:0:0:0:
51,192,55915,1,0,0:0:0:0:
256,192,56248,1,0,0:0:0:0:
460,192,56248,1,0,0:0:0:0:
153,192,56331,1,0,0:0:0:0:
358,192,56331,1,0,0:0:0:0:
51,192,56414,1,0,0:0:0:0:
153,192,56498,1,0,0:0:0:0:
256,192,56581,1,0,0:0:0:0:
460,192,56581,1,0,0:0:0:0:
358,192,56664,1,0,0:0:0:0:
460,192,56747,1,0,0:0:0:0:
153,192,56747,1,0,0:0:0:0:
358,192,56831,1,0,0:0:0:0:
256,192,56831,1,0,0:0:0:0:
51,192,56914,1,0,0:0:0:0:
460,192,56914,1,0,0:0:0:0:
153,192,56997,1,0,0:0:0:0:
358,192,56997,1,0,0:0:0:0:
256,192,57081,1,0,0:0:0:0:
358,192,57164,1,0,0:0:0:0:
460,192,57247,1,0,0:0:0:0:
153,192,57247,1,0,0:0:0:0:
358,192,57330,1,0,0:0:0:0:
51,192,57330,1,0,0:0:0:0:
256,192,57414,1,0,0:0:0:0:
153,192,57497,1,0,0:0:0:0:
51,192,57497,1,0,0:0:0:0:
460,192,57580,1,0,0:0:0:0:
358,192,57663,1,0,0:0:0:0:
256,192,57747,1,0,0:0:0:0:
460,192,57747,1,0,0:0:0:0:
153,192,57830,1,0,0:0:0:0:
358,192,57830,1,0,0:0:0:0:
51,192,57913,1,0,0:0:0:0:
153,192,57996,1,0,0:0:0:0:
460,192,57996,1,0,0:0:0:0:
256,192,58080,1,0,0:0:0:0:
358,192,58080,1,0,0:0:0:0:
153,192,58163,1,0,0:0:0:0:
51,192,58163,1,0,0:0:0:0:
460,192,58246,1,0,0:0:0:0:
358,192,58329,1,0,0:0:0:0:
153,192,58329,1,0,0:0:0:0:
256,192,58413,1,0,0:0:0:0:
153,192,58496,1,0,0:0:0:0:
256,192,58579,1,0,0:0:0:0:
358,192,58663,1,0,0:0:0:0:
256,192,58746,1,0,0:0:0:0:
153,192,58829,1,0,0:0:0:0:
460,192,58912,1,0,0:0:0:0:
358,192,58996,1,0,0:0:0:0:
256,192,59079,1,0,0:0:0:0:
153,192,59162,1,0,0:0:0:0:
51,192,59162,1,0,0:0:0:0:
256,192,59245,1,0,0:0:0:0:
358,192,59329,1,0,0:0:0:0:
460,192,59329,1,0,0:0:0:0:
256,192,59412,1,0,0:0:0:0:
51,192,59412,1,0,0:0:0:0:
358,192,59495,1,0,0:0:0:0:
153,192,59495,1,0,0:0:0:0:
51,192,59578,1,0,0:0:0:0:
153,192,59662,1,0,0:0:0:0:
256,192,59745,1,0,0:0:0:0:
358,192,59828,1,0,0:0:0:0:
460,192,59911,1,0,0:0:0:0:
153,192,59911,1,0,0:0:0:0:
358,192,59995,1,0,0:0:0:0:
51,192,59995,1,0,0:0:0:0:
256,192,60078,1,0,0:0:0:0:
153,192,60161,1,0,0:0:0:0:
51,192,60245,1,0,0:0:0:0:
358,192,60245,1,0,0:0:0:0:
153,192,60328,1,0,0:0:0:0:
460,192,60328,1,0,0:0:0:0:
256,192,60411,1,0,0:0:0:0:
358,192,60411,1,0,0:0:0:0:
153,192,60494,1,0,0:0:0:0:
51,192,60578,1,0,0:0:0:0:
460,192,60578,1,0,0:0:0:0:
153,192,60661,1,0,0:0:0:0:
358,192,60661,1,0,0:0:0:0:
256,192,60744,1,0,0:0:0:0:
358,192,60827,1,0,0:0:0:0:
460,192,60911,1,0,0:0:0:0:
153,192,60911,1,0,0:0:0:0:
358,192,60994,1,0,0:0:0:0:
51,192,60994,1,0,0:0:0:0:
256,192,61077,1,0,0:0:0:0:
153,192,61244,1,0,0:0:0:0:
358,192,61244,1,0,0:0:0:0:
256,192,61410,1,0,0:0:0:0:
51,192,61577,1,0,0:0:0:0:
460,192,61577,1,0,0:0:0:0:
153,192,61660,1,0,0:0:0:0:
358,192,61660,1,0,0:0:0:0:
256,192,61743,1,0,0:0:0:0:
51,192,61910,1,0,0:0:0:0:
460,192,61910,1,0,0:0:0:0:
358,192,61993,1,0,0:0:0:0:
153,192,61993,1,0,0:0:0:0:
256,192,62076,1,0,0:0:0:0:
51,192,62243,1,0,0:0:0:0:
460,192,62243,1,0,0:0:0:0:
358,192,62326,1,0,0:0:0:0:
153,192,62326,1,0,0:0:0:0:
256,192,62409,1,0,0:0:0:0:
51,192,62576,1,0,0:0:0:0:
460,192,62576,1,0,0:0:0:0:
358,192,62659,1,0,0:0:0:0:
153,192,62659,1,0,0:0:0:0:
256,192,62742,1,0,0:0:0:0:
256,192,62909,1,0,0:0:0:0:
153,192,62992,1,0,0:0:0:0:
51,192,63076,1,0,0:0:0:0:
153,192,63159,1,0,0:0:0:0:
256,192,63242,1,0,0:0:0:0:
358,192,63325,1,0,0:0:0:0:
460,192,63409,1,0,0:0:0:0:
358,192,63492,1,0,0:0:0:0:
256,192,63575,1,0,0:0:0:0:
256,192,63658,1,0,0:0:0:0:
153,192,63742,1,0,0:0:0:0:
358,192,63742,1,0,0:0:0:0:
460,192,63908,1,0,0:0:0:0:
51,192,63908,1,0,0:0:0:0:
153,192,64075,1,0,0:0:0:0:
256,192,64075,1,0,0:0:0:0:
358,192,64075,1,0,0:0:0:0:
256,192,64241,1,0,0:0:0:0:
153,192,64324,1,0,0:0:0:0:
358,192,64324,1,0,0:0:0:0:
51,192,64408,1,0,0:0:0:0:
460,192,64408,1,0,0:0:0:0:
256,192,64574,1,0,0:0:0:0:
153,192,64658,1,0,0:0:0:0:
358,192,64658,1,0,0:0:0:0:
51,192,64741,1,0,0:0:0:0:
460,192,64741,1,0,0:0:0:0:
256,192,64907,1,0,0:0:0:0:
153,192,64991,1,0,0:0:0:0:
358,192,64991,1,0,0:0:0:0:
51,192,65074,1,0,0:0:0:0:
460,192,65074,1,0,0:0:0:0:
256,192,65240,1,0,0:0:0:0:
153,192,65324,1,0,0:0:0:0:
358,192,65324,1,0,0:0:0:0:
51,192,65407,1,0,0:0:0:0:
460,192,65407,1,0,0:0:0:0:
153,192,65573,1,0,0:0:0:0:
358,192,65573,1,0,0:0:0:0:
256,192,65740,1,0,0:0:0:0:
51,192,65906,1,0,0:0:0:0:
460,192,65906,1,0,0:0:0:0:
358,192,66073,1,0,0:0:0:0:
153,192,66073,1,0,0:0:0:0:
51,192,66240,1,0,0:0:0:0:
460,192,66240,1,0,0:0:0:0:
358,192,66323,1,0,0:0:0:0:
153,192,66323,1,0,0:0:0:0:
256,192,66406,1,0,0:0:0:0:
358,192,66573,1,0,0:0:0:0:
460,192,66573,1,0,0:0:0:0:
153,192,66739,1,0,0:0:0:0:
51,192,66739,1,0,0:0:0:0:
460,192,66906,1,0,0:0:0:0:
153,192,66906,1,0,0:0:0:0:
358,192,66989,1,0,0:0:0:0:
256,192,67072,1,0,0:0:0:0:
51,192,67239,1,0,0:0:0:0:
358,192,67239,1,0,0:0:0:0:
153,192,67322,1,0,0:0:0:0:
256,192,67405,1,0,0:0:0:0:
460,192,67572,1,0,0:0:0:0:
153,192,67572,1,0,0:0:0:0:
358,192,67655,1,0,0:0:0:0:
256,192,67738,1,0,0:0:0:0:
51,192,67905,1,0,0:0:0:0:
358,192,67905,1,0,0:0:0:0:
153,192,67988,1,0,0:0:0:0:
256,192,68071,1,0,0:0:0:0:
256,192,68238,1,0,0:0:0:0:
51,192,68238,1,0,0:0:0:0:
460,192,68238,1,0,0:0:0:0:
358,192,68404,1,0,0:0:0:0:
153,192,68404,1,0,0:0:0:0:
51,192,68571,1,0,0:0:0:0:
460,192,68571,1,0,0:0:0:0:
153,192,68737,1,0,0:0:0:0:
358,192,68737,1,0,0:0:0:0:
256,192,68904,1,0,0:0:0:0:
51,192,69071,1,0,0:0:0:0:
460,192,69071,1,0,0:0:0:0:
256,192,69237,1,0,0:0:0:0:
153,192,69404,1,0,0:0:0:0:
358,192,69404,1,0,0:0:0:0:
460,192,69570,1,0,0:0:0:0:
256,192,69570,1,0,0:0:0:0:
256,192,69737,1,0,0:0:0:0:
256,192,69903,1,0,0:0:0:0:
51,192,69903,1,0,0:0:0:0:
256,192,70236,1,0,0:0:0:0:
153,192,70236,1,0,0:0:0:0:
256,192,70403,1,0,0:0:0:0:
256,192,70569,1,0,0:0:0:0:
358,192,70569,1,0,0:0:0:0:
256,192,70902,1,0,0:0:0:0:
51,192,70902,1,0,0:0:0:0:
460,192,70902,1,0,0:0:0:0:
153,192,71069,1,0,0:0:0:0:
358,192,71069,1,0,0:0:0:0:
256,192,71235,1,0,0:0:0:0:
51,192,71402,1,0,0:0:0:0:
460,192,71402,1,0,0:0:0:0:
51,192,71568,1,0,0:0:0:0:
153,192,71568,1,0,0:0:0:0:
256,192,71652,1,0,0:0:0:0:
358,192,71735,1,0,0:0:0:0:
460,192,71735,1,0,0:0:0:0:
153,192,71901,1,0,0:0:0:0:
358,192,72068,1,0,0:0:0:0:
51,192,72235,1,0,0:0:0:0:
256,192,72235,1,0,0:0:0:0:
358,192,72318,1,0,0:0:0:0:
460,192,72401,1,0,0:0:0:0:
460,192,72568,1,0,0:0:0:0:
256,192,72568,1,0,0:0:0:0:
153,192,72651,1,0,0:0:0:0:
51,192,72734,1,0,0:0:0:0:
51,192,72901,1,0,0:0:0:0:
256,192,72901,1,0,0:0:0:0:
358,192,72984,1,0,0:0:0:0:
460,192,73067,1,0,0:0:0:0:
460,192,73234,1,0,0:0:0:0:
256,192,73234,1,0,0:0:0:0:
153,192,73317,1,0,0:0:0:0:
51,192,73400,1,0,0:0:0:0:
51,192,73567,1,0,0:0:0:0:
256,192,73567,1,0,0:0:0:0:
153,192,73733,1,0,0:0:0:0:
256,192,73900,1,0,0:0:0:0:
460,192,73900,1,0,0:0:0:0:
358,192,74066,1,0,0:0:0:0:
51,192,74233,1,0,0:0:0:0:
460,192,74233,1,0,0:0:0:0:
153,192,74316,1,0,0:0:0:0:
358,192,74316,1,0,0:0:0:0:
51,192,74399,1,0,0:0:0:0:
460,192,74399,1,0,0:0:0:0:
256,192,74566,1,0,0:0:0:0:
153,192,74732,1,0,0:0:0:0:
358,192,74732,1,0,0:0:0:0:
51,192,74899,1,0,0:0:0:0:
460,192,74899,1,0,0:0:0:0:
358,192,74982,1,0,0:0:0:0:
153,192,74982,1,0,0:0:0:0:
256,192,75066,1,0,0:0:0:0:
256,192,75232,1,0,0:0:0:0:
153,192,75315,1,0,0:0:0:0:
358,192,75315,1,0,0:0:0:0:
51,192,75399,1,0,0:0:0:0:
460,192,75399,1,0,0:0:0:0:
51,192,75565,1,0,0:0:0:0:
460,192,75565,1,0,0:0:0:0:
358,192,75648,1,0,0:0:0:0:
153,192,75648,1,0,0:0:0:0:
256,192,75732,1,0,0:0:0:0:
256,192,75898,1,0,0:0:0:0:
153,192,75981,1,0,0:0:0:0:
358,192,75981,1,0,0:0:0:0:
51,192,76065,1,0,0:0:0:0:
460,192,76065,1,0,0:0:0:0:
51,192,76231,1,0,0:0:0:0:
256,192,76231,1,0,0:0:0:0:
153,192,76398,1,0,0:0:0:0:
358,192,76398,1,0,0:0:0:0:
256,192,76564,1,0,0:0:0:0:
460,192,76564,1,0,0:0:0:0:
358,192,76731,1,0,0:0:0:0:
153,192,76731,1,0,0:0:0:0:
51,192,76897,1,0,0:0:0:0:
460,192,76897,1,0,0:0:0:0:
358,192,76981,1,0,0:0:0:0:
153,192,76981,1,0,0:0:0:0:
256,192,77064,1,0,0:0:0:0:
153,192,77230,1,0,0:0:0:0:
51,192,77230,1,0,0:0:0:0:
358,192,77397,1,0,0:0:0:0:
460,192,77397,1,0,0:0:0:0:
51,192,77563,1,0,0:0:0:0:
460,192,77563,1,0,0:0:0:0:
153,192,77647,1,0,0:0:0:0:
358,192,77647,1,0,0:0:0:0:
256,192,77730,1,0,0:0:0:0:
153,192,77813,1,0,0:0:0:0:
51,192,77896,1,0,0:0:0:0:
256,192,77896,1,0,0:0:0:0:
153,192,77980,1,0,0:0:0:0:
460,192,77980,1,0,0:0:0:0:
256,192,78063,1,0,0:0:0:0:
358,192,78146,1,0,0:0:0:0:
153,192,78146,1,0,0:0:0:0:
460,192,78230,1,0,0:0:0:0:
51,192,78230,1,0,0:0:0:0:
358,192,78313,1,0,0:0:0:0:
153,192,78313,1,0,0:0:0:0:
256,192,78396,1,0,0:0:0:0:
153,192,78479,1,0,0:0:0:0:
51,192,78479,1,0,0:0:0:0:
460,192,78563,1,0,0:0:0:0:
256,192,78563,1,0,0:0:0:0:
358,192,78646,1,0,0:0:0:0:
51,192,78646,1,0,0:0:0:0:
256,192,78729,1,0,0:0:0:0:
153,192,78729,1,0,0:0:0:0:
358,192,78812,1,0,0:0:0:0:
460,192,78896,1,0,0:0:0:0:
51,192,78896,1,0,0:0:0:0:
358,192,78979,1,0,0:0:0:0:
153,192,78979,1,0,0:0:0:0:
256,192,79062,1,0,0:0:0:0:
153,192,79145,1,0,0:0:0:0:
460,192,79145,1,0,0:0:0:0:
256,192,79229,1,0,0:0:0:0:
51,192,79229,1,0,0:0:0:0:
358,192,79312,1,0,0:0:0:0:
256,192,79395,1,0,0:0:0:0:
153,192,79479,1,0,0:0:0:0:
358,192,79479,1,0,0:0:0:0:
51,192,79562,1,0,0:0:0:0:
460,192,79562,1,0,0:0:0:0:
153,192,79645,1,0,0:0:0:0:
256,192,79728,1,0,0:0:0:0:
51,192,79728,1,0,0:0:0:0:
358,192,79812,1,0,0:0:0:0:
460,192,79812,1,0,0:0:0:0:
153,192,79895,1,0,0:0:0:0:
51,192,79895,1,0,0:0:0:0:
256,192,79978,1,0,0:0:0:0:
460,192,79978,1,0,0:0:0:0:
358,192,80061,1,0,0:0:0:0:
51,192,80061,1,0,0:0:0:0:
256,192,80145,1,0,0:0:0:0:
153,192,80145,1,0,0:0:0:0:
358,192,80228,1,0,0:0:0:0:
460,192,80311,1,0,0:0:0:0:
358,192,80394,1,0,0:0:0:0:
51,192,80394,1,0,0:0:0:0:
256,192,80478,1,0,0:0:0:0:
460,192,80478,1,0,0:0:0:0:
153,192,80561,1,0,0:0:0:0:
358,192,80561,1,0,0:0:0:0:
51,192,80644,1,0,0:0:0:0:
460,192,80644,1,0,0:0:0:0:
153,192,80727,1,0,0:0:0:0:
256,192,80811,1,0,0:0:0:0:
51,192,80811,1,0,0:0:0:0:
358,192,80894,1,0,0:0:0:0:
460,192,80894,1,0,0:0:0:0:
256,192,80977,1,0,0:0:0:0:
153,192,81061,1,0,0:0:0:0:
51,192,81144,1,0,0:0:0:0:
460,192,81227,1,0,0:0:0:0:
358,192,81227,1,0,0:0:0:0:
256,192,81310,1,0,0:0:0:0:
153,192,81394,1,0,0:0:0:0:
460,192,81394,1,0,0:0:0:0:
256,192,81477,1,0,0:0:0:0:
358,192,81477,1,0,0:0:0:0:
153,192,81560,1,0,0:0:0:0:
460,192,81560,1,0,0:0:0:0:
51,192,81643,1,0,0:0:0:0:
256,192,81643,1,0,0:0:0:0:
153,192,81727,1,0,0:0:0:0:
460,192,81727,1,0,0:0:0:0:
256,192,81810,1,0,0:0:0:0:
358,192,81893,1,0,0:0:0:0:
256,192,81976,1,0,0:0:0:0:
153,192,82060,1,0,0:0:0:0:
51,192,82060,1,0,0:0:0:0:
460,192,82143,1,0,0:0:0:0:
256,192,82143,1,0,0:0:0:0:
358,192,82226,1,0,0:0:0:0:
256,192,82309,1,0,0:0:0:0:
153,192,82309,1,0,0:0:0:0:
51,192,82393,1,0,0:0:0:0:
460,192,82393,1,0,0:0:0:0:
153,192,82559,1,0,0:0:0:0:
358,192,82559,1,0,0:0:0:0:
460,192,82726,1,0,0:0:0:0:
51,192,82726,1,0,0:0:0:0:
153,192,82892,1,0,0:0:0:0:
256,192,82892,1,0,0:0:0:0:
358,192,82892,1,0,0:0:0:0:
460,192,83225,1,0,0:0:0:0:
51,192,83225,1,0,0:0:0:0:
256,192,83392,1,0,0:0:0:0:
153,192,83475,1,0,0:0:0:0:
358,192,83475,1,0,0:0:0:0:
51,192,83642,1,0,0:0:0:0:
153,192,83725,1,0,0:0:0:0:
460,192,83725,1,0,0:0:0:0:
358,192,83808,1,0,0:0:0:0:
256,192,83892,1,0,0:0:0:0:
51,192,83892,1,0,0:0:0:0:
153,192,83975,1,0,0:0:0:0:
460,192,83975,1,0,0:0:0:0:
358,192,84058,1,0,0:0:0:0:
256,192,84058,1,0,0:0:0:0:
460,192,84141,1,0,0:0:0:0:
51,192,84225,1,0,0:0:0:0:
358,192,84225,1,0,0:0:0:0:
51,192,84391,1,0,0:0:0:0:
460,192,84474,1,0,0:0:0:0:
460,192,84641,1,0,0:0:0:0:
51,192,84724,1,0,0:0:0:0:
51,192,84891,1,0,0:0:0:0:
256,192,84974,1,0,0:0:0:0:
153,192,85057,1,0,0:0:0:0:
460,192,85140,1,0,0:0:0:0:
358,192,85307,1,0,0:0:0:0:
153,192,85307,1,0,0:0:0:0:
460,192,85390,1,0,0:0:0:0:
51,192,85390,1,0,0:0:0:0:
153,192,85557,1,0,0:0:0:0:
358,192,85557,1,0,0:0:0:0:
51,192,85723,1,0,0:0:0:0:
256,192,85723,1,0,0:0:0:0:
153,192,85807,1,0,0:0:0:0:
256,192,85973,1,0,0:0:0:0:
460,192,85973,1,0,0:0:0:0:
358,192,86056,1,0,0:0:0:0:
256,192,86140,1,0,0:0:0:0:
153,192,86223,1,0,0:0:0:0:
51,192,86223,1,0,0:0:0:0:
256,192,86306,1,0,0:0:0:0:
460,192,86306,1,0,0:0:0:0:
358,192,86389,1,0,0:0:0:0:
256,192,86473,1,0,0:0:0:0:
153,192,86473,1,0,0:0:0:0:
51,192,86639,1,0,0:0:0:0:
460,192,86722,1,0,0:0:0:0:
153,192,86722,1,0,0:0:0:0:
358,192,86889,1,0,0:0:0:0:
256,192,86889,1,0,0:0:0:0:
51,192,87056,1,0,0:0:0:0:
460,192,87139,1,0,0:0:0:0:
153,192,87305,1,0,0:0:0:0:
358,192,87389,1,0,0:0:0:0:
51,192,87555,1,0,0:0:0:0:
256,192,87555,1,0,0:0:0:0:
153,192,87638,1,0,0:0:0:0:
256,192,87722,1,0,0:0:0:0:
460,192,87722,1,0,0:0:0:0:
358,192,87805,1,0,0:0:0:0:
256,192,87971,1,0,0:0:0:0:
153,192,88055,1,0,0:0:0:0:
51,192,88221,1,0,0:0:0:0:
460,192,88221,1,0,0:0:0:0:
153,192,88554,1,0,0:0:0:0:
358,192,88554,1,0,0:0:0:0:
256,192,88721,1,0,0:0:0:0:
51,192,88804,1,0,0:0:0:0:
460,192,88804,1,0,0:0:0:0:
51,192,88971,1,0,0:0:0:0:
153,192,88971,1,0,0:0:0:0:
256,192,89054,1,0,0:0:0:0:
358,192,89137,1,0,0:0:0:0:
460,192,89137,1,0,0:0:0:0:
51,192,89220,1,0,0:0:0:0:
256,192,89220,1,0,0:0:0:0:
153,192,89304,1,0,0:0:0:0:
256,192,89387,1,0,0:0:0:0:
460,192,89387,1,0,0:0:0:0:
358,192,89470,1,0,0:0:0:0:
460,192,89553,1,0,0:0:0:0:
51,192,89553,1,0,0:0:0:0:
51,192,89720,1,0,0:0:0:0:
358,192,89803,1,0,0:0:0:0:
153,192,89970,1,0,0:0:0:0:
460,192,90053,1,0,0:0:0:0:
358,192,90220,1,0,0:0:0:0:
153,192,90303,1,0,0:0:0:0:
460,192,90386,1,0,0:0:0:0:
51,192,90469,1,0,0:0:0:0:
256,192,90636,1,0,0:0:0:0:
153,192,90719,1,0,0:0:0:0:
358,192,90719,1,0,0:0:0:0:
51,192,90886,1,0,0:0:0:0:
153,192,90886,1,0,0:0:0:0:
256,192,91052,1,0,0:0:0:0:
460,192,91052,1,0,0:0:0:0:
358,192,91135,1,0,0:0:0:0:
51,192,91302,1,0,0:0:0:0:
256,192,91302,1,0,0:0:0:0:
153,192,91385,1,0,0:0:0:0:
460,192,91469,1,0,0:0:0:0:
358,192,91552,1,0,0:0:0:0:
256,192,91552,1,0,0:0:0:0:
51,192,91635,1,0,0:0:0:0:
153,192,91718,1,0,0:0:0:0:
460,192,91718,1,0,0:0:0:0:
256,192,91802,1,0,0:0:0:0:
358,192,91802,1,0,0:0:0:0:
51,192,91968,1,0,0:0:0:0:
460,192,91968,1,0,0:0:0:0:
256,192,92051,1,0,0:0:0:0:
153,192,92218,1,0,0:0:0:0:
358,192,92218,1,0,0:0:0:0:
153,192,92384,1,0,0:0:0:0:
51,192,92468,1,0,0:0:0:0:
256,192,92468,1,0,0:0:0:0:
256,192,92634,1,0,0:0:0:0:
460,192,92634,1,0,0:0:0:0:
358,192,92717,1,0,0:0:0:0:
153,192,92884,128,0,93217:0:0:0:0:
358,192,93217,128,0,93550:0:0:0:0:
256,192,93550,1,0,0:0:0:0:
51,192,93550,1,0,0:0:0:0:
256,192,93883,1,0,0:0:0:0:
460,192,93883,1,0,0:0:0:0:
256,192,94050,1,0,0:0:0:0:
153,192,94133,1,0,0:0:0:0:
358,192,94133,1,0,0:0:0:0:
51,192,94299,1,0,0:0:0:0:
460,192,94383,1,0,0:0:0:0:
358,192,94466,1,0,0:0:0:0:
153,192,94466,1,0,0:0:0:0:
256,192,94549,1,0,0:0:0:0:
358,192,94633,1,0,0:0:0:0:
51,192,94716,1,0,0:0:0:0:
256,192,94716,1,0,0:0:0:0:
153,192,94799,1,0,0:0:0:0:
460,192,94799,1,0,0:0:0:0:
256,192,94882,1,0,0:0:0:0:
358,192,94882,1,0,0:0:0:0:
460,192,95049,1,0,0:0:0:0:
51,192,95132,1,0,0:0:0:0:
153,192,95299,1,0,0:0:0:0:
358,192,95382,1,0,0:0:0:0:
460,192,95548,1,0,0:0:0:0:
51,192,95632,1,0,0:0:0:0:
153,192,95715,1,0,0:0:0:0:
460,192,95798,1,0,0:0:0:0:
358,192,95965,1,0,0:0:0:0:
256,192,95965,1,0,0:0:0:0:
153,192,96048,1,0,0:0:0:0:
460,192,96048,1,0,0:0:0:0:
51,192,96215,1,0,0:0:0:0:
460,192,96215,1,0,0:0:0:0:
256,192,96215,1,0,0:0:0:0:
153,192,96381,1,0,0:0:0:0:
256,192,96464,1,0,0:0:0:0:
358,192,96464,1,0,0:0:0:0:
358,192,96631,1,0,0:0:0:0:
256,192,96714,1,0,0:0:0:0:
153,192,96714,1,0,0:0:0:0:
51,192,96797,1,0,0:0:0:0:
153,192,96881,1,0,0:0:0:0:
460,192,96881,1,0,0:0:0:0:
358,192,96964,1,0,0:0:0:0:
256,192,97047,1,0,0:0:0:0:
51,192,97047,1,0,0:0:0:0:
153,192,97130,1,0,0:0:0:0:
460,192,97130,1,0,0:0:0:0:
51,192,97297,1,0,0:0:0:0:
460,192,97297,1,0,0:0:0:0:
256,192,97380,1,0,0:0:0:0:
153,192,97547,1,0,0:0:0:0:
358,192,97547,1,0,0:0:0:0:
51,192,97713,1,0,0:0:0:0:
153,192,97797,1,0,0:0:0:0:
460,192,97797,1,0,0:0:0:0:
460,192,97963,1,0,0:0:0:0:
358,192,98046,1,0,0:0:0:0:
51,192,98046,1,0,0:0:0:0:
256,192,98213,1,0,0:0:0:0:
256,192,98296,1,0,0:0:0:0:
153,192,98379,1,0,0:0:0:0:
358,192,98379,1,0,0:0:0:0:
460,192,98463,1,0,0:0:0:0:
51,192,98463,1,0,0:0:0:0:
51,192,98629,1,0,0:0:0:0:
460,192,98629,1,0,0:0:0:0:
256,192,98712,1,0,0:0:0:0:
153,192,98879,1,0,0:0:0:0:
358,192,98879,1,0,0:0:0:0:
460,192,99212,1,0,0:0:0:0:
51,192,99212,1,0,0:0:0:0:
153,192,99379,1,0,0:0:0:0:
358,192,99462,1,0,0:0:0:0:
51,192,99628,1,0,0:0:0:0:
256,192,99628,1,0,0:0:0:0:
358,192,99712,1,0,0:0:0:0:
153,192,99795,1,0,0:0:0:0:
460,192,99795,1,0,0:0:0:0:
358,192,99878,1,0,0:0:0:0:
256,192,99961,1,0,0:0:0:0:
153,192,99961,1,0,0:0:0:0:
51,192,100045,1,0,0:0:0:0:
460,192,100045,1,0,0:0:0:0:
358,192,100128,1,0,0:0:0:0:
153,192,100128,1,0,0:0:0:0:
256,192,100211,1,0,0:0:0:0:
51,192,100211,1,0,0:0:0:0:
153,192,100378,1,0,0:0:0:0:
460,192,100461,1,0,0:0:0:0:
358,192,100628,1,0,0:0:0:0:
51,192,100711,1,0,0:0:0:0:
153,192,100877,1,0,0:0:0:0:
256,192,100961,1,0,0:0:0:0:
358,192,101044,1,0,0:0:0:0:
153,192,101127,1,0,0:0:0:0:
51,192,101294,1,0,0:0:0:0:
460,192,101294,1,0,0:0:0:0:
358,192,101377,1,0,0:0:0:0:
153,192,101377,1,0,0:0:0:0:
256,192,101543,1,0,0:0:0:0:
153,192,101710,1,0,0:0:0:0:
51,192,101793,1,0,0:0:0:0:
460,192,101793,1,0,0:0:0:0:
358,192,101960,1,0,0:0:0:0:
460,192,102043,1,0,0:0:0:0:
51,192,102043,1,0,0:0:0:0:
153,192,102126,1,0,0:0:0:0:
256,192,102210,1,0,0:0:0:0:
358,192,102210,1,0,0:0:0:0:
460,192,102293,1,0,0:0:0:0:
358,192,102376,1,0,0:0:0:0:
51,192,102376,1,0,0:0:0:0:
153,192,102459,1,0,0:0:0:0:
256,192,102459,1,0,0:0:0:0:
358,192,102626,1,0,0:0:0:0:
256,192,102709,1,0,0:0:0:0:
51,192,102709,1,0,0:0:0:0:
51,192,102876,1,0,0:0:0:0:
460,192,102876,1,0,0:0:0:0:
256,192,103042,1,0,0:0:0:0:
153,192,103125,1,0,0:0:0:0:
358,192,103125,1,0,0:0:0:0:
51,192,103292,1,0,0:0:0:0:
460,192,103292,1,0,0:0:0:0:
256,192,103375,1,0,0:0:0:0:
256,192,103542,128,0,103875:0:0:0:0:
153,192,103875,128,0,104208:0:0:0:0:
358,192,103875,128,0,104208:0:0:0:0:
460,192,104208,128,0,105207:0:0:0:0:
51,192,104208,128,0,105207:0:0:0:0:
