osu file format v9

[General]
AudioFilename: 03 Drrrrrrr!.mp3
AudioLeadIn: 1996
PreviewTime: 21780
Countdown: 0
SampleSet: Normal
StackLeniency: 0.7
Mode: 0
LetterboxInBreaks: 0
EpilepsyWarning: 1

[Editor]
DistanceSpacing: 1
BeatDivisor: 2
GridSize: 8

[Metadata]
Title:Drrrrrrr!
Artist:DJ Sharpnel
Creator:LesTrucsRose
Version:Normal
Source:Durarara!!
Tags:Cyclic drrr! remix anime galvenize CracK

[Difficulty]
HPDrainRate:1
CircleSize:4
OverallDifficulty:2
ApproachRate:4
SliderMultiplier:1.00000000596046
SliderTickRate:2

[Events]
//Background and Video events
0,0,"Background.png"
//Break Periods
//Storyboard Layer 0 (Background)
//Storyboard Layer 1 (Fail)
//Storyboard Layer 2 (Pass)
//Storyboard Layer 3 (Foreground)
//Storyboard Sound Samples
//Background Colour Transformations
3,100,163,162,255

[TimingPoints]
472,334.224598930481,4,1,1,56,1,0
16432,-100,4,1,1,21,0,0
17101,-100,4,1,1,41,0,0
17769,-100,4,1,1,61,0,0
18438,-100,4,1,1,83,0,0
19106,-100,4,1,1,82,0,0
43252,-100,4,1,1,81,0,1
47515,-100,4,1,1,0,0,1
47681,-100,4,1,1,81,0,1
63807,-200,4,2,1,61,0,1
64643,-100,4,2,1,61,0,0
75338,-100,4,1,1,81,0,1
96728,-100,4,2,1,61,0,0

[Colours]
Combo1 : 255,255,0
Combo2 : 128,0,128
Combo3 : 255,128,0
SliderBorder : 0,0,0

[HitObjects]
440,32,472,6,0,B|472:80|432:136,1,100.000000596046,2|2
438,126,973,1,0
296,80,1474,1,2
80,352,2811,5,0
80,352,3145,2,0,B|48:304|88:248,1,100.000000596046,2|2
81,257,3647,1,0
224,304,4148,1,2
440,32,5485,5,0
440,32,5819,2,0,B|472:80|432:136,1,100.000000596046,2|2
438,126,6320,1,0
296,80,6822,1,2
80,352,8159,5,0
80,352,8493,2,0,B|48:304|88:248,1,100.000000596046,2|2
81,257,8994,1,0
224,304,9496,1,2
440,32,10832,5,0
440,32,11167,2,0,B|472:80|432:136,1,100.000000596046,2|2
438,127,11668,1,0
296,80,12169,1,2
72,352,13506,5,0
72,352,13841,2,0,B|40:304|80:248,1,100.000000596046,2|2
74,257,14342,1,0
160,304,14675,1,0
208,304,14842,1,2
280,192,16514,6,0,B|216:192,19,50.000000298023
256,192,19857,12,4,21862
256,192,22196,6,0,B|144:192,1,100.000000596046,0|2
56,192,22865,2,0,B|56:56,1,100.000000596046,0|2
152,96,23533,2,0,B|216:96,1,50.000000298023,2|2
304,96,24035,1,0
400,96,24369,2,0,B|464:96,1,50.000000298023,2|2
384,168,24870,6,0,B|368:192|384:216,2,50.000000298023,2|0|2
288,192,25538,1,0
184,192,25873,2,0,B|160:208|136:192,3,50.000000298023
256,360,27042,5,0
256,312,27209,1,0
360,304,27544,6,0,B|368:280|360:256,4,50.000000298023
320,272,28379,2,0,B|264:232|320:192,2,100.000000596046,2|2|2
376,136,29549,6,0,B|392:112|376:88,7,50.000000298023,2|0|2|0|2|0|2|8
280,112,31053,6,0,B|264:88|280:64,2,50.000000298023
184,72,31721,1,4
88,304,32557,5,4
184,312,32891,1,4
256,248,33226,1,4
256,152,33560,1,4
56,152,34228,5,2
96,136,34395,1,0
136,136,34562,1,2
176,152,34730,1,0
376,160,35398,6,0,B|336:200,8,50.000000298023
376,56,37069,1,4
160,192,37905,5,4
160,96,38239,1,4
256,96,38573,1,4
256,192,38907,1,4
424,96,39576,6,0,B|440:72|424:48,3,50.000000298023,2|0|2|0
424,240,40746,6,0,B|408:216|424:192,3,50.000000298023,2|0|2|0
320,192,41581,2,0,B|336:216|320:240,2,50.000000298023,2|0|2
216,192,42250,1,0
168,192,42417,1,0
416,192,43252,5,4
320,192,43586,6,0,B|336:168|320:144,1,50.000000298023,2|0
272,144,43921,2,0,B|256:120|272:96,1,50.000000298023,2|0
320,96,44255,2,0,B|336:72|320:48,1,50.000000298023,2|0
224,32,44756,2,4,B|168:8|120:16|80:56|80:120,1,200.000001192092
208,328,46260,6,0,B|144:328,2,50.000000298023
208,280,46762,2,0,B|144:280,1,50.000000298023
160,232,47096,2,0,B|184:192|224:184|272:192|288:240,1,150.000000894069,2|0
408,168,48099,5,10
376,152,48266,1,0
336,168,48433,1,10
336,72,48768,1,10
376,88,48935,1,0
408,72,49101,1,10
256,120,49770,5,10
280,200,50104,2,0,B|256:216|232:200,2,50.000000298023,8|0|8
256,120,50772,1,0
256,192,51274,12,4,52611
256,192,52945,5,4
296,192,53112,1,4
336,192,53279,2,0,B|399:158|331:31|268:64,1,200.000001192092,0|4
240,136,54282,6,0,B|224:160|240:184,1,50.000000298023,0|2
280,168,54617,2,0,B|296:192|280:216,1,50.000000298023,2|2
240,216,54951,2,0,B|224:240|240:264,1,50.000000298023,2|2
288,328,55452,2,4,B|232:352|184:344|144:304|144:240,1,200.000001192092,6|6
312,136,56956,5,8
312,176,57123,1,8
296,208,57290,1,2
256,224,57458,1,8
216,208,57625,1,8
200,168,57792,2,0,B|176:128|136:120|88:128|72:176,1,150.000000894069,2|0
152,256,58795,5,10
192,264,58962,1,0
232,256,59129,1,10
232,336,59462,1,10
192,328,59629,1,0
152,336,59797,1,10
256,208,60466,5,10
232,128,60800,2,0,B|256:112|280:128,2,50.000000298023,8|0|8
256,208,61468,1,0
256,192,61970,12,4,63307
256,192,63641,5,4
296,192,63807,2,0,B|320:160|384:232|416:192,1,125.000000745057,0|4
480,48,64977,6,0,B|456:32|432:48,3,50.000000298023
432,88,65645,2,0,B|408:104|384:88,3,50.000000298023
384,48,66314,2,0,B|360:32|336:48,3,50.000000298023
288,48,66982,1,0
264,48,67149,2,0,B|232:72|296:120|264:152,1,100.000000596046
504,280,68152,6,8,B|520:336|504:392,1,100.000000596046
352,328,68821,1,10
256,160,70324,6,0,B|256:80,6,50.000000298023,0|0|0|0|0|0|0
280,208,71494,2,0,B|256:240|208:176|168:208,1,100.000000596046
152,224,71996,1,0
128,256,72163,1,8
48,256,72497,6,8,B|48:144,1,100.000000596046
56,120,72998,1,0
80,88,73166,1,8
120,72,73333,1,0
160,72,73500,1,8
200,72,73667,1,0
240,72,73834,1,8
272,96,74001,2,0,B|216:184,1,100.000000596046
256,192,74502,12,4,75338
272,136,75672,6,0,B|288:160|272:184,1,50.000000298023,2|0
232,168,76007,2,0,B|216:192|232:216,1,50.000000298023,2|0
272,216,76341,2,0,B|288:240|272:264,1,50.000000298023,2|0
224,328,76842,2,4,B|280:352|328:344|368:304|368:240,1,200.000001192092
200,136,78346,5,2
200,176,78513,1,0
216,208,78680,1,2
256,224,78848,1,2
296,208,79015,1,0
312,168,79182,2,0,B|336:128|376:120|424:128|440:176,1,150.000000894069,2|0
360,256,80185,5,10
320,264,80352,1,0
280,256,80519,1,10
280,336,80854,1,10
320,328,81021,1,0
360,336,81187,1,10
256,208,81856,5,10
280,128,82190,2,0,B|256:112|232:128,2,50.000000298023,8|0|8
256,208,82858,1,0
256,192,83360,12,4,84697
256,192,85031,5,4
296,192,85198,1,4
336,192,85365,2,0,B|399:226|331:353|268:320,1,200.000001192092,0|4
240,248,86368,6,0,B|224:224|240:200,1,50.000000298023,2|0
280,216,86701,2,0,B|296:192|280:168,1,50.000000298023,2|0
240,168,87037,2,0,B|224:144|240:120,1,50.000000298023,2|0
288,56,87538,2,4,B|232:32|184:40|144:80|144:144,1,200.000001192092
312,248,89042,5,2
312,208,89209,1,0
296,176,89376,1,2
256,160,89542,1,2
216,176,89709,1,0
200,216,89878,2,0,B|176:256|136:264|88:256|72:208,1,150.000000894069,2|0
152,128,90879,5,10
184,112,91046,1,0
224,128,91213,1,10
224,32,91548,1,10
184,48,91715,1,0
152,32,91883,1,10
256,176,92550,5,10
232,256,92886,2,0,B|256:272|280:256,2,50.000000298023,8|0|8
256,176,93554,1,0
256,192,94054,12,4,95391
256,192,95727,5,4
256,192,95893,1,0
328,160,96227,2,0,B|256:112|176:160,1,150.000000894069,0|4
