osu file format v9

[General]
AudioFilename: 03 Drrrrrrr!.mp3
AudioLeadIn: 1996
PreviewTime: 21780
Countdown: 0
SampleSet: Normal
StackLeniency: 0.7
Mode: 0
LetterboxInBreaks: 0
EpilepsyWarning: 1

[Editor]
Bookmarks: 22114,27462,32809,43170
DistanceSpacing: 0.5
BeatDivisor: 2
GridSize: 8

[Metadata]
Title:Drrrrrrr!
Artist:DJ Sharpnel
Creator:LesTrucsRose
Version:Easy
Source:Durarara!!
Tags:Cyclic drrr! remix anime galvenize CracK

[Difficulty]
HPDrainRate:0
CircleSize:3
OverallDifficulty:1
ApproachRate:2
SliderMultiplier:1.00000000596046
SliderTickRate:2

[Events]
//Background and Video events
0,0,"Background.png"
//Break Periods
//Storyboard Layer 0 (Background)
//Storyboard Layer 1 (Fail)
//Storyboard Layer 2 (Pass)
//Storyboard Layer 3 (Foreground)
//Storyboard Sound Samples
//Background Colour Transformations
3,100,163,162,255

[TimingPoints]
472,334.224598930481,4,1,1,56,1,0
16432,-100,4,1,1,21,0,0
17101,-100,4,1,1,41,0,0
17769,-100,4,1,1,61,0,0
18438,-100,4,1,1,83,0,0
19106,-100,4,1,1,81,0,0
43252,-100,4,1,1,80,0,1
64643,-100,4,2,1,61,0,0
75338,-100,4,1,1,61,0,1
96728,-100,4,2,1,61,0,0

[Colours]
Combo1 : 255,255,0
Combo2 : 128,0,128
Combo3 : 255,128,0
SliderBorder : 0,0,0

[HitObjects]
64,48,472,2,0,B|136:48|136:128,1,100.000000596046,0|8
136,128,973,2,0,B|136:176|224:216|264:168,1,150.000000894069,0|8
296,192,1808,5,0
288,240,2143,1,8
296,288,2477,1,0
336,320,2811,1,8
384,312,3145,6,0,B|456:312|456:232,1,100.000000596046,0|8
456,232,3646,2,0,B|456:184|368:144|328:192,1,150.000000894069,0|8
288,192,4481,5,0
256,152,4816,1,8
248,104,5150,1,0
208,72,5484,1,8
160,72,5819,6,0,B|88:72|88:152,1,100.000000596046,0|8
96,152,6320,2,0,B|96:200|184:240|224:192,1,150.000000894069,0|8
248,240,7155,5,0
248,288,7490,1,8
272,328,7824,1,0
320,352,8158,1,8
368,344,8493,5,0
392,296,8827,1,8
392,296,8994,1,0
392,224,9496,1,8
360,184,9830,2,0,B|240:168,3,100.000000596046,0|8|0|8
216,144,11167,5,0
168,136,11501,1,8
168,136,11668,1,0
120,192,12170,1,8
144,232,12504,2,0,B|264:232,3,100.000000596046,0|8|0|8
296,232,13840,6,0,B|296:328|192:328,1,150.000000894069
152,328,14676,1,0
152,328,14843,1,8
152,280,15177,2,0,B|56:200,3,100.000000596046,0|8|0|8
256,192,16514,12,0,21862
256,192,22530,5,0
360,192,23199,1,0
304,112,23867,1,0
200,112,24536,5,0
136,192,25204,1,0
200,272,25873,2,0,B|232:280|264:240|256:200,2,100.000000596046,8|8|4
136,192,27209,5,0
96,104,27878,1,0
160,24,28546,1,0
264,24,29215,5,0
328,96,29883,1,0
264,176,30552,1,0
168,176,31220,2,0,B|144:224|168:272,2,100.000000596046,8|8|4
256,128,32557,5,4
256,176,32891,1,4
256,224,33226,1,4
256,272,33560,1,4
352,240,34228,6,0,B|392:192|352:152,2,100.000000596046,8|8|4
272,304,35565,1,0
184,256,36234,1,0
120,176,36902,1,0
256,120,37905,5,4
256,176,38239,1,4
256,224,38574,1,4
256,272,38908,1,4
352,240,39576,6,0,B|392:192|352:152,2,100.000000596046,8|8|4
256,248,40913,1,0
256,144,41582,5,0
168,192,42250,1,0
168,192,42584,2,0,B|144:128|168:64|232:48|304:64,1,200.000001192092,0|4
256,160,43921,5,0
312,240,44589,1,0
368,160,45258,2,8,B|416:136|416:80,2,100.000000596046,8|8|4
312,240,46594,5,0
256,160,47263,1,0
200,240,47931,2,8,B|152:264|152:320,2,100.000000596046,8|8|4
256,160,49268,5,0
312,240,49937,2,8,B|360:264|360:320,2,100.000000596046,8|8|4
256,160,51274,6,8,B|256:104|256:48,8,100.000000596046,8|8|0|8|8|0|8|8|4
256,160,54616,5,0
312,240,55284,1,0
368,160,55953,2,8,B|416:136|416:80,2,100.000000596046,8|8|4
312,240,57289,5,0
256,160,57958,1,0
200,240,58626,6,8,B|152:264|152:320,2,100.000000596046,8|8|4
256,160,59963,1,0
312,240,60632,2,8,B|360:264|360:320,2,100.000000596046,8|8|4
256,160,61969,6,8,B|256:104|256:48,8,100.000000596046,8|8|0|8|8|0|8|8|4
256,192,64977,12,4,67316
256,192,68152,5,2
256,192,68486,1,0
256,192,68820,1,2
256,192,70324,12,4,74001
256,48,74669,1,4
320,136,75338,1,4
256,216,76006,5,0
200,136,76674,1,0
144,224,77343,2,8,B|96:248|96:304,2,100.000000596046,8|8|4
200,144,78679,1,0
256,224,79348,1,0
312,144,80016,6,8,B|360:120|360:64,2,100.000000596046,8|8|4
256,224,81353,1,0
200,144,82022,2,8,B|152:120|152:64,2,100.000000596046,8|8|4
256,224,83359,6,8,B|256:280|256:336,8,100.000000596046,8|8|0|8|8|0|8|8|4
256,224,86701,5,0
200,144,87369,1,0
144,224,88038,2,8,B|96:248|96:304,4,100.000000596046
232,176,90043,5,0
216,272,90711,2,8,B|168:296|168:352,2,100.000000596046,8|8|4
256,176,92048,1,0
320,248,92717,2,8,B|368:272|368:328,2,100.000000596046,8|8|4
256,168,94054,6,8,B|256:112|256:56,8,100.000000596046,8|8|0|8|8|0|8|8|4
