osu file format v9

[General]
AudioFilename: 03 Drrrrrrr!.mp3
AudioLeadIn: 2007
PreviewTime: 21780
Countdown: 0
SampleSet: Normal
StackLeniency: 0.7
Mode: 0
LetterboxInBreaks: 0
EpilepsyWarning: 1

[Editor]
Bookmarks: 27544
DistanceSpacing: 1
BeatDivisor: 4
GridSize: 8

[Metadata]
Title:Drrrrrrr!
Artist:DJ Sharpnel
Creator:LesTrucsRose
Version:CracKed
Source:Durarara!!
Tags:Cyclic drrr! remix anime galvenize CracK

[Difficulty]
HPDrainRate:6
CircleSize:4
OverallDifficulty:6
ApproachRate:8
SliderMultiplier:1.95
SliderTickRate:1

[Events]
//Background and Video events
0,0,"Background.png"
//Break Periods
//Storyboard Layer 0 (Background)
//Storyboard Layer 1 (Fail)
//Storyboard Layer 2 (Pass)
//Storyboard Layer 3 (Foreground)
//Storyboard Sound Samples
//Background Colour Transformations
3,100,163,162,255

[TimingPoints]
472,334.224598930481,4,2,0,56,1,0
472,-153.846153846154,4,2,0,56,0,0
16514,-153.846153846154,4,1,0,40,0,0
17183,-153.846153846154,4,1,0,45,0,0
17851,-153.846153846154,4,1,0,50,0,0
18438,-153.846153846154,4,1,0,54,0,0
22113,-100,4,1,0,60,0,0
32390,-100,4,2,0,60,0,0
32557,-100,4,1,0,60,0,0
43252,-100,4,1,0,60,0,1
64643,-153.846153846154,4,2,0,100,0,0
72664,-100,4,1,0,40,0,0
72998,-100,4,1,0,50,0,0
73332,-100,4,1,0,60,0,0
73667,-100,4,1,0,70,0,0
75338,-100,4,1,0,60,0,1
96227,-100,4,1,0,40,0,1
96728,-100,4,1,0,20,0,0

[Colours]
Combo1 : 255,255,0
Combo2 : 64,0,128
Combo3 : 255,128,0
SliderBorder : 0,0,0

[HitObjects]
32,88,472,2,0,B|112:96|144:24,1,126.749997733533,0|0
256,192,1307,1,0
256,192,1474,1,0
480,296,1808,6,0,B|400:288|368:352,1,126.749997733533,0|0
256,192,2643,1,0
256,192,2810,1,0
424,72,3145,6,0,B|496:16,2,63.3749988667667,0|0|0
368,112,3647,1,0
144,272,3981,1,0
144,272,4148,1,0
192,80,4482,6,0,B|256:56|320:80,1,126.749997733533
312,152,4984,2,0,B|208:240,1,126.749997733533
192,304,5485,2,0,B|256:328|320:304,2,126.749997733533
136,264,6320,5,0
256,56,6655,1,0
256,56,6822,2,0,B|256:184,1,126.749997733533
448,320,7490,1,0
448,320,7657,2,0,B|328:240,1,126.749997733533
256,192,8159,1,0
176,136,8326,1,0
96,80,8493,6,0,B|48:136|104:216,1,126.749997733533
89,316,8994,2,0,B|137:260|81:180,1,126.749997733533
192,192,9496,2,0,B|320:192,1,126.749997733533
472,64,10164,5,0
472,256,10498,1,0
400,320,10665,1,0
304,344,10832,1,0
208,344,11000,2,0,B|208:360,3,16.25
208,344,11167,6,0,B|80:240,1,130
104,120,11668,2,0,B|216:16,1,126.749997733533
304,32,12169,6,0,B|368:32,2,63.3749988667667
232,96,12671,1,0
160,160,12838,2,0,B|240:240,1,63.3749988667667
304,208,13172,1,0
376,272,13339,2,0,B|296:352,1,63.3749988667667
232,320,13673,1,0
136,320,13840,6,0,B|88:368,2,63.3749988667667
72,248,14342,2,0,B|24:192|40:128,1,126.749997733533
120,72,14843,6,0,B|200:32,1,63.3749988667667
288,40,15177,2,0,B|352:40,1,63.3749988667667
416,136,15512,2,0,B|336:136,1,63.3749988667667
352,248,15846,2,0,B|432:248,1,63.3749988667667
353,344,16180,2,0,B|288:344,1,63.3749988667667
176,344,16514,5,0
56,192,16849,1,0
200,56,17183,1,0
256,136,17350,1,0
312,56,17517,1,0
456,192,17851,21,0
336,344,18185,1,0
256,288,18353,1,0
176,344,18520,1,0
256,288,18687,1,0
256,192,18854,1,0
384,56,19188,5,0
384,56,19355,1,0
328,136,19522,1,0
256,72,19689,1,0
184,136,19857,1,0
128,56,20024,1,0
128,56,20191,1,0
256,192,20525,12,0,21695
256,192,21862,5,4
80,128,22196,5,0
80,128,22363,1,8
160,80,22530,2,2,B|256:24|360:64,1,195,2|2
440,96,23032,1,10
376,168,23199,2,0,B|456:224,1,97.5,0|0
456,320,23533,1,8
360,320,23700,2,0,B|280:288|224:360|160:304,1,195,2|2
96,248,24201,1,0
48,64,24369,6,0,B|128:144|256:112,1,195,0|10
320,88,24870,1,0
464,320,25037,5,0
376,272,25204,2,0,B|248:240|176:312,1,195,8|0
96,312,25705,2,0,B|24:232,1,97.5
32,144,26040,2,0,B|97:71,1,97.5,8|0
200,32,26374,5,0
312,352,26708,1,0
296,168,27042,5,0
209,211,27209,1,0
472,56,27544,5,0
472,56,27711,1,8
408,128,27878,2,0,B|336:224|208:176,1,195,2|2
144,144,28379,2,0,B|56:144|40:256|96:288,1,195,0|2
176,232,28881,1,8
256,184,29048,2,0,B|368:184|424:272,1,195,2|2
352,344,29549,5,0
256,312,29716,1,0
168,344,29883,1,0
96,272,30050,6,0,B|120:168|248:144,1,195,4|0
400,184,30552,2,0,B|376:80|248:56,1,195,4|0
168,56,31052,5,0
80,96,31220,2,0,B|40:128|32:192,2,97.5,0|0|8
160,152,31722,1,0
352,152,32056,1,0
456,256,32390,2,0,B|472:256,5,16.25
456,255,32557,6,0,B|480:144|391:85,1,195,0|8
256,72,33058,1,0
120,85,33226,2,0,B|32:144|55:255,1,195,0|8
128,320,33727,1,0
200,256,33894,2,0,B|224:160,1,97.5
256,72,34228,1,2
288,161,34395,2,0,B|312:256,1,97.5
384,320,34730,1,0
480,192,34897,5,8
32,192,35231,1,0
32,192,35398,1,0
96,120,35565,6,0,B|160:48|280:56,1,195,8|0
368,72,36066,1,0
448,128,36234,2,0,B|480:168|487:215,1,97.5,2|2
392,248,36568,2,0,B|399:295|431:335,2,97.5,0|0|8
336,168,37069,2,0,B|256:96|136:136,1,195
72,184,37570,1,8
232,296,37905,6,0,B|128:232|160:112,1,195,4|8
248,168,38406,1,0
232,72,38573,2,0,B|312:0|432:40,1,195,4|8
472,112,39074,1,0
400,176,39242,6,0,B|320:248,1,97.5
256,304,39576,1,8
184,241,39743,2,0,B|112:176,1,97.5,0|2
176,104,40077,1,0
96,48,40244,5,8
416,48,40578,1,0
416,48,40746,1,0
408,144,40913,6,0,B|340:211,1,97.5,8|0
256,80,41247,2,0,B|256:224,1,97.5
104,144,41581,2,0,B|171:211,1,97.5,8|0
256,344,41915,22,2,B|320:280|192:232|256:168,1,195,2|2
256,80,42417,1,0
256,192,42584,12,0,43252
392,224,43586,5,8
480,176,43754,1,0
392,136,43921,2,0,B|416:88|488:80,2,97.5,0|0|8
304,176,44422,2,2,B|232:248|120:224,1,195
48,168,44923,1,8
128,112,45090,2,0,B|240:144|248:288,1,195
256,352,45592,1,8
256,56,45926,5,0
448,192,46260,5,8
480,288,46427,1,0
400,344,46594,2,2,B|304:320,1,97.5,2|2
208,320,46929,1,8
112,336,47096,2,0,B|0:296|32:168,2,195,2|2|6
120,32,48099,5,0
112,128,48266,1,8
160,216,48433,2,0,B|232:296|336:272,1,195
424,232,48934,1,8
376,144,49101,2,2,B|303:63|199:87,1,195
112,128,49603,1,0
48,200,49770,6,0,B|8:248|16:296,2,97.5
120,264,50271,1,8
192,328,50438,2,0,B|320:320|376:248,1,195
448,200,50939,1,8
88,64,51274,6,0,B|192:40,1,97.5
144,128,51608,2,0,B|264:136,1,97.5,8|0
176,208,51942,2,2,B|288:248,1,97.5
192,296,52276,2,0,B|264:360,1,97.5,8|0
360,360,52611,2,0,B|488:344|488:240,1,195,0|8
464,144,53112,1,0
408,64,53279,2,0,B|360:16,7,48.7499985471368,0|0|0|0|8|8|8|8
408,64,53947,1,4
104,64,54282,5,0
104,64,54449,1,0
168,144,54616,1,2
168,144,54783,1,2
104,224,54950,1,8
168,304,55117,2,0,B|256:368|352:304,1,195
408,224,55619,1,8
344,144,55786,2,0,B|360:32|488:32,2,195,0|2|2
440,120,56621,1,6
72,264,56955,5,0
136,192,57123,1,0
64,128,57290,1,0
64,128,57373,1,0
64,128,57457,1,0
128,56,57624,1,8
224,32,57791,2,0,B|352:40|400:176,1,195
400,224,58292,1,2
320,272,58459,1,0
400,224,58627,1,2
104,224,58794,5,0
192,272,58961,1,8
104,224,59128,2,0,B|56:136|112:48|208:72,1,195,0|2
256,96,59629,1,0
192,168,59796,2,0,B|280:216|368:160|344:64,1,195
424,48,60298,1,8
456,136,60465,6,0,B|416:232|319:265,1,195
192,264,60966,1,10
192,264,61133,2,0,B|94:230|54:134,1,195
88,48,61635,1,8
320,320,61969,5,0
384,248,62136,2,0,B|464:144,1,97.5,0|8
344,168,62470,2,0,B|344:72,1,97.5,0|2
256,112,62804,1,2
168,72,62971,2,0,B|168:168,1,97.5,8|0
68,170,63306,2,0,B|128:248,1,97.5
192,320,63640,1,8
256,248,63807,1,4
256,192,63974,12,4,64643
96,56,64977,5,0
416,56,65311,1,8
136,144,65645,5,0
376,144,65979,1,2
168,248,66314,5,0
347,248,66648,1,8
256,352,66982,5,0
256,352,67149,1,0
256,352,67316,1,2
352,352,67484,2,0,B|440:336|464:232,1,126.749997733533
432,176,67985,2,0,B|288:176,1,126.749997733533,8|0
208,176,68486,2,0,B|64:176,1,126.749997733533,2|0
32,264,68988,1,2
32,360,69155,1,0
112,312,69322,5,2
400,312,69656,1,2
256,64,69990,1,0
256,320,70324,5,0
296,240,70492,1,0
376,192,70659,1,0
456,144,70826,1,0
456,240,70993,1,0
376,192,71160,1,0
296,144,71327,1,0
256,64,71494,1,0
216,144,71661,1,0
136,192,71828,1,0
56,240,71996,1,0
56,144,72163,1,0
136,192,72330,1,0
216,240,72497,1,0
256,320,72664,5,0
256,320,72831,1,0
376,192,72998,1,0
376,192,73165,1,0
256,64,73332,1,0
256,64,73500,1,0
136,192,73667,1,0
136,192,73835,1,0
256,192,74001,1,0
256,192,74168,12,4,75338
467,127,75672,5,8
421,26,75839,1,0
311,63,76006,1,0
200,63,76173,1,0
90,26,76340,1,8
44,127,76508,6,2,B|-1:219|44:293|90:348,1,195,2|2
160,192,77009,1,8
160,192,77176,2,0,B|368:192,1,195
424,48,77677,2,8,B|459:89|505:163|459:255,1,195,8|0
192,296,78346,5,8
88,344,78513,1,0
40,240,78680,1,2
88,344,78847,1,2
192,296,79014,1,8
144,184,79181,6,0,B|160:112|216:72|304:96,1,195,2|0
368,200,79683,2,0,B|352:272|296:312|208:288,1,195,2|2
192,88,80184,5,0
88,40,80351,1,8
40,144,80518,1,0
320,88,80853,5,0
424,40,81020,1,10
472,144,81187,1,0
256,320,81521,5,0
256,320,81688,1,8
168,248,81855,2,0,B|224:200|288:200|344:248,1,195,0|0
440,176,82357,1,8
400,64,82524,1,0
304,136,82691,2,0,B|208:136,1,97.5
112,64,83025,1,8
72,176,83192,1,0
48,288,83359,6,0,B|120:352,1,97.5
391,352,83693,2,0,B|464:287,1,97.5,8|0
464,96,84028,2,2,B|391:31,1,97.5
120,31,84362,2,0,B|48:96,1,97.5,8|0
72,192,84696,6,0,B|160:248|256:192,1,195,0|8
440,192,85197,2,0,B|352:136|256:192,1,195
256,72,85699,2,0,B|256:16,4,48.7499985471368
416,312,86367,6,0,B|464:344|512:336,2,97.5,8|0|2
368,224,86869,1,2
440,160,87036,1,8
407,71,87203,2,0,B|296:64|233:141,1,195,0|0
278,242,87704,1,8
278,242,87871,2,0,B|215:319|104:311,1,195,0|0
72,224,88373,1,8
144,160,88540,1,0
96,72,88707,1,0
416,72,89041,5,0
480,144,89208,1,0
480,240,89375,1,0
480,240,89459,1,0
480,240,89542,1,0
416,312,89709,1,8
320,344,89877,2,0,B|192:336|152:248,1,195
120,168,90378,1,2
176,88,90545,1,0
256,144,90712,1,2
392,168,90879,5,0
336,88,91046,1,8
256,144,91213,2,0,B|256:344,1,195,0|2
344,296,91715,1,8
424,240,91882,2,0,B|496:168|448:56,1,195
352,88,92383,1,8
256,32,92550,5,0
256,32,92634,1,0
256,32,92717,1,0
160,88,92885,1,0
200,188,93052,1,8
312,188,93219,1,0
256,280,93386,1,0
256,280,93469,1,0
256,280,93553,1,0
168,344,93720,1,8
80,280,93887,1,0
80,176,94054,6,0,B|160:112,1,97.5
355,115,94389,2,0,B|432:176,1,97.5,8|0
432,312,94723,6,2,B|320:312,1,97.5
72,312,95057,2,0,B|184:312,1,97.5,8|0
256,192,95391,5,0
336,120,95558,1,0
256,48,95726,1,8
176,120,95893,1,0
118,283,96227,6,2,B|232:352|320:224|400:280,1,292.5,2|4
