osu file format v9

[General]
AudioFilename: DJ SHARPNEL V.A - beautiful synergy.mp3
AudioLeadIn: 1500
PreviewTime: 1215
Countdown: 1
SampleSet: Normal
StackLeniency: 0.7
Mode: 0
LetterboxInBreaks: 1

[Editor]
DistanceSpacing: 1.2
BeatDivisor: 4
GridSize: 4

[Metadata]
Title:Beautiful Synergy
Artist:DJ Sharpnel & V.A.
Creator:galvenize
Version:Unsnapped diff (pinpointing timing)
Source:
Tags:

[Difficulty]
HPDrainRate:8
CircleSize:4
OverallDifficulty:7
ApproachRate:8
SliderMultiplier:1.4
SliderTickRate:1

[Events]
//Background and Video events
0,0,"sharp.jpg"
//Break Periods
2,42987,47224
2,84478,93879
//Storyboard Layer 0 (Background)
//Storyboard Layer 1 (Fail)
//Storyboard Layer 2 (Pass)
//Storyboard Layer 3 (Foreground)
//Storyboard Sound Samples
//Background Colour Transformations
3,100,163,162,255

[TimingPoints]
0,324.149108589951,4,1,0,80,1,0
47921,-100,4,2,0,100,0,0
94629,324.149108589951,4,2,0,100,1,0
102365,-100,4,1,0,50,0,0
103054,-100,4,1,0,80,0,0
103621,-100,4,1,0,80,0,0
146439,-100,4,2,0,80,0,0

[Colours]
Combo1 : 206,140,4
Combo2 : 244,253,198

[HitObjects]
92,64,1296,2,0,B|188:64,1,70,4|0
172,148,1620,2,0,B|252:120,1,70,8|0
296,184,1944,2,0,B|352:128,1,70
388,60,2269,1,8
388,60,2350,1,0
388,60,2431,1,0
452,116,2593,5,0
452,144,2674,1,0
452,172,2755,1,0
452,200,2836,1,0
452,228,2917,1,8
452,256,2998,1,0
452,284,3079,2,0,B|396:340,1,70
368,256,3403,1,0
304,200,3565,1,8
272,280,3727,1,0
244,280,3808,1,0
216,280,3889,5,0
188,280,3970,1,0
160,280,4051,1,0
132,280,4132,1,0
104,272,4213,1,8
84,252,4294,1,0
80,224,4376,1,0
80,196,4457,1,0
100,176,4538,1,0
124,164,4619,1,0
152,160,4700,1,0
180,160,4781,1,0
208,160,4862,2,0,B|260:160,4,35,8|0|0|0|0
232,80,5348,5,0
232,80,5510,1,8
312,196,5672,1,0
312,196,5834,1,0
388,76,5996,1,0
388,76,6158,1,8
468,192,6320,1,0
468,192,6482,6,0,B|372:192,1,70
360,268,6807,2,0,B|440:268,1,70,8|0
272,196,7131,2,0,B|184:196,1,70
216,280,7455,1,8
216,280,7536,1,0
216,280,7617,1,0
132,272,7779,5,0
112,252,7860,1,0
92,232,7941,1,0
76,212,8022,1,0
56,192,8103,1,8
52,164,8184,1,0
52,136,8265,1,0
52,108,8346,1,0
52,80,8427,5,0
132,108,8589,1,0
188,44,8752,1,8
220,124,8914,5,0
220,152,8995,1,0
220,180,9076,1,0
304,240,9238,1,0
304,212,9319,1,0
304,184,9400,1,8
392,124,9562,5,0
392,152,9643,1,0
392,180,9724,1,0
392,208,9805,1,0
392,236,9886,1,0
392,264,9967,1,0
392,292,10048,6,0,B|392:352,4,35,8|0|0|0|0
304,340,10534,1,0
224,280,10696,1,8
224,280,10858,1,0
128,280,11021,2,0,B|116:252|116:252|116:192,1,70
116,212,11264,1,0
116,212,11345,1,8
116,212,11426,1,0
116,212,11507,1,0
84,136,11669,6,0,B|164:136,1,70
180,56,11993,1,8
248,104,12155,1,0
248,104,12317,2,0,B|312:40,1,70
380,52,12641,1,8
380,52,12722,1,0
380,52,12803,1,0
352,132,12965,5,0
352,160,13047,1,0
352,188,13128,1,0
368,212,13209,1,0
388,232,13290,1,8
408,252,13371,1,0
408,280,13452,1,0
408,308,13533,1,0
408,336,13614,5,0
332,300,13776,1,0
256,332,13938,1,8
260,248,14100,5,0
232,248,14181,1,0
208,264,14262,1,0
184,280,14343,1,0
160,296,14424,1,0
136,312,14505,1,0
112,328,14586,1,8
92,248,14748,1,0
92,220,14829,1,0
92,192,14910,1,0
92,164,14991,1,0
92,136,15072,1,0
92,108,15153,1,0
92,80,15235,1,8
168,48,15397,1,0
168,48,15478,1,0
168,48,15559,5,0
224,176,15721,1,0
248,36,15883,1,8
224,176,16045,1,0
320,72,16207,1,0
224,176,16369,1,0
360,140,16531,1,8
224,176,16693,1,0
356,216,16855,6,0,B|448:260,1,70,4|0
320,280,17179,2,0,B|352:356,1,70,8|0
256,296,17504,2,0,B|256:384,1,70,0|0
180,332,17828,2,0,B|180:388,2,35,8|0|0
96,340,18152,5,0
72,324,18233,1,0
48,308,18314,1,0
68,288,18395,1,0
88,268,18476,1,8
112,252,18557,1,0
112,224,18638,1,0
112,196,18719,1,0
112,168,18800,5,0
56,80,18962,1,0
160,92,19124,1,8
192,192,19286,5,0
212,172,19367,1,0
232,152,19448,1,0
252,132,19529,1,0
272,116,19611,1,0
292,96,19692,1,0
312,76,19773,1,8
384,36,19935,1,0
412,36,20016,1,0
440,36,20097,1,0
468,36,20178,1,0
468,64,20259,1,0
468,92,20340,1,0
468,120,20421,1,8
468,148,20502,1,0
468,176,20583,1,0
468,204,20664,1,0
468,232,20745,6,0,B|388:284,1,70,4|0
272,236,21069,2,0,B|348:188,1,70,4|0
212,124,21393,2,0,B|152:168,1,70,4|0
16,140,21636,2,0,B|88:80,1,70,4|0
20,224,21961,5,0
68,292,22123,1,0
140,336,22285,1,8
224,344,22447,1,0
308,344,22609,1,0
392,344,22771,1,0
456,288,22933,5,8
436,268,23014,1,0
420,248,23095,1,0
480,188,23257,1,0
460,168,23338,1,0
440,148,23419,1,0
420,128,23500,1,0
400,108,23581,1,8
380,88,23662,1,0
360,68,23743,1,0
340,48,23824,1,0
312,48,23905,5,0
172,48,24068,1,0
172,188,24230,1,8
172,116,24392,5,0
200,120,24473,1,0
224,136,24554,1,0
240,160,24635,1,0
244,188,24716,1,0
240,216,24797,1,0
224,240,24878,1,8
200,256,24959,1,0
172,260,25040,1,0
144,256,25121,1,0
120,240,25202,1,0
104,216,25283,1,0
100,188,25364,1,0
108,160,25445,1,0
124,136,25607,1,8
148,124,25688,1,0
172,116,25769,6,0,B|172:36,1,70
256,48,26094,1,0
340,48,26256,2,0,B|424:48,1,70,8|0
408,132,26580,2,0,B|332:132,1,70
340,216,26904,2,0,B|424:216,1,70,8|0
408,300,27228,5,0
336,344,27390,1,0
256,240,27552,1,8
256,240,27714,1,0
104,300,27876,1,0
176,344,28038,1,0
256,240,28200,5,8
256,240,28282,1,0
256,240,28363,1,0
256,156,28525,1,0
256,128,28606,1,0
240,104,28687,1,0
220,88,28768,1,0
192,76,28849,1,8
164,76,28930,1,0
136,76,29011,1,0
108,76,29092,1,0
80,76,29173,6,0,B|48:168,1,70
28,220,29497,1,8
112,220,29659,1,0
108,248,29740,1,0
92,272,29821,5,0
72,292,29902,1,0
48,304,29983,1,0
20,308,30064,1,0
20,336,30145,1,8
20,364,30226,1,0
48,364,30307,1,0
76,364,30388,1,0
104,364,30470,1,0
128,348,30551,1,0
148,328,30632,1,0
168,308,30713,1,0
196,304,30794,1,8
224,304,30875,1,0
252,304,30956,1,0
280,304,31037,1,0
308,304,31118,5,0
392,192,31280,1,0
268,124,31442,1,8
392,60,31604,1,0
268,124,31766,2,0,B|112:124,2,140,0|8|4
396,128,32576,5,0
344,236,32739,1,8
256,316,32901,1,0
168,236,33063,1,0
116,128,33225,1,0
256,44,33387,1,8
256,44,33468,1,0
256,44,33549,1,0
256,128,33711,5,0
256,144,33792,1,0
256,160,33873,1,0
256,176,33954,1,0
256,192,34035,1,8
256,208,34116,1,0
256,224,34197,1,0
256,240,34278,1,0
256,256,34359,5,0
120,288,34521,1,0
392,288,34683,1,8
364,208,34846,5,0
364,192,34927,1,0
360,176,35008,1,0
352,160,35089,1,0
340,148,35170,1,0
324,140,35251,1,0
308,140,35332,1,8
204,140,35494,5,0
188,140,35575,1,0
172,148,35656,1,0
160,160,35737,1,0
152,176,35818,1,0
148,192,35899,1,0
148,208,35980,1,8
148,224,36061,1,0
148,240,36142,1,0
148,256,36223,1,0
148,272,36304,5,0
208,324,36466,1,0
312,332,36628,1,8
424,288,36790,1,0
480,160,36952,1,0
392,52,37115,1,0
392,192,37277,1,8
300,88,37439,1,0
256,160,37601,6,0,B|160:160,1,70,4|0
188,76,37925,2,0,B|104:76,1,70,8|0
100,224,38249,2,0,B|100:132,1,70
48,284,38573,5,8
60,308,38654,1,0
72,332,38735,1,0
148,296,38897,1,0
176,296,38978,1,0
204,296,39059,1,0
232,296,39141,1,0
260,296,39222,2,0,B|316:296,3,35,8|0|0|0
324,292,39546,5,0
388,240,39708,1,0
324,188,39870,1,8
400,156,40032,5,0
428,156,40113,1,0
456,156,40194,1,0
344,48,40356,1,0
372,48,40437,1,0
400,48,40518,1,8
256,112,40680,5,0
256,140,40761,1,0
244,164,40842,1,0
220,180,40923,1,0
196,192,41004,1,0
168,192,41085,1,0
140,192,41166,1,8
112,192,41247,1,0
84,192,41329,1,0
56,192,41410,1,0
28,192,41491,1,4
56,104,41653,5,4
56,280,41815,5,4
128,104,41977,5,4
128,280,42139,5,4
476,192,42463,6,2,B|304:192,1,140,2|4
152,68,47974,5,8
152,68,48298,1,8
256,200,48622,1,8
256,200,48703,1,0
256,200,48865,1,0
256,200,48946,1,8
384,92,49270,6,0,B|424:128,3,46.6666666666667,8|0|0|8
428,236,49837,1,0
400,260,49918,1,8
296,304,50162,1,0
272,332,50243,1,8
172,284,50486,1,0
172,284,50567,5,8
32,192,50891,1,8
100,36,51215,1,8
128,60,51296,1,0
156,84,51458,1,0
184,108,51539,1,8
332,192,51863,5,8
356,164,51944,1,0
360,128,52106,1,0
360,92,52188,1,8
472,88,52431,2,0,B|472:148,1,46.6666666666667,0|8
428,240,52755,2,0,B|428:304,1,46.6666666666667,0|8
320,312,53079,1,0
288,292,53160,6,0,B|204:224,1,93.3333333333333,8|0
192,284,53484,2,0,B|116:216,1,93.3333333333333,8|0
104,188,53808,2,0,B|56:144,3,46.6666666666667,8|0|0|8
204,52,54457,5,8
204,52,54538,1,0
204,52,54700,1,0
204,52,54781,1,8
256,152,55024,1,0
256,152,55105,1,8
308,52,55348,1,0
308,52,55429,1,8
360,152,55672,1,0
360,188,55753,6,0,B|360:340,2,140,8|8|8
360,152,56482,1,0
380,120,56645,1,0
400,152,56726,1,8
256,240,57050,1,8
220,240,57131,1,0
184,240,57293,1,0
148,240,57374,1,8
88,148,57617,1,0
76,156,57698,1,8
152,72,57941,1,0
144,60,58022,1,8
256,80,58265,1,0
256,80,58346,5,4
384,192,58670,1,8
256,300,58995,1,8
200,300,59076,1,0
144,300,59238,1,0
88,300,59319,1,8
136,140,59643,1,8
160,140,59724,1,0
184,140,59886,1,0
208,140,59967,1,8
312,100,60210,2,8,B|344:56,1,46.6666666666667,0|8
312,172,60534,2,8,B|348:220,1,46.6666666666667,0|8
428,140,60858,1,0
428,140,60940,6,0,B|428:252,1,93.3333333333333,8|0
448,264,61264,2,0,B|428:312|356:312,1,93.3333333333333,8|0
336,312,61588,1,8
300,312,61669,1,0
280,280,61831,1,0
300,248,61912,1,8
224,164,62236,5,4
244,108,62317,1,0
196,72,62479,1,0
148,108,62560,1,4
64,196,62803,1,0
64,256,62884,1,4
172,312,63128,1,0
172,276,63209,1,4
256,200,63452,1,0
256,256,63533,6,0,B|256:364,1,93.3333333333333,4|0
308,328,63857,2,0,B|308:224,1,93.3333333333333,8|0
360,212,64181,2,0,B|360:312,1,93.3333333333333,8|0
412,284,64505,2,0,B|412:172,1,93.3333333333333,8|0
412,136,64748,6,0,B|412:84,3,46.6666666666667,8|0|0|8
308,52,65316,1,0
308,52,65397,1,8
216,116,65640,1,0
216,116,65721,1,8
112,76,65964,1,0
80,96,66045,6,0,B|52:132|52:132|52:192,1,93.3333333333333,8|0
56,216,66369,2,0,B|92:244|92:244|152:244,1,93.3333333333333,8|0
176,240,66693,2,0,B|204:204|204:204|204:144,1,93.3333333333333,8|0
204,120,67017,2,0,B|240:96|240:96|304:96,1,93.3333333333333,8|0
328,96,67341,5,8
328,164,67423,1,0
328,232,67585,1,0
328,300,67666,1,8
428,248,67909,1,0
436,236,67990,1,8
452,124,68233,1,0
448,112,68314,1,8
368,36,68557,1,0
368,36,68638,5,4
260,68,68881,1,0
96,40,69205,1,0
232,140,69529,1,0
232,140,69611,2,0,B|128:140,1,93.3333333333333,8|0
100,140,69935,1,8
68,160,70016,1,0
68,196,70178,1,0
100,212,70259,2,0,B|152:212|152:212|212:244,1,93.3333333333333,8|0
220,256,70583,5,8
332,248,70826,1,0
364,228,70907,1,8
452,160,71150,1,0
452,160,71231,6,0,B|452:264,1,93.3333333333333,8|0
368,108,71799,1,0
212,52,72123,1,0
212,52,72204,1,8
120,116,72447,1,0
120,116,72528,5,12
196,264,72852,1,12
144,164,73176,1,12
168,216,73500,1,12
352,300,73824,6,0,B|396:260|396:260|396:220,1,93.3333333333333,8|2
396,216,74149,1,8
396,104,74392,2,0,B|256:104,1,140,0|2
256,104,74797,1,8
148,72,75040,1,0
116,92,75121,1,8
92,120,75202,1,0
84,156,75364,1,2
84,192,75445,1,0
188,236,75769,2,0,B|228:176,1,46.6666666666667
320,232,76094,2,0,B|320:160,1,46.6666666666667,2|8
456,48,76418,5,0
456,104,76499,2,0,B|456:220,1,93.3333333333333,8|2
400,192,76823,2,0,B|356:176|356:176|356:100,1,93.3333333333333,8|0
356,72,77147,2,0,B|252:72,1,93.3333333333333,8|2
240,20,77471,2,0,B|196:32|196:32|196:112,1,93.3333333333333,8|0
196,116,77795,5,0
196,152,77876,1,0
196,188,78038,1,2
196,224,78119,1,8
256,320,78363,1,0
256,320,78444,1,0
144,312,78687,1,2
144,312,78768,1,8
76,224,79011,1,0
76,224,79092,6,0,B|76:104,1,93.3333333333333,0|2
224,48,79659,2,0,B|224:192,1,140,2|2
224,224,80064,1,8
324,176,80307,1,0
324,176,80388,5,8
324,176,80470,1,0
324,176,80632,1,2
324,176,80713,1,8
392,88,80956,2,0,B|448:64,1,46.6666666666667,0|8
324,88,81280,2,0,B|264:64,1,46.6666666666667,2|8
176,28,81604,1,0
176,28,81685,1,8
80,84,81928,6,0,B|80:224,1,140,0|2
224,308,82576,1,2
224,308,82658,1,8
288,216,82901,1,0
324,216,82982,5,8
348,188,83063,1,0
372,160,83225,1,2
396,132,83306,1,8
308,64,83549,1,0
280,36,83630,1,8
188,100,83873,1,2
188,136,83954,1,8
188,248,84197,1,0
188,248,84278,1,4
256,40,94629,5,2
212,96,94953,1,2
256,152,95277,1,2
300,96,95601,1,2
256,40,95925,5,2
112,192,96249,1,2
256,344,96573,1,2
400,192,96898,1,2
256,40,97222,5,2
256,108,97546,1,2
256,176,97870,1,2
256,244,98194,1,2
256,40,98518,5,2
256,344,98842,1,2
256,40,99167,1,2
256,344,99491,1,2
256,40,99815,5,2
20,192,100139,1,2
256,344,100463,1,2
492,192,100787,1,2
256,40,101111,5,2
492,192,101436,1,2
256,344,101760,1,2
20,192,102084,1,2
164,304,102408,5,0
176,292,102489,1,0
188,280,102570,1,0
200,268,102651,1,0
212,256,102732,1,0
224,244,102813,1,0
236,232,102894,1,0
248,220,102975,1,0
256,204,103056,1,0
256,188,103137,1,0
256,172,103218,1,0
256,156,103299,1,0
256,140,103381,1,0
256,124,103462,1,0
256,108,103543,1,0
256,92,103624,1,0
256,76,103705,2,0,B|256:44,32,17.5
256,108,106298,6,0,B|256:16,1,70
324,108,106622,1,8
324,276,106784,1,0
324,192,106946,2,0,B|400:192,2,70,0|0|8
324,192,107351,1,0
324,192,107432,1,0
240,192,107594,5,0
212,192,107676,1,0
184,192,107757,1,0
156,192,107838,1,0
152,164,107919,1,8
168,140,108000,1,0
188,120,108081,1,0
208,100,108162,1,0
212,72,108243,5,0
348,40,108324,1,0
482,80,108486,1,8
492,164,108648,5,0
464,164,108729,1,0
436,164,108810,1,0
436,192,108891,1,0
436,220,108972,1,0
464,220,109053,1,0
492,220,109134,1,8
492,248,109215,1,0
492,276,109296,1,0
464,276,109377,1,0
436,276,109458,1,0
408,276,109539,1,0
380,276,109620,1,0
352,276,109701,1,0
324,276,109782,1,8
296,276,109864,1,0
268,276,109945,1,0
240,276,110026,1,0
212,276,110107,5,0
132,244,110269,1,0
132,244,110431,1,8
132,104,110593,2,0,B|132:184,1,70
60,176,110917,1,0
200,48,111079,1,8
200,48,111241,1,0
360,148,111403,6,0,B|360:248,1,70
280,240,111727,1,8
344,296,111889,1,0
344,296,112052,2,0,B|316:320|316:320|256:320,1,70
200,320,112376,1,8
200,320,112457,1,0
200,320,112538,1,0
200,236,112700,5,0
184,236,112781,1,0
168,244,112862,1,0
152,252,112943,1,0
140,264,113024,1,8
128,280,113105,1,0
124,296,113186,1,0
120,312,113267,1,0
120,328,113348,5,0
28,220,113510,1,0
120,112,113672,1,8
204,112,113834,5,0
244,112,113915,1,0
284,112,113996,1,0
324,112,114077,1,0
324,152,114158,1,0
324,192,114240,1,0
324,232,114321,1,8
364,232,114402,1,0
364,192,114483,1,0
364,152,114564,1,0
364,112,114645,5,0
404,112,114726,1,0
404,152,114807,1,0
404,192,114888,1,0
404,232,114969,1,8
444,232,115050,1,0
444,192,115131,1,0
444,152,115212,1,0
444,112,115293,1,0
424,32,115455,1,0
340,28,115617,1,8
256,28,115779,1,0
192,80,115941,6,0,B|120:144,1,70
139,126,116184,1,0
139,126,116265,1,8
139,126,116346,1,0
139,126,116428,1,0
139,126,116509,1,0
139,126,116590,5,0
140,212,116752,1,0
56,212,116914,2,0,B|56:304,1,70,8|0
140,280,117238,2,0,B|140:360,2,70,0|0|8
140,280,117643,1,0
140,280,117724,1,0
224,276,117886,5,0
264,276,117967,1,0
304,276,118048,1,0
344,276,118129,1,0
384,276,118210,1,8
424,200,118372,1,0
412,188,118453,1,0
400,176,118534,5,0
464,52,118697,1,0
340,120,118859,2,0,B|260:120,1,70,8|0
270,120,119102,1,0
270,120,119183,1,0
200,76,119345,1,0
200,76,119426,1,0
200,76,119507,1,8
132,24,119669,1,0
132,24,119750,1,0
132,24,119831,1,0
80,88,119993,1,0
80,128,120074,1,0
80,168,120155,1,8
80,208,120236,1,0
80,248,120317,1,0
80,288,120398,1,0
80,328,120479,6,0,B|172:328,1,70
264,248,120804,2,0,B|176:248,1,70,8|0
300,152,121128,2,0,B|392:152,1,70
480,64,121452,2,0,B|400:64,1,70,8|0
328,64,121776,5,0
256,140,121938,1,0
332,212,122100,1,8
436,216,122262,1,0
388,308,122424,1,0
284,312,122586,1,0
180,308,122748,2,0,B|180:260,2,35,8|0|0
100,244,123073,5,0
100,260,123154,1,0
100,276,123235,1,0
20,252,123397,1,8
20,212,123478,1,0
20,172,123559,1,0
20,132,123640,1,0
20,92,123721,2,0,B|88:40,1,70
75,49,124045,1,8
112,124,124288,5,0
124,112,124369,1,0
140,100,124450,1,0
152,88,124531,1,0
164,76,124612,1,0
176,64,124693,1,0
188,52,124774,1,8
288,80,124936,5,0
264,104,125017,1,0
240,128,125099,1,0
216,152,125180,1,0
192,176,125261,1,0
168,200,125342,1,0
144,224,125423,5,8
180,300,125585,1,0
256,336,125747,5,4
444,48,126071,1,4
68,48,126395,1,4
256,200,126719,5,4
256,200,126881,1,4
316,140,127043,2,0,B|376:88,1,70,0|0
316,244,127449,2,0,B|376:296,1,70,8|0
196,244,127773,2,0,B|136:296,1,70
200,144,128097,5,8
188,132,128178,1,0
176,120,128259,1,0
204,40,128421,1,0
168,40,128502,1,0
132,40,128583,1,0
96,40,128664,1,0
60,40,128745,2,0,B|24:40,4,35,8|0|0|0|0
80,120,129231,1,0
36,192,129393,1,8
120,192,129556,5,0
120,192,129637,1,0
120,192,129718,1,0
124,276,129880,1,0
148,292,129961,1,0
172,308,130042,1,8
200,308,130123,1,0
228,308,130204,1,0
256,308,130285,1,0
284,308,130366,2,0,B|336:308,3,35
348,308,130690,1,8
376,308,130771,1,0
404,308,130852,1,0
432,308,130933,1,0
460,308,131014,5,0
460,168,131176,1,0
352,80,131338,1,8
332,220,131500,1,0
216,48,131663,5,0
312,152,131825,1,0
200,236,131987,1,8
131,113,132149,1,0
69,238,132311,5,0
184,160,132473,1,0
184,160,132635,2,0,B|128:112,1,70,8|0
68,60,132959,1,0
130,114,133121,2,0,B|72:168,1,70,0|8
79,161,133364,1,0
79,161,133445,1,0
76,244,133607,5,0
76,260,133688,1,0
80,276,133770,1,0
88,292,133851,1,0
104,296,133932,1,8
120,296,134013,1,0
136,296,134094,1,0
152,296,134175,1,0
168,296,134256,5,0
256,188,134418,1,0
340,76,134580,1,8
424,76,134742,5,0
424,76,134823,1,0
424,76,134904,1,0
348,192,135066,1,0
348,192,135147,1,0
348,192,135228,1,8
488,192,135390,1,0
460,192,135471,1,0
432,192,135552,1,0
392,264,135714,1,0
428,340,135876,1,8
428,340,136039,5,0
388,340,136120,1,0
348,340,136201,1,0
264,340,136363,1,0
180,340,136525,1,8
180,256,136687,1,0
180,172,136849,2,0,B|40:172,2,140,0|8|0
256,132,137659,5,0
344,192,137821,1,8
432,132,137983,1,0
344,76,138146,1,0
256,20,138308,1,0
168,76,138470,1,8
168,76,138551,1,0
168,76,138632,1,0
84,76,138794,5,0
84,116,138875,1,0
84,156,138956,1,0
84,196,139037,1,0
84,236,139118,1,8
116,260,139199,1,0
148,284,139280,1,0
184,308,139361,1,0
224,308,139442,5,0
361,332,139604,1,0
424,207,139766,1,8
300,144,139928,5,0
320,124,140009,1,0
340,104,140090,1,0
212,240,140252,5,0
192,260,140334,1,0
172,280,140415,1,8
200,140,140577,1,0
200,140,140658,1,0
200,140,140739,1,0
312,244,140901,1,0
312,244,140982,1,0
312,244,141063,1,8
312,244,141144,1,0
312,244,141225,1,0
312,244,141306,1,0
312,244,141387,5,0
440,192,141468,1,0
312,140,141630,1,8
256,12,141792,1,0
200,140,141954,1,0
72,192,142116,1,0
200,244,142278,1,8
256,372,142440,1,0
312,244,142603,6,0,B|376:316,1,70
440,280,142927,1,8
388,216,143089,1,0
388,216,143251,2,0,B|388:124,1,70
384,64,143575,2,0,B|448:64,2,35,8|0|0
300,64,143899,5,0
272,64,143980,1,0
244,64,144061,1,0
216,64,144142,1,0
188,68,144223,1,8
164,84,144304,1,0
148,108,144385,1,0
144,136,144466,1,0
144,164,144547,6,0,B|144:256,2,70,0|0|8
228,164,145034,1,0
228,192,145115,1,0
228,220,145196,1,0
228,248,145277,1,0
228,276,145358,1,0
228,304,145439,1,0
208,324,145520,1,8
180,324,145601,1,0
152,324,145682,1,0
124,324,145763,1,0
96,324,145844,1,0
68,324,145925,1,0
68,296,146006,1,0
68,268,146087,1,0
68,240,146168,1,8
68,212,146249,1,0
68,184,146330,1,0
68,156,146411,1,0
68,128,146492,5,0
148,92,146654,1,0
228,60,146817,1,0
308,32,146979,1,0
308,32,147141,1,0
308,32,147465,1,2
