osu file format v7

[General]
AudioFilename: DJ Satomi - Castles in the Sky.mp3
AudioLeadIn: 1004
PreviewTime: 25809
Countdown: 0
SampleSet: Soft
StackLeniency: 0.8
Mode: 0
LetterboxInBreaks: 1

[Editor]
DistanceSpacing: 0.899999976158142
BeatDivisor: 2
GridSize: 8

[Metadata]
Title:Castles in the Sky
Artist:DJ Satomi
Creator:Hikato
Version:Normal
Source:
Tags:Trance Techno

[Difficulty]
HPDrainRate:4
CircleSize:4
OverallDifficulty:5
SliderMultiplier:1.2
SliderTickRate:1

[Events]
//Background and Video events
0,0,"bg.jpg"
//Break Periods
2,38089,48772
2,74338,85021
2,110587,121270
//Storyboard Layer 0 (Background)
//Storyboard Layer 1 (Fail)
//Storyboard Layer 2 (Pass)
//Storyboard Layer 3 (Foreground)
//Storyboard Sound Samples
//Background Colour Transformations
3,100,163,162,255

[TimingPoints]
1640,377.595972309629,4,2,0,80,1,0
49602,-100,4,1,0,80,0,0
86032,-100,4,2,0,80,0,0
122281,-100,4,1,0,80,0,0

[Colours]
Combo1 : 211,234,239
Combo2 : 122,151,252
Combo3 : 181,197,253

[HitObjects]
72,96,1639,6,0,C|168:64|232:96|304:88,1,240
360,176,2772,1,2
312,272,3150,2,0,C|152:272,2,120
256,176,4283,1,2
216,80,4660,5,0
320,40,5038,1,0
416,88,5415,2,0,C|248:152,1,120,0|2
256,232,6171,2,0,C|129:232,1,120
184,136,6926,2,0,C|184:-16,1,120,0|2
272,72,7681,6,0,B|392:192,1,120
344,264,8436,2,0,B|176:200,1,120,0|2
152,288,9191,1,0
48,248,9569,1,0
136,184,9947,2,0,B|136:17,1,120,0|2
240,88,10702,5,0
336,136,11079,1,0
360,240,11457,1,0
312,336,11835,1,2
212,294,12212,1,0
135,217,12590,1,0
211,140,12967,1,0
416,64,13723,6,0,B|324:17|290:98|249:98|178:66,1,240
120,152,14855,1,8
168,248,15233,2,0,B|242:213|322:261,3,120,0|0|0|8
376,192,16743,5,0
440,104,17121,1,0
328,104,17499,1,0
384,16,17876,1,8
328,104,18254,2,0,B|165:104,1,120
128,176,19009,2,0,B|287:175,1,120,0|8
328,248,19764,5,0
328,248,20142,1,0
419,190,20519,1,0
419,190,20897,1,8
328,248,21274,2,0,B|336:320|272:344,1,120
224,248,22030,2,0,B|232:176|304:160,1,120,0|8
219,85,22785,5,0
142,161,23162,2,0,B|-15:161,2,120,0|0|8
200,248,24295,2,0,B|367:247,2,120
58,111,25806,6,0,B|112:64|176:96,1,120,0|8
136,192,26561,2,0,B|192:240|256:192,1,120,0|8
288,96,27316,2,0,B|403:131|331:219|459:291,1,240
328,304,28449,1,4
240,240,28826,6,0,B|104:240,1,120,0|2
160,136,29582,2,0,B|280:88,1,120,0|2
304,192,30337,1,0
376,112,30714,1,8
424,208,31092,1,0
488,120,31470,1,8
424,208,31847,6,0,B|328:312|178:253,1,240,0|0
184,160,32980,1,8
112,240,33358,2,0,B|38:196|74:90,2,120,0|0|0
216,216,34490,1,8
312,168,34868,5,0
312,168,35246,1,8
216,112,35623,1,0
216,112,36001,1,8
256,192,36378,12,4,37889
77,94,49972,6,0,B|220:94,1,120
304,96,50727,1,8
304,96,51105,1,0
392,152,51482,2,0,B|312:256,1,120
232,184,52237,2,0,B|88:184,1,120,8|0
56,88,52993,5,0
112,184,53370,1,0
64,280,53748,1,8
168,296,54125,2,0,B|296:296,1,120
384,240,54881,2,0,B|312:248|266:173,1,120,0|8
200,120,55636,1,0
96,120,56013,6,0,B|83:193|155:233,1,120
128,328,56769,1,8
232,288,57146,1,0
312,360,57524,2,0,B|376:320|344:248,1,120
272,184,58279,2,0,B|394:183,1,120,8|0
432,80,59034,5,0
472,184,59412,1,0
368,168,59789,1,8
328,272,60167,2,0,B|193:272,1,120
136,192,60922,1,0
192,104,61300,1,8
400,64,62055,5,0
352,160,62432,1,8
448,216,62810,2,0,B|461:296|397:320,1,120,2|0
320,256,63565,2,0,B|176:256,1,120,0|8
104,208,64320,1,2
168,120,64698,6,0,B|224:80|296:112,1,120
240,208,65453,1,8
344,184,65831,1,2
296,280,66208,2,0,B|360:328|416:272,3,120,0|0|8|2
344,184,67719,6,0,B|221:183,1,120
144,112,68474,1,8
80,200,68852,1,2
168,264,69229,2,0,B|132:321|52:313,1,120
24,216,69984,1,8
64,120,70362,1,2
168,88,70740,6,0,B|293:88,3,120,0|0|8|2
367,156,72250,2,0,B|400:224|352:272,2,120,0|0|8
276,214,73383,2,0,B|224:256|160:232,1,120,2|0
208,136,74138,1,4
88,200,86221,6,0,B|88:272|160:296,1,120,0|8
240,232,86976,1,0
336,288,87354,1,8
432,240,87731,2,0,B|376:200|400:128,1,120,0|8
304,80,88487,2,0,B|176:80,1,120,0|4
184,192,89242,6,0,B|104:192|80:112,1,120,0|8
183,80,89997,1,2
312,256,90752,1,0
384,176,91130,1,0
432,272,91507,1,4
360,48,92263,6,0,B|344:136|296:56|280:136,1,120,0|8
208,200,93018,1,0
104,160,93395,2,0,B|120:96|168:136|184:72,2,120,8|0|8
104,268,94528,1,0
320,232,95283,6,0,B|448:232,2,120,0|2|0
320,232,96416,1,4
320,233,96794,2,0,B|190:233,2,120,0|2|0
427,233,97926,1,4
370,140,98304,6,0,B|264:80|248:224|136:184,1,240
64,248,99437,1,8
256,192,99814,12,4,100947
336,64,101325,5,0
336,64,101702,1,8
224,64,102080,1,0
224,64,102458,1,8
128,112,102835,2,0,B|80:184|152:240,2,120,0|8|0
224,160,103968,1,4
312,96,104346,6,0,B|424:136|248:248|448:304,1,240
304,320,105478,1,8
192,320,105856,2,0,B|117:344|45:288|37:224|45:176,1,240
136,128,106989,1,4
256,192,107366,6,0,B|344:104,1,120,0|8
256,192,108122,2,0,B|160:288,1,120,0|8
256,192,108877,12,4,110387
64,192,122470,6,0,B|56:120|128:96,2,120,0|8|0
160,248,123603,1,0
256,192,123981,2,0,B|380:192,2,120,0|8|0
332,115,125113,5,0
408,191,125491,1,0
331,267,125869,1,8
226,294,126246,2,0,B|96:294,1,120
159,199,127001,1,0
97,109,127379,2,0,B|168:72|224:112,1,120,8|0
456,192,128512,6,0,B|320:192,1,120,0|8
384,96,129267,1,0
272,96,129645,1,0
192,168,130022,2,0,B|192:304,2,120,0|8|0
272,240,131155,1,0
368,184,131533,6,0,B|368:56,2,120,0|8|0
440,264,132665,1,0
336,288,133043,2,0,B|272:264|216:304,1,120,0|8
120,264,133798,1,0
176,56,134553,6,0,B|216:136|304:56|320:56|392:120,1,240,0|2
352,216,135686,1,0
296,304,136064,2,0,B|171:356|159:224|62:267,1,240,0|2
106,160,137196,1,0
203,113,137574,5,0
254,207,137952,1,8
353,165,138329,1,2
375,270,138707,1,0
451,193,139084,2,0,B|472:120|392:88,2,120,0|8|2
376,272,140217,1,0
272,240,140595,6,0,B|195:316|139:188|43:244,1,240,0|2
42,132,141728,1,0
133,75,142105,1,0
174,174,142483,1,8
266,118,142860,1,2
174,175,143238,6,0,B|184:256|272:256,1,120
344,201,143993,1,8
396,295,144371,1,2
256,192,144748,12,4,145881
416,192,146259,5,0
308,192,146636,1,8
354,94,147014,2,0,B|226:94,1,120,8|2
138,143,147769,1,0
61,219,148147,1,8
109,315,148524,1,8
204,264,148902,2,0,B|336:264,1,120,2|0
256,176,149657,5,8
368,176,150035,1,8
444,99,150412,2,0,B|314:99,1,120,2|0
216,72,151168,1,8
160,168,151545,1,8
184,272,151923,1,2
291,272,152300,6,0,B|344:232|416:280,2,120,0|8|8
182,272,153433,1,2
157,166,153811,2,0,B|104:136|32:176,2,120,0|8|8
261,140,154943,1,2
261,248,155321,5,0
352,189,155699,1,8
443,245,156076,1,8
391,340,156454,1,2
293,342,156831,2,0,B|153:342,2,120,0|8|8
352,248,157964,2,0,B|232:184|104:256,1,240,2|0
