osu file format v7

[General]
AudioFilename: DJ Satomi - Castles in the Sky.mp3
AudioLeadIn: 1004
PreviewTime: 25809
Countdown: 0
SampleSet: Soft
StackLeniency: 0.8
Mode: 0
LetterboxInBreaks: 1

[Editor]
Bookmarks: 158719
DistanceSpacing: 0.699999988079071
BeatDivisor: 2
GridSize: 8

[Metadata]
Title:Castles in the Sky
Artist:DJ Satomi
Creator:Hikato
Version:Easy_HT
Source:
Tags:Xero_HT Trance Techno

[Difficulty]
HPDrainRate:1
CircleSize:3
OverallDifficulty:1
SliderMultiplier:0.8
SliderTickRate:1

[Events]
//Background and Video events
0,0,"bg.jpg"
//Break Periods
2,38089,42250
2,46396,48292
2,73583,84541
2,110587,120413
//Storyboard Layer 0 (Background)
//Storyboard Layer 1 (Fail)
//Storyboard Layer 2 (Pass)
//Storyboard Layer 3 (Foreground)
//Storyboard Sound Samples
//Background Colour Transformations
3,100,163,162,255

[TimingPoints]
1640,377.595972309629,4,2,0,41,1,0
7681,-100,4,2,0,50,0,0
10324,-100,4,2,0,71,0,0
10513,-100,4,2,1,90,0,0
13723,-100,4,2,0,100,0,0
18443,-100,4,2,2,91,0,0
43741,-100,4,1,0,72,0,0
44497,-100,4,1,0,50,0,0
45252,-100,4,1,0,31,0,0
46007,-100,4,1,0,20,0,0
49602,-100,4,1,0,91,0,0
86032,-100,4,2,0,31,0,0
92263,-100,4,2,0,90,0,0
121904,-100,4,1,0,90,0,0
158342,-100,4,1,0,0,0,0

[Colours]
Combo1 : 211,234,239
Combo2 : 122,151,252
Combo3 : 181,197,253

[HitObjects]
96,192,1640,2,0,L|96:280|144:336,1,160,2|0
176,224,3150,2,0,L|176:136|224:80,1,160,2|0
256,192,4660,6,0,L|256:280|208:336,1,160,2|0
320,336,6171,2,0,L|424:336,2,80,8|0|8
264,336,7303,1,0
208,336,7681,6,8,L|120:336|64:288,1,160
64,232,8814,2,0,L|64:136,3,80,0|8|0|8
64,96,10324,6,0,L|152:96|208:144,1,160
264,144,11457,1,8
320,144,11835,2,0,L|374:97|462:97,1,160
464,152,12967,1,8
352,152,13723,6,0,L|264:72,1,80
256,56,14478,1,8
200,56,14855,2,0,L|96:56,1,80
80,96,15611,1,0
80,152,15988,1,8
80,208,16366,6,0,L|80:304,1,80
128,320,17121,1,0
184,320,17499,1,8
240,320,17876,2,0,L|328:320|384:272,1,160
384,216,19009,2,2,L|432:216,1,40
352,128,19764,6,0,L|264:128|248:128,1,80,8|0
240,80,20519,2,0,L|136:80,1,80,8|0
136,128,21274,2,0,L|48:128,2,80,8|0|8
144,240,22785,6,0,L|248:240,1,80,8|0
248,288,23540,2,0,L|352:288,1,80,8|0
360,336,24295,2,0,L|472:336,2,80,8|0|8
232,248,25806,6,0,B|224:208|192:160|144:152|88:152|56:160|24:176|0:192,1,240,0|8
40,232,27316,2,0,B|80:224|128:192|136:144|136:88|128:56|112:24|96:0,1,240,0|8
168,48,28826,6,0,B|224:80|264:104,3,80,0|8|0|8
184,104,30337,2,0,B|186:92|170:124|162:156|162:212|170:260|218:292|258:300,1,240,0|8
312,304,31847,6,0,B|312:200|408:200|424:160|424:88,1,240,0|8
424,48,33358,2,0,B|320:48|320:144|280:160|208:160,1,240,0|8
224,216,34868,5,0
184,320,35623,2,0,B|304:320,2,80,8|0|8
256,192,36473,12,4,37889
96,96,43930,5,2
208,96,44685,5,2
320,96,45441,5,2
432,96,46196,5,2
264,288,49972,5,0
176,328,50538,2,2,B|120:328,1,40
88,296,51105,2,0,L|88:232|88:192,1,80
88,128,52049,2,2,B|144:128,1,40
168,88,52615,6,0,L|272:88|272:88,1,80
320,48,53559,2,2,B|400:48,1,40
400,88,54125,2,0,L|448:144|416:168,1,80
400,224,55069,2,2,B|320:224,1,40
296,136,56013,5,0
240,192,56579,2,2,B|184:192,1,40
200,248,57146,2,0,L|136:248|96:248,1,80
120,336,58090,2,2,B|176:336,1,40
216,336,58656,6,0,L|320:336|320:336,1,80
296,248,59600,2,2,B|376:248,1,40
376,208,60166,2,0,L|448:120,1,80
424,64,61110,2,2,B|344:64,1,40
264,64,62055,5,0
320,64,62432,1,0
376,64,62810,1,8
352,176,63565,1,0
352,232,63943,1,0
352,288,64320,1,8
248,248,65076,5,0
192,248,65453,1,0
136,248,65831,1,8
160,136,66586,2,0,B|160:48,2,80,0|0|8
256,192,68096,5,0
296,152,68474,1,0
336,192,68852,1,8
488,192,69607,1,0
448,152,69985,1,0
408,192,70363,1,8
352,296,71117,5,0
352,240,71495,1,0
352,184,71872,1,8
256,120,72628,1,4
256,120,73005,1,4
256,120,73383,1,4
120,104,86221,6,0,B|176:64|280:104,1,160
384,104,87731,2,0,B|328:64|224:104,1,160
312,160,89242,6,0,B|352:216|312:320,1,160
200,312,90752,2,0,B|160:256|200:152,1,160
288,96,92263,5,0
288,152,92640,2,0,B|288:272,2,80,0|8|0
232,152,93773,1,0
232,208,94151,2,0,B|232:328,2,80,0|8|0
176,208,95283,5,0
136,168,95661,1,0
96,208,96038,1,8
96,320,96794,2,0,B|200:320,2,80,0|0|8
176,248,98304,6,0,B|184:208|216:160|264:152|320:152|352:160|384:176|408:192,1,240,0|8
376,232,99814,2,0,B|416:224|464:192|472:144|472:88|464:56|448:24|432:0,1,240,0|8
392,32,101324,6,0,B|392:120,3,80,0|8|0|8
336,112,102835,2,0,B|334:100|350:132|358:164|358:220|350:268|302:300|262:308,1,240,0|8
216,280,104346,6,0,B|144:184|272:136|200:40,1,240,0|8
160,80,105856,2,0,B|64:136,3,80,0|8|0|8
88,176,107366,5,0
88,288,108122,2,0,B|200:288,2,80,8|0|8
256,192,108924,12,0,110387
144,232,122093,6,0,B|144:120,1,80
144,64,123037,1,2
168,64,123225,1,2
224,64,123603,2,0,B|224:176,1,80
224,232,124547,1,2
248,232,124736,1,2
304,232,125113,6,0,B|400:232,1,80
448,176,126057,2,2,B|392:176,1,40
352,176,126624,2,0,B|240:176,1,80
224,104,127568,1,2
248,104,127757,1,2
296,104,128134,6,0,B|392:104,1,80
328,176,129078,1,2
304,176,129267,1,2
256,208,129645,2,0,B|256:296,1,80
184,248,130589,1,2
160,248,130777,1,2
160,192,131155,6,0,B|160:96,1,80
216,152,132099,2,2,B|288:152|288:152,1,40
256,192,132665,12,4,133798
248,72,134553,6,0,B|168:144,2,80,0|0|8
248,184,136064,2,0,B|328:112,2,80,0|0|8
160,256,137574,6,0,B|100:309,2,80,0|0|8
48,248,139085,2,0,B|107:194,2,80,0|0|8
80,144,140595,5,0
120,184,140972,1,0
176,184,141350,1,8
288,184,142105,1,0
344,184,142483,1,0
384,144,142860,1,8
288,96,143616,5,0
232,96,143993,1,0
176,96,144371,1,8
232,192,145126,1,0
232,248,145504,1,0
192,288,145881,1,8
96,192,146636,5,0
144,216,147014,1,0
144,160,147391,1,8
192,128,147769,2,2,B|280:208,1,80
304,176,148524,1,0
288,232,148902,1,8
336,216,149279,6,2,B|448:248,1,80
472,240,150035,1,0
440,288,150412,1,8
384,288,150790,2,2,B|296:288,1,80
264,248,151545,1,0
224,288,151923,1,8
168,288,152300,6,2,B|56:288,1,80
48,248,153055,1,0
88,208,153433,1,8
144,208,153811,2,0,B|248:208,3,80,2|10|2|10
280,208,155321,6,2,B|384:208,1,80
416,208,156076,1,0
472,208,156454,1,8
472,152,156831,2,2,B|472:56,1,80
416,72,157587,1,0
256,192,157634,12,0,158719
