osu file format v9

[General]
AudioFilename: Dj Sadan - Theme of Laura.mp3
AudioLeadIn: 3000
PreviewTime: 22527
Countdown: 0
SampleSet: Normal
StackLeniency: 0.4
Mode: 1
LetterboxInBreaks: 0

[Editor]
Bookmarks: 28,11145,19704,22527,33822,42292,45116,51380,56939,64880,67704,78998,90292,98763,107233,110057,112880,118439,124086,132645
DistanceSpacing: 0.8
BeatDivisor: 4
GridSize: 4

[Metadata]
Title:Theme of Laura
Artist:DJ Sadan
Creator:IceBeam
Version:Taiko Oni
Source:
Tags:silent hill sh2 dnb mix akira yamaoka nivalis niva reiji-rj louis cyphre lucifer darkdunskin

[Difficulty]
HPDrainRate:6
CircleSize:7
OverallDifficulty:4
ApproachRate:10
SliderMultiplier:1.4
SliderTickRate:1

[Events]
//Background and Video events
0,0,"Taiko-BG.png"
//Break Periods
//Storyboard Layer 0 (Background)
//Storyboard Layer 1 (Fail)
//Storyboard Layer 2 (Pass)
//Storyboard Layer 3 (Foreground)
//Storyboard Sound Samples
//Background Colour Transformations
3,100,0,0,0

[TimingPoints]
32,352.941176470588,4,1,0,80,1,0
45208,-100,4,1,0,80,0,1
64973,-100,4,1,0,80,0,0
112973,-100,4,1,0,80,0,1
132737,-100,4,1,0,80,0,0

[Colours]
Combo1 : 183,207,236
Combo2 : 39,82,146
Combo3 : 48,155,214

[HitObjects]
260,188,32,1,0
260,188,384,1,0
260,188,737,1,0
260,188,1090,1,0
260,188,1443,1,8
260,188,1796,1,8
260,188,2149,1,8
260,188,2502,1,8
260,188,2855,1,0
260,188,3208,1,8
260,188,3561,1,0
260,188,3914,1,8
260,188,4267,1,8
260,188,4620,1,0
260,188,4973,1,8
260,188,5326,1,8
260,188,5679,1,0
260,188,6031,1,0
260,188,6384,1,0
260,188,6737,1,0
260,188,7090,1,8
260,188,7443,1,8
260,188,7796,1,8
260,188,8149,1,8
260,188,8502,1,0
260,188,8855,1,8
260,188,9208,1,0
260,188,9561,1,8
260,188,9914,1,8
260,188,10267,1,0
260,188,10620,1,8
260,188,10973,1,8
260,188,11326,5,0
260,188,11502,1,0
260,188,11590,1,0
260,188,11679,1,8
260,188,11855,1,8
260,188,12031,1,0
260,188,12120,1,0
260,188,12208,1,0
260,188,12384,1,8
260,188,12561,1,0
260,188,12737,1,0
260,188,12914,1,0
260,188,13002,1,0
260,188,13090,1,8
260,188,13267,1,8
260,188,13443,1,0
260,188,13531,1,0
260,188,13620,1,0
260,188,13796,1,8
260,188,13973,1,0
260,188,14149,1,0
260,188,14326,1,8
260,188,14414,1,0
260,188,14502,1,8
260,188,14679,1,8
260,188,14855,1,0
260,188,14943,1,0
260,188,15031,1,8
260,188,15120,1,8
260,188,15208,1,0
260,188,15384,1,8
260,188,15561,1,0
260,188,15737,1,8
260,188,15826,1,0
260,188,15914,1,8
260,188,16090,1,8
260,188,16267,1,0
260,188,16355,1,0
260,188,16443,1,8
260,188,16531,1,0
260,188,16620,1,8
260,188,16796,1,8
260,188,16973,1,0
260,188,17149,1,0
260,188,17237,1,0
260,188,17326,1,8
260,188,17502,1,8
260,188,17679,1,0
260,188,17767,1,0
260,188,17855,1,0
260,188,18031,1,8
260,188,18208,1,0
260,188,18384,1,0
260,188,18561,1,0
260,188,18649,1,0
260,188,18737,1,8
260,188,18914,1,8
260,188,19090,1,0
260,188,19179,1,0
260,188,19267,1,0
260,188,19355,1,0
260,188,19443,1,8
260,188,19796,5,0
260,188,20149,1,8
260,188,20326,1,0
260,188,20679,1,0
260,188,20855,1,8
260,188,21208,1,0
260,188,21384,1,0
260,188,21561,1,8
260,188,21737,1,0
260,188,21914,1,8
260,188,22002,1,8
260,188,22090,1,0
260,188,22179,1,0
260,188,22267,1,8
260,188,22443,1,0
260,188,22620,5,0
260,188,22796,1,0
260,188,22973,1,8
260,188,23149,1,0
260,188,23326,1,0
260,188,23414,1,0
260,188,23502,1,0
260,188,23679,1,8
260,188,23855,1,0
260,188,24031,1,0
260,188,24208,1,0
260,188,24384,1,8
260,188,24561,1,0
260,188,24737,1,0
260,188,24826,1,8
260,188,24914,1,0
260,188,25090,1,8
260,188,25267,1,0
260,188,25443,1,0
260,188,25620,1,0
260,188,25796,1,8
260,188,25973,1,0
260,188,26149,1,8
260,188,26237,1,8
260,188,26326,1,8
260,188,26502,1,8
260,188,26679,1,0
260,188,26855,1,0
260,188,27031,1,0
260,188,27208,1,8
260,188,27384,1,0
260,188,27561,1,0
260,188,27649,1,8
260,188,27737,1,0
260,188,27914,1,8
260,188,28090,1,0
260,188,28267,1,0
260,188,28443,1,0
260,188,28620,1,8
260,188,28796,1,0
260,188,28973,1,0
260,188,29061,1,0
260,188,29149,1,0
260,188,29326,1,8
260,188,29502,1,0
260,188,29679,1,0
260,188,29855,1,0
260,188,30031,1,8
260,188,30208,1,0
260,188,30384,1,0
260,188,30473,1,8
260,188,30561,1,0
260,188,30737,1,8
260,188,30914,1,0
260,188,31090,1,0
260,188,31267,1,8
260,188,31355,1,0
260,188,31443,1,8
260,188,31620,1,8
260,188,31796,1,0
260,188,31884,1,0
260,188,31973,1,8
260,188,32061,1,8
260,188,32149,1,0
260,188,32326,1,8
260,188,32502,1,0
260,188,32679,1,8
260,188,32767,1,0
260,188,32855,1,8
260,188,33031,1,8
260,188,33120,1,8
260,188,33208,1,0
260,188,33296,1,8
260,188,33384,1,0
260,188,33561,1,8
260,188,33737,1,0
260,188,33914,5,0
260,188,34090,1,0
260,188,34267,1,8
260,188,34443,1,0
260,188,34620,1,0
260,188,34708,1,0
260,188,34796,1,0
260,188,34884,1,0
260,188,34973,1,8
260,188,35149,1,0
260,188,35326,1,0
260,188,35502,1,0
260,188,35679,1,8
260,188,35855,1,0
260,188,36032,1,0
260,188,36120,1,8
260,188,36208,1,0
260,188,36296,1,0
260,188,36384,1,8
260,188,36561,1,0
260,188,36737,1,0
260,188,36914,1,0
260,188,37090,1,8
260,188,37267,1,0
260,188,37443,1,0
260,188,37532,1,0
260,188,37620,1,0
260,188,37708,1,0
260,188,37796,1,8
260,188,37973,1,0
260,188,38149,1,0
260,188,38326,1,0
260,188,38502,1,8
260,188,38679,1,0
260,188,38855,1,0
260,188,38943,1,8
260,188,39032,1,0
260,188,39120,1,0
260,188,39208,1,8
260,188,39384,1,0
260,188,39561,1,0
260,188,39737,1,8
260,188,39826,1,0
260,188,39914,1,8
260,188,40090,1,8
260,188,40267,1,0
260,188,40355,1,0
260,188,40443,1,8
260,188,40532,1,8
260,188,40620,1,0
260,188,40796,1,8
260,188,40973,1,0
260,188,41149,1,8
288,192,41237,1,0
260,188,41326,1,8
260,188,41502,1,8
260,188,41679,1,8
260,188,41767,1,8
260,188,41855,1,0
260,188,41943,1,0
260,188,42032,1,8
260,188,42208,1,0
260,188,42384,5,0
260,188,42561,1,0
260,188,42737,1,8
260,188,43090,1,0
260,188,43179,1,8
260,188,43267,1,0
260,188,43443,1,8
260,188,43796,1,0
260,188,43973,1,0
260,188,44149,1,8
260,188,44502,1,0
260,188,44679,1,0
260,188,44855,1,0
260,188,45032,1,8
260,188,45208,5,0
260,188,45384,1,0
260,188,45561,1,8
260,188,45914,1,0
260,188,46090,1,8
260,188,46179,1,0
260,188,46267,1,0
260,188,46443,1,8
260,188,46620,1,0
260,188,46796,1,0
260,188,46973,1,8
260,188,47326,1,0
260,188,47502,1,8
260,188,47590,1,8
260,188,47679,1,0
260,188,47767,1,0
260,188,47855,1,8
260,188,48032,1,0
260,188,48208,1,0
260,188,48384,1,8
260,188,48737,1,0
260,188,48914,1,8
260,188,49002,1,8
260,188,49090,1,0
260,188,49267,1,8
260,188,49443,1,0
260,188,49620,1,0
260,188,49796,1,8
260,188,50149,1,0
260,188,50326,1,8
260,188,50414,1,0
260,188,50502,1,0
260,188,50590,1,0
260,188,50679,1,8
260,188,50855,1,0
260,188,51032,1,0
260,188,51208,1,8
260,188,51561,5,0
260,188,51737,1,8
260,188,51826,1,0
260,188,51914,1,0
260,188,52090,1,8
260,188,52267,1,0
260,188,52355,1,0
260,188,52443,1,8
260,188,52620,1,0
260,188,52973,1,0
260,188,53149,1,8
260,188,53237,1,8
260,188,53326,1,0
260,188,53414,1,0
260,188,53502,1,8
260,188,53679,1,0
260,188,53855,1,0
260,188,53943,1,0
260,188,54032,1,8
260,188,54384,1,0
260,188,54561,1,8
260,188,54649,1,8
260,188,54737,1,0
260,188,54914,1,8
260,188,55090,1,0
260,188,55179,1,0
260,188,55267,1,8
260,188,55443,1,0
260,188,55796,1,0
260,188,55973,1,8
260,188,56061,1,0
260,188,56149,1,0
260,188,56237,1,0
260,188,56326,1,8
260,188,56502,1,0
260,188,56679,1,0
260,188,56767,1,0
260,188,56855,1,8
260,188,57032,5,0
260,188,57120,1,8
260,188,57208,1,0
260,188,57384,1,8
260,188,57473,1,0
260,188,57561,1,0
260,188,57737,1,8
260,188,57914,1,0
260,188,58090,1,0
260,188,58267,1,8
260,188,58443,1,0
260,188,58532,1,8
260,188,58620,1,0
260,188,58796,1,8
260,188,58884,1,8
260,188,58973,1,0
260,188,59061,1,0
260,188,59149,1,8
260,188,59326,1,0
260,188,59502,1,0
260,188,59679,1,8
260,188,59855,1,0
260,188,59943,1,8
260,188,60032,1,0
260,188,60208,1,8
260,188,60296,1,8
260,188,60384,1,0
260,188,60561,1,8
260,188,60737,1,0
260,188,60914,1,0
260,188,61090,1,8
260,188,61267,1,0
260,188,61355,1,8
260,188,61443,1,0
260,188,61620,1,8
260,188,61708,1,0
260,188,61796,1,0
260,188,61884,1,0
260,188,61973,1,8
260,188,62149,1,0
260,188,62326,1,0
260,188,62502,1,8
260,188,62679,1,0
260,188,62767,1,8
260,188,62855,5,0
260,188,63032,1,8
260,188,63120,1,0
260,188,63208,1,0
260,188,63384,1,8
260,188,63561,1,0
260,188,63649,1,0
260,188,63737,1,8
260,188,63914,1,0
260,188,64090,1,0
260,188,64179,1,8
260,188,64267,1,0
260,188,64443,1,8
260,188,64532,1,8
260,188,64620,1,0
260,188,64708,1,0
260,188,64796,1,8
260,188,64973,5,0
260,188,65149,1,0
260,188,65326,1,8
260,188,65855,1,0
260,188,66032,1,8
260,188,66208,1,0
260,188,66384,1,0
260,188,66561,1,0
260,188,66737,1,8
260,188,67090,1,0
260,188,67179,1,8
260,188,67267,1,0
260,188,67443,1,8
260,188,67532,1,0
260,188,67620,1,8
260,188,67796,5,0
260,188,67973,1,8
260,188,68061,1,0
260,188,68149,1,0
260,188,68326,1,8
260,188,68502,1,0
260,188,68590,1,0
260,188,68679,1,0
260,188,68855,1,8
260,188,69032,1,0
260,188,69208,1,0
260,188,69384,1,8
260,188,69473,1,8
260,188,69561,1,0
260,188,69737,1,8
260,188,69914,1,0
260,188,70002,1,8
260,188,70090,1,0
260,188,70267,1,8
260,188,70443,1,0
260,188,70620,1,0
260,188,70796,1,8
260,188,70884,1,0
260,188,70973,1,0
260,188,71149,1,8
260,188,71326,1,8
260,188,71414,1,8
260,188,71502,1,8
260,188,71679,1,8
260,188,71855,1,0
260,188,72032,1,0
260,188,72208,1,8
260,188,72296,1,8
260,188,72384,1,0
260,188,72561,1,8
260,188,72737,1,0
260,188,72826,1,8
260,188,72914,1,0
260,188,73090,1,8
260,188,73267,1,0
260,188,73443,1,0
260,188,73620,1,8
260,188,73708,1,0
260,188,73796,1,0
260,188,73973,1,8
260,188,74149,1,0
260,188,74237,1,0
260,188,74326,1,0
260,188,74502,1,8
260,188,74679,1,0
260,188,74855,1,0
260,188,75032,1,8
260,188,75120,1,8
260,188,75208,1,0
260,188,75384,1,8
260,188,75561,1,0
260,188,75649,1,8
260,188,75737,1,0
260,188,75914,1,8
260,188,76090,1,0
260,188,76267,1,0
260,188,76443,1,8
260,188,76532,1,0
260,188,76620,1,8
260,188,76796,1,8
260,188,76973,1,0
260,188,77061,1,0
260,188,77149,1,8
260,188,77237,1,8
260,188,77326,1,0
260,188,77502,1,8
260,188,77679,1,0
260,188,77855,1,8
260,188,77943,1,0
260,188,78032,1,8
260,188,78208,1,8
260,188,78296,1,8
260,188,78384,1,0
260,188,78473,1,8
260,188,78561,1,0
260,188,78737,1,8
260,188,78914,1,0
260,188,79090,5,0
260,188,79443,1,0
260,188,79796,1,0
260,188,80149,1,0
260,188,80502,1,8
260,188,80855,1,8
260,188,81208,1,8
260,188,81561,1,8
260,188,81914,1,0
260,188,82267,1,8
260,188,82620,1,0
260,188,82973,1,8
260,188,83326,1,8
260,188,83679,1,0
260,188,84032,1,8
260,188,84384,1,8
260,188,84737,1,0
260,188,85090,1,0
260,188,85443,1,0
260,188,85796,1,0
260,188,86149,1,8
260,188,86502,1,8
260,188,86855,1,8
260,188,87208,1,8
260,188,87561,1,0
260,188,87914,1,8
260,188,88267,1,0
260,188,88355,1,8
260,188,88443,1,0
260,188,88620,1,8
260,188,88973,1,8
260,188,89326,1,0
260,188,89679,1,8
260,188,89855,1,8
260,188,90032,1,0
260,188,90208,1,8
260,188,90384,5,0
260,188,90561,1,0
260,188,90649,1,0
260,188,90737,1,8
260,188,90914,1,8
260,188,91090,1,0
260,188,91179,1,0
260,188,91267,1,0
260,188,91443,1,8
260,188,91620,1,0
260,188,91796,1,0
260,188,91973,1,0
260,188,92061,1,0
260,188,92149,1,8
260,188,92326,1,8
260,188,92502,1,0
260,188,92590,1,0
260,188,92679,1,0
260,188,92855,1,8
260,188,93032,1,0
260,188,93208,1,0
260,188,93384,1,8
260,188,93473,1,0
260,188,93561,1,8
260,188,93737,1,8
260,188,93914,1,0
260,188,94002,1,0
260,188,94090,1,8
260,188,94179,1,8
260,188,94267,1,0
260,188,94443,1,8
260,188,94620,1,0
260,188,94796,1,8
260,188,94884,1,0
260,188,94973,1,8
260,188,95149,1,8
260,188,95326,1,0
260,188,95414,1,0
260,188,95502,1,8
260,188,95590,1,0
260,188,95679,1,8
260,188,95855,1,8
260,188,96032,1,0
260,188,96208,1,0
260,188,96296,1,0
260,188,96384,1,8
260,188,96561,1,8
260,188,96737,1,0
260,188,96826,1,0
260,188,96914,1,0
260,188,97090,1,8
260,188,97267,1,0
260,188,97443,1,0
260,188,97620,1,0
260,188,97708,1,0
260,188,97796,1,8
260,188,97973,1,8
260,188,98149,1,0
260,188,98237,1,0
260,188,98326,1,0
260,188,98414,1,0
260,188,98502,1,8
260,188,98679,1,0
260,188,98855,5,8
260,188,99032,1,0
260,188,99120,1,0
260,188,99208,1,8
260,188,99384,1,0
260,188,99473,1,0
260,188,99561,1,8
260,188,99649,1,8
260,188,99737,1,0
260,188,99826,1,0
260,188,99914,1,8
260,188,100090,1,8
260,188,100267,1,8
260,188,100443,1,0
260,188,100532,1,0
260,188,100620,1,8
260,188,100796,1,8
260,188,100884,1,8
260,188,100973,1,0
260,188,101061,1,0
260,188,101149,1,8
260,188,101237,1,0
260,188,101326,1,8
260,188,101502,1,8
260,188,101679,1,0
260,188,101855,1,8
260,188,101943,1,0
260,188,102032,1,8
260,188,102208,1,0
260,188,102296,1,0
260,188,102384,1,8
260,188,102561,1,8
260,188,102737,1,0
260,188,102914,1,8
260,188,103090,1,0
260,188,103267,1,8
260,188,103355,1,8
260,188,103443,1,8
260,188,103620,1,8
260,188,103708,1,0
260,188,103796,1,8
260,188,103973,1,8
260,188,104149,1,0
260,188,104326,1,8
260,188,104502,1,0
260,188,104590,1,0
260,188,104679,1,8
260,188,104767,1,8
260,188,104855,1,0
260,188,105032,1,8
260,188,105120,1,0
260,188,105208,1,0
260,188,105384,1,8
260,188,105561,1,0
260,188,105737,1,8
260,188,105914,1,0
260,188,106002,1,0
260,188,106090,1,8
260,188,106179,1,8
260,188,106267,1,0
260,188,106443,1,8
260,188,106532,1,8
260,188,106620,1,0
260,188,106796,1,8
260,188,106973,1,0
260,188,107149,1,8
260,188,107326,5,0
260,188,107502,1,0
260,188,107590,1,0
260,188,107679,1,8
260,188,107855,1,0
260,188,108032,1,0
260,188,108120,1,0
260,188,108208,1,0
260,188,108384,1,8
260,188,108561,1,0
260,188,108737,1,0
260,188,108914,1,0
260,188,109002,1,0
260,188,109090,1,8
260,188,109267,1,0
260,188,109443,1,0
260,188,109532,1,8
260,188,109620,1,0
260,188,109796,1,8
260,188,109973,1,0
260,188,110149,1,0
260,188,110326,1,0
260,188,110502,1,8
260,188,110855,1,0
260,188,110943,1,8
260,188,111032,1,0
260,188,111208,1,8
260,188,111384,1,0
260,188,111561,1,0
260,188,111737,1,0
260,188,111914,1,8
260,188,112267,1,8
260,188,112355,1,8
260,188,112443,1,0
260,188,112532,1,0
260,188,112620,1,8
260,188,112708,1,8
260,188,112796,1,0
260,188,112973,1,0
260,188,113149,1,0
260,188,113237,1,0
260,188,113326,1,8
260,188,113502,1,0
260,188,113679,1,0
260,188,113767,1,0
260,188,113855,1,0
260,188,114032,1,8
260,188,114384,1,0
260,188,114561,1,0
260,188,114649,1,0
260,188,114737,1,8
260,188,114914,1,0
260,188,115090,1,0
260,188,115179,1,8
260,188,115267,1,0
260,188,115443,1,8
260,188,115796,1,0
260,188,115973,1,8
260,188,116061,1,0
260,188,116149,1,8
260,188,116326,1,8
260,188,116502,1,0
260,188,116590,1,0
260,188,116679,1,8
260,188,116767,1,8
260,188,116855,1,0
260,188,117208,1,0
260,188,117384,1,8
260,188,117473,1,0
260,188,117561,1,8
260,188,117737,1,8
260,188,117826,1,8
260,188,117914,1,0
260,188,118002,1,8
260,188,118090,1,0
260,188,118267,1,8
260,188,118620,5,0
260,188,118796,1,8
260,188,118884,1,8
260,188,118973,1,8
260,188,119149,1,8
260,188,119326,1,0
260,188,119414,1,0
260,188,119502,1,0
260,188,119679,1,8
260,188,120032,1,0
260,188,120208,1,8
260,188,120296,1,8
260,188,120384,1,8
260,188,120561,1,8
260,188,120737,1,0
260,188,120826,1,0
260,188,120914,1,0
260,188,121002,1,0
260,188,121090,1,8
260,188,121443,1,0
260,188,121620,1,8
260,188,121708,1,0
260,188,121796,1,8
260,188,121973,1,8
260,188,122149,1,0
260,188,122237,1,0
260,188,122326,1,8
260,188,122414,1,8
260,188,122502,1,0
260,188,122855,1,0
260,188,123032,1,8
260,188,123120,1,0
260,188,123208,1,8
260,188,123384,1,8
260,188,123473,1,8
260,188,123561,1,0
260,188,123649,1,8
260,188,123737,1,0
260,188,123914,1,8
260,188,124267,5,0
260,188,124443,1,8
260,188,124532,1,0
260,188,124620,1,0
260,188,124796,1,8
260,188,124884,1,8
260,188,124973,1,0
260,188,125061,1,0
260,188,125149,1,8
260,188,125326,1,0
260,188,125414,1,0
260,188,125502,1,8
260,188,125679,1,0
260,188,125855,1,8
260,188,125943,1,8
260,188,126032,1,0
260,188,126208,1,8
260,188,126296,1,8
260,188,126384,1,0
260,188,126473,1,0
260,188,126561,1,8
260,188,126737,1,0
260,188,126826,1,0
260,188,126914,1,8
260,188,127090,1,8
260,188,127267,1,0
260,188,127355,1,0
260,188,127443,1,8
260,188,127620,1,8
260,188,127708,1,0
260,188,127796,1,8
260,188,127884,1,8
260,188,127973,1,8
260,188,128061,1,0
260,188,128149,1,0
260,188,128237,1,0
260,188,128326,1,8
260,188,128502,1,8
260,188,128679,1,0
260,188,128767,1,0
260,188,128855,1,8
260,188,129032,1,8
260,188,129120,1,0
260,188,129208,1,8
260,188,129296,1,8
260,188,129384,1,8
260,188,129561,1,8
260,188,129914,1,0
260,188,130090,1,8
260,188,130179,1,0
260,188,130267,1,0
260,188,130443,1,8
260,188,130532,1,8
260,188,130620,1,0
260,188,130708,1,0
260,188,130796,1,8
260,188,130973,1,0
260,188,131061,1,0
260,188,131149,1,8
260,188,131326,1,0
260,188,131502,1,8
260,188,131590,1,8
260,188,131679,1,0
260,188,131855,1,8
260,188,131943,1,8
260,188,132032,1,0
260,188,132120,1,0
260,188,132208,1,8
260,188,132384,1,0
260,188,132473,1,0
260,188,132561,1,8
260,188,132737,5,0
260,188,133090,1,8
260,188,133443,1,0
260,188,133532,1,8
260,188,133620,1,0
260,188,133796,1,8
260,188,133973,1,0
260,188,134149,1,0
260,188,134502,1,8
260,188,134855,1,0
260,188,135032,1,8
260,188,135120,1,0
260,188,135208,1,0
260,188,135384,1,8
260,188,135561,1,0
