osu file format v9

[General]
AudioFilename: Dj Sadan - Theme of Laura.mp3
AudioLeadIn: 0
PreviewTime: 22527
Countdown: 0
SampleSet: Soft
StackLeniency: 0.4
Mode: 0
LetterboxInBreaks: 0

[Editor]
DistanceSpacing: 1.1
BeatDivisor: 4
GridSize: 4

[Metadata]
Title:Theme of Laura
Artist:DJ Sadan
Creator:IceBeam
Version:Hard
Source:
Tags:silent hill sh2 dnb mix akira yamaoka nivalis niva reiji-rj louis cyphre lucifer darkdunskin

[Difficulty]
HPDrainRate:5
CircleSize:4
OverallDifficulty:6
ApproachRate:7
SliderMultiplier:1.4
SliderTickRate:1

[Events]
//Background and Video events
0,0,"BG.png"
//Break Periods
2,79290,86661
//Storyboard Layer 0 (Background)
//Storyboard Layer 1 (Fail)
//Storyboard Layer 2 (Pass)
//Storyboard Layer 3 (Foreground)
//Storyboard Sound Samples
//Background Colour Transformations
3,100,0,0,0

[TimingPoints]
32,352.941176470588,4,2,1,20,1,0
10884,-100,4,1,1,30,0,0
11237,-100,4,1,1,60,0,0
12473,-100,4,2,1,60,0,0
12649,-100,4,1,1,60,0,0
13355,-100,4,2,1,60,0,0
13531,-100,4,1,1,60,0,0
13884,-100,4,2,1,60,0,0
14061,-100,4,1,1,60,0,0
14237,-100,4,2,1,60,0,0
14414,-100,4,1,1,60,0,0
14590,-100,4,2,1,60,0,0
14767,-100,4,1,1,60,0,0
14943,-100,4,2,1,60,0,0
15120,-100,4,1,1,60,0,0
15296,-100,4,2,1,60,0,0
15473,-100,4,1,1,60,0,0
18120,-100,4,2,1,60,0,0
18296,-100,4,1,1,60,0,0
19708,-100,4,1,1,40,0,0
21826,-100,4,1,1,20,0,0
22002,-100,4,1,1,30,0,0
22179,-100,4,1,1,40,0,0
22355,-100,4,1,1,50,0,0
22620,-100,4,1,1,60,0,1
22708,-100,4,1,1,60,0,0
23237,-100,4,2,1,60,0,0
23414,-100,4,1,1,60,0,0
23767,-100,4,2,1,60,0,0
23943,-100,4,1,1,60,0,0
24649,-100,4,2,1,60,0,0
24826,-100,4,1,1,60,0,0
25179,-100,4,2,1,60,0,0
25355,-100,4,1,1,60,0,0
25531,-100,4,2,1,60,0,0
25708,-100,4,1,1,60,0,0
25884,-100,4,2,1,60,0,0
26061,-100,4,1,1,60,0,0
26237,-100,4,2,1,60,0,0
26414,-100,4,1,1,60,0,0
26590,-100,4,2,1,60,0,0
26767,-100,4,1,1,60,0,0
29414,-100,4,2,1,60,0,0
29590,-100,4,1,1,60,0,0
30826,-100,4,2,1,60,0,0
31002,-100,4,1,1,60,0,0
31179,-100,4,2,1,60,0,0
31355,-100,4,1,1,60,0,0
31531,-100,4,2,1,60,0,0
31708,-100,4,1,1,60,0,0
31884,-100,4,2,1,60,0,0
32061,-100,4,1,1,60,0,0
32237,-100,4,2,1,60,0,0
32414,-100,4,1,1,60,0,0
35061,-100,4,2,1,60,0,0
35237,-100,4,1,1,60,0,0
36473,-100,4,2,1,60,0,0
36649,-100,4,1,1,60,0,0
36826,-100,4,2,1,60,0,0
37002,-100,4,1,1,60,0,0
37179,-100,4,2,1,60,0,0
37355,-100,4,1,1,60,0,0
37531,-100,4,2,1,60,0,0
37708,-100,4,1,1,60,0,0
37884,-100,4,2,1,60,0,0
38061,-100,4,1,1,60,0,0
39649,-100,4,2,1,60,0,0
39826,-100,4,1,1,60,0,0
41061,-100,4,2,1,60,0,0
41237,-100,4,1,1,60,0,0
42296,-100,4,1,1,40,0,0
44414,-100,4,1,1,20,0,0
44590,-100,4,1,1,30,0,0
44767,-100,4,1,1,40,0,0
44943,-100,4,1,1,50,0,0
45208,-100,4,1,1,55,0,1
45296,-100,4,1,1,50,0,0
64884,-100,4,1,1,40,0,0
67002,-100,4,1,1,20,0,0
67179,-100,4,1,1,30,0,0
67355,-100,4,1,1,40,0,0
67531,-100,4,1,1,50,0,0
67796,-100,4,1,1,60,0,1
67884,-100,4,1,1,60,0,0
70355,-100,4,2,1,60,0,0
70531,-100,4,1,1,60,0,0
70708,-100,4,2,1,60,0,0
70884,-100,4,1,1,60,0,0
71061,-100,4,2,1,60,0,0
71237,-100,4,1,1,60,0,0
71414,-100,4,2,1,60,0,0
71590,-100,4,1,1,60,0,0
71767,-100,4,2,1,60,0,0
71943,-100,4,1,1,60,0,0
74061,-100,4,2,1,60,0,0
74237,-100,4,1,1,60,0,0
74590,-100,4,2,1,60,0,0
74767,-100,4,1,1,60,0,0
75473,-100,4,2,1,60,0,0
75649,-100,4,1,1,60,0,0
76002,-100,4,2,1,60,0,0
76179,-100,4,1,1,60,0,0
76355,-100,4,2,1,60,0,0
76531,-100,4,1,1,60,0,0
76708,-100,4,2,1,60,0,0
76884,-100,4,1,1,60,0,0
77061,-100,4,2,1,60,0,0
77237,-100,4,1,1,60,0,0
77414,-100,4,2,1,60,0,0
77590,-100,4,1,1,60,0,0
79088,-100,4,2,1,60,0,0
79090,-100,4,2,1,30,0,0
87561,-100,4,1,1,40,0,0
89590,-100,4,1,1,20,0,0
89767,-100,4,1,1,30,0,0
89943,-100,4,1,1,40,0,0
90120,-100,4,1,1,50,0,0
90384,-100,4,1,1,60,0,1
90473,-100,4,1,1,60,0,0
91531,-100,4,2,1,60,0,0
91708,-100,4,1,1,60,0,0
92943,-100,4,2,1,60,0,0
93120,-100,4,1,1,60,0,0
93296,-100,4,2,1,60,0,0
93473,-100,4,1,1,60,0,0
93649,-100,4,2,1,60,0,0
93826,-100,4,1,1,60,0,0
94002,-100,4,2,1,60,0,0
94179,-100,4,1,1,60,0,0
94355,-100,4,2,1,60,0,0
94531,-100,4,1,1,60,0,0
97179,-100,4,2,1,60,0,0
97355,-100,4,1,1,60,0,0
98590,-100,4,2,1,60,0,0
98767,-100,4,1,1,60,0,0
98943,-100,4,2,1,60,0,0
99120,-100,4,1,1,60,0,0
99296,-100,4,2,1,60,0,0
99473,-100,4,1,1,60,0,0
99649,-100,4,2,1,60,0,0
99826,-100,4,1,1,60,0,0
100002,-100,4,2,1,60,0,0
100179,-100,4,1,1,60,0,0
102296,-100,4,2,1,60,0,0
102473,-100,4,1,1,60,0,0
102826,-100,4,2,1,60,0,0
103002,-100,4,1,1,60,0,0
103708,-100,4,2,1,60,0,0
103884,-100,4,1,1,60,0,0
104237,-100,4,2,1,60,0,0
104414,-100,4,1,1,60,0,0
104590,-100,4,2,1,60,0,0
104767,-100,4,1,1,60,0,0
104943,-100,4,2,1,60,0,0
105120,-100,4,1,1,60,0,0
105296,-100,4,2,1,60,0,0
105473,-100,4,1,1,60,0,0
105649,-100,4,2,1,60,0,0
105826,-100,4,1,1,60,0,0
107414,-100,4,2,1,60,0,0
107590,-100,4,1,1,60,0,0
108826,-100,4,2,1,60,0,0
109002,-100,4,1,1,60,0,0
110061,-100,4,1,1,40,0,0
112179,-100,4,1,1,20,0,0
112355,-100,4,1,1,30,0,0
112531,-100,4,1,1,40,0,0
112708,-100,4,1,1,50,0,0
112973,-100,4,1,1,55,0,1
113061,-100,4,1,1,50,0,0
132737,-100,4,1,1,40,0,0
134679,-100,4,2,1,40,0,0
135384,-100,4,1,1,30,0,0
135561,-100,4,1,1,30,0,1
135649,-100,4,2,1,40,0,0

[Colours]
Combo1 : 183,207,236
Combo2 : 39,82,146
Combo3 : 48,155,214

[HitObjects]
160,208,5679,1,2
108,124,6031,1,0
172,48,6384,1,0
264,84,6737,1,2
256,180,7090,5,2
160,208,7443,1,0
160,308,7796,1,0
252,336,8149,1,2
312,260,8502,5,2
256,180,8855,1,2
320,104,9208,1,2
416,144,9561,1,2
408,240,9914,5,2
416,248,10620,1,2
256,192,10973,1,4
100,152,11326,6,0,B|128:224|84:300,1,140,4|8
28,332,11855,2,0,B|88:292|168:320,1,140
232,352,12384,2,0,B|308:344,1,70,8|2
380,352,12737,2,0,B|448:216,1,140,0|8
400,132,13267,2,0,B|364:200,1,70
328,260,13620,1,0
328,260,13796,2,0,B|288:252|256:276,1,70,8|2
200,320,14149,6,0,B|124:304,1,70,0|2
196,240,14502,2,0,B|120:224,1,70,8|2
192,160,14855,2,0,B|116:144,1,70,0|2
192,84,15208,2,0,B|116:68,1,70,8|2
256,124,15561,6,0,B|312:172|388:144,1,140,0|8
464,140,16090,2,0,B|496:204,2,70
420,76,16620,1,8
260,132,16973,6,0,B|228:208|288:264,1,140,4|8
356,292,17502,2,0,B|276:276|224:328,1,140
148,336,18031,2,0,B|68:320,1,70,8|2
176,260,18384,2,0,B|36:232,1,140,0|8
24,144,18914,2,0,B|161:171,1,140
161,171,19443,1,8
432,128,19796,5,0
436,136,20149,1,8
212,80,20679,1,0
212,80,20855,1,8
296,208,21208,1,0
436,136,21561,1,8
444,228,21914,5,0
448,236,22090,1,0
452,244,22267,1,4
456,252,22443,1,8
460,260,22620,6,0,B|372:268|344:348,1,140,4|8
272,340,23149,2,0,B|232:348|200:328,1,70
176,252,23502,2,0,B|216:244|248:264,1,70,0|8
244,261,23855,1,2
244,261,24031,2,0,B|196:201|232:109,1,140,0|8
244,44,24561,2,0,B|176:60,1,70
80,112,24914,2,0,B|146:136,1,70,0|8
224,128,25267,1,2
300,112,25443,6,0,B|376:92,1,70,0|2
316,184,25796,2,0,B|392:164,1,70,8|2
332,256,26149,2,0,B|408:236,1,70,0|2
348,332,26502,2,0,B|424:312,1,70,8|2
280,308,26855,6,0,B|216:272|140:304,1,140,0|8
80,344,27384,1,0
84,348,27561,1,0
20,280,27737,1,0
24,284,27914,1,8
32,100,28267,6,0,B|88:148|172:120,1,140,4|8
204,56,28796,2,0,B|176:204,1,140
160,268,29326,1,8
236,288,29502,1,2
312,304,29679,6,0,B|368:248|448:280,1,140,0|8
484,340,30208,2,0,B|468:192,1,140
460,124,30737,1,8
460,124,30914,1,2
460,124,31090,6,0,B|384:136,1,70,0|2
308,72,31443,2,0,B|377:61,1,70,8|2
312,152,31796,2,0,B|236:164,1,70,0|2
160,96,32149,2,0,B|229:85,1,70,8|2
156,176,32502,6,0,B|176:248|140:320,1,140,0|8
68,304,33031,2,0,B|28:316,1,35
48,220,33296,2,0,B|96:224,1,35
24,136,33561,1,4
24,136,33914,6,0,B|92:140|152:76,1,140,4|8
220,48,34443,2,0,B|264:100|348:100,1,140
424,68,34973,1,8
424,68,35149,1,2
424,68,35326,2,0,B|396:204,1,140,0|8
456,264,35855,2,0,B|316:312,1,140
248,324,36384,1,8
248,324,36561,1,2
248,324,36737,6,0,B|172:328,1,70,0|2
120,252,37090,2,0,B|189:248,1,70,8|2
240,164,37443,2,0,B|164:168,1,70,0|2
108,88,37796,2,0,B|177:84,1,70,8|2
240,40,38149,6,0,B|304:64|388:68,1,140,0|8
456,132,38679,2,0,B|388:156|308:148,1,140
240,164,39208,1,8
240,164,39561,6,0,B|236:240,1,70,4|0
152,312,39914,2,0,B|156:240,1,70,8|0
308,320,40443,1,0
308,320,40620,1,8
240,164,40973,6,0,B|244:88,1,70
328,36,41326,2,0,B|324:108,1,70,8|0
172,32,41855,1,0
172,32,42032,1,8
240,164,42384,5,0
244,168,42737,1,8
456,264,43267,1,0
456,264,43443,1,8
384,328,43796,1,0
360,236,44149,1,8
456,264,44502,6,0,B|476:228|464:188,1,70
400,136,44855,2,0,B|384:168|393:205,1,70,4|0
384,328,45208,6,0,B|316:332|236:340,1,140,4|8
200,264,45737,2,0,B|268:260|348:252,1,140,0|0
416,252,46267,1,8
376,184,46443,1,0
300,180,46620,2,0,B|220:156|240:68,1,140,0|8
308,32,47149,2,0,B|244:72|172:32,1,140
100,52,47679,2,0,B|112:128,1,70,8|0
60,188,48032,6,0,B|136:200,1,70,0|0
72,264,48384,2,0,B|140:276,1,70,8|0
216,284,48737,2,0,B|216:216,1,70,0|0
296,300,49090,2,0,B|296:232,1,70,8|0
268,160,49443,2,0,B|204:208|128:192,1,140,0|8
192,112,49973,2,0,B|252:68|332:80,1,140
392,116,50502,5,8
404,192,50679,1,0
416,268,50855,1,4
420,272,51208,6,0,B|340:248|284:296,1,140,8|0
220,336,51737,1,0
220,336,51914,2,0,B|150:325,1,70,8|0
212,256,52267,2,0,B|236:184|188:124,1,140,0|8
324,48,52973,2,0,B|396:24,1,70,0|0
436,96,53326,2,0,B|368:120,1,70,8|0
348,192,53679,6,0,B|336:228|352:268,1,70,0|0
424,224,54032,2,0,B|434:252|422:292,1,70,8|0
360,340,54384,2,0,B|324:356|288:340,1,70
312,268,54737,2,0,B|276:256|240:268,1,70,8|0
184,324,55090,2,0,B|164:288|128:276,1,70,0|0
104,200,55443,2,0,B|72:148|96:92,2,105,8|8|0
104,200,56149,1,12
408,184,56502,6,0,B|448:240|420:320,1,140,4|8
344,328,57032,1,0
344,328,57208,2,0,B|308:340|260:336,1,70,0|0
232,264,57561,2,0,B|264:252|301:257,1,70,8|0
316,180,57914,2,0,B|272:112|304:36,1,140,0|8
300,46,58443,2,0,B|224:56,1,70,0|0
152,48,58796,1,0
152,48,58973,2,0,B|136:84|104:108,1,70,8|0
92,184,59326,6,0,B|128:176|164:188,1,70,0|0
172,264,59679,2,0,B|204:276|240:268,1,70,8|0
248,192,60032,2,0,B|260:152|252:120,1,70,0|0
184,40,60384,2,0,B|168:72|180:112,1,70,8|0
104,32,60737,2,0,B|84:100|120:172,1,140,0|8
96,244,61267,1,0
96,244,61443,2,0,B|168:264,1,70,0|0
224,312,61796,1,8
400,340,62149,6,0,B|380:268|428:204,1,140,4|8
404,132,62679,1,0
320,56,62855,2,0,B|300:132|352:196,1,140,0|8
312,260,63384,1,0
312,260,63561,2,0,B|288:336|208:348,1,140,0|8
136,332,64090,2,0,B|100:340|60:328,1,70,0|0
36,256,64443,2,0,B|72:248|112:260,1,70,0|8
256,100,64973,5,0
260,108,65326,1,8
416,264,65855,1,0
416,264,66032,1,8
344,332,66384,1,0
320,236,66737,1,8
416,264,67090,5,0
420,248,67267,1,0
424,232,67443,1,0
428,216,67620,1,8
432,200,67796,6,0,B|396:128|444:64,1,140,4|8
440,68,68326,2,0,B|296:72,1,140
224,76,68855,1,8
80,208,69208,2,0,B|124:264|100:344,1,140,0|8
100,340,69737,2,0,B|243:335,1,140
320,332,70267,1,8
320,332,70443,1,2
320,332,70620,6,0,B|328:260,1,70,0|2
404,264,70973,2,0,B|412:192,1,70,8|2
340,172,71326,2,0,B|348:100,1,70,0|2
424,108,71679,2,0,B|432:36,1,70,8|2
356,24,72032,6,0,B|280:8|220:48,1,140,0|8
148,64,72561,2,0,B|64:48,2,70
148,64,73090,1,8
64,192,73443,6,0,B|80:256|100:328,1,140,4|8
176,336,73973,2,0,B|212:344|248:332,1,70
216,260,74326,1,0
216,260,74502,2,0,B|256:248|296:260,1,70,8|2
324,324,74855,2,0,B|400:348|472:296,1,140,0|8
464,228,75384,2,0,B|471:158,1,70
392,176,75737,1,0
392,176,75914,2,0,B|384:244,1,70,8|2
308,268,76267,6,0,B|236:304,1,70,0|2
184,244,76620,2,0,B|246:212,1,70,8|2
236,132,76973,2,0,B|164:168,1,70,0|2
108,112,77326,2,0,B|170:80,1,70,8|2
244,52,77679,6,0,B|304:84|396:56,1,140,0|8
464,104,78208,2,0,B|468:144,1,35
376,184,78473,2,0,B|380:144,1,35
452,232,78737,1,8
456,240,79090,5,2
60,200,87561,5,0
184,108,87914,1,8
412,196,88443,1,0
400,272,88620,1,8
200,264,88973,1,0
60,200,89326,1,8
184,108,89679,6,0,B|256:108,1,70
272,184,90032,2,0,B|196:184,1,70,4|8
328,124,90384,6,0,B|372:188|320:256,1,140,4|8
260,300,90914,2,0,B|322:263|394:294,1,140
468,320,91443,1,8
452,244,91620,1,2
380,212,91796,2,0,B|348:140|404:76,1,140,0|8
464,36,92326,2,0,B|407:81|331:61,1,140
256,44,92855,2,0,B|184:64,1,70,8|2
112,64,93208,6,0,B|96:136,1,70,0|2
80,208,93561,1,8
80,208,93737,1,2
172,152,93914,2,0,B|156:224,1,70,0|2
136,296,94267,1,8
136,296,94443,1,2
76,344,94620,6,0,B|140:300|212:328,1,140,0|8
284,352,95149,2,0,B|436:336,1,140
500,328,95679,1,8
440,84,96032,6,0,B|480:152|432:220,1,140,4|8
364,284,96561,2,0,B|328:216|372:152,1,140
352,68,97090,1,8
276,88,97267,1,2
200,72,97443,2,0,B|124:28|72:100,1,140,0|8
148,136,97973,2,0,B|180:208|124:272,1,140
76,324,98502,1,8
152,340,98679,1,2
228,336,98855,6,0,B|300:328,1,70,0|2
376,316,99208,2,0,B|448:308,1,70,8|2
408,232,99561,2,0,B|338:239,1,70,0|2
264,252,99914,2,0,B|194:259,1,70,8|2
116,256,100267,6,0,B|160:188|124:116,1,140,0|8
68,72,100796,2,0,B|100:40,1,35
168,56,101061,2,0,B|200:24,1,35
256,76,101326,1,4
256,76,101679,6,0,B|308:120|400:92,1,140,4|8
468,92,102208,2,0,B|448:168,1,70
448,236,102561,1,0
468,308,102737,1,8
396,332,102914,1,2
376,260,103090,2,0,B|304:228|236:280,1,140,0|8
184,324,103620,2,0,B|116:284,1,70
64,240,103973,1,0
32,168,104149,1,8
100,136,104326,1,2
132,208,104502,5,0
132,208,104679,1,2
208,176,104855,1,8
208,176,105032,1,2
292,196,105208,1,0
292,196,105384,1,2
372,164,105561,1,8
372,164,105737,1,2
448,148,105914,6,0,B|452:216|440:296,1,140,0|8
364,304,106443,2,0,B|360:232|372:160,1,140
396,92,106973,1,8
94,75,107326,6,0,B|164:72,1,70,4|0
137,152,107679,2,0,B|68:156,1,70,8|0
256,192,108208,1,0
256,192,108384,1,8
417,308,108737,6,0,B|348:312,1,70
374,231,109090,2,0,B|444:228,1,70,8|0
256,192,109620,1,0
256,192,109796,1,8
88,176,110149,5,0
112,328,110502,1,8
256,192,111032,1,0
256,192,111208,1,8
400,208,111561,5,0
424,56,111914,1,8
400,208,112267,6,0,B|412:240|404:280,1,70
332,308,112620,2,0,B|320:272|328:236,1,70,4|0
328,160,112973,6,0,B|250:165|184:172,1,140,4|8
116,144,113502,1,0
76,212,113679,2,0,B|64:248|84:284,1,70,0|0
36,344,114032,1,8
36,344,114208,1,0
36,344,114384,2,0,B|96:312|180:328,1,140,0|8
248,344,114914,1,0
248,344,115090,2,0,B|332:332,1,70,0|0
336,252,115443,2,0,B|266:261,1,70,8|0
188,260,115796,6,0,B|172:188,1,70,0|0
96,196,116149,2,0,B|111:264,1,70,8|0
96,340,116502,1,0
172,344,116679,1,0
248,344,116855,2,0,B|328:348,1,70,8|0
396,352,117208,6,0,B|372:268|440:224,1,140,0|8
484,168,117737,2,0,B|420:212|344:180,1,140,0|0
280,152,118267,1,8
280,152,118620,6,0,B|200:120|136:164,1,140,4|8
76,196,119149,1,0
76,196,119326,2,0,B|72:264,1,70,0|0
148,252,119679,2,0,B|144:324,1,70,8|0
224,300,120032,2,0,B|232:148,1,140,0|8
288,104,120561,2,0,B|320:88|356:96,1,70
392,164,120914,1,0
392,164,121090,2,0,B|360:180|324:172,1,70,8|0
288,104,121443,6,0,B|216:104,1,70,0|0
236,180,121796,2,0,B|164:180,1,70,8|0
136,108,122149,2,0,B|136:32,1,70,0|0
60,56,122502,2,0,B|60:136,1,70,8|0
92,196,122855,5,0
92,196,123032,1,0
92,196,123208,2,0,B|88:260|36:288,2,105,8|8|0
92,196,123914,1,12
220,336,124267,6,0,B|284:296|368:320,1,140,4|8
428,336,124796,2,0,B|460:188,1,140,0|0
372,120,125326,2,0,B|380:192,1,70,8|0
304,212,125679,2,0,B|244:252|164:220,1,140,0|8
96,240,126208,2,0,B|64:180,1,70
104,88,126561,1,0
104,88,126737,2,0,B|140:152,1,70,8|0
216,148,127090,6,0,B|216:80,1,70
292,104,127443,2,0,B|292:184,1,70,8|0
368,188,127796,2,0,B|368:118,1,70,0|0
444,106,128149,2,0,B|444:176,1,70,8|0
416,248,128502,6,0,B|340:216|268:268,1,140,0|8
344,328,129032,2,0,B|280:360|208:320,1,140
132,328,129561,1,8
132,328,129914,6,0,B|116:188,1,140,0|8
56,144,130443,2,0,B|200:156,1,140,0|0
174,73,130973,2,0,B|244:80,1,70,8|0
284,160,131326,2,0,B|236:220|272:304,1,140,0|8
356,228,131855,2,0,B|404:160|380:88,1,140,0|0
296,68,132384,1,8
296,68,132561,1,0
216,68,132737,5,0
220,72,133090,1,8
64,304,133620,1,0
64,304,133796,1,8
120,236,134149,1,0
152,320,134502,1,8
219,220,134855,6,0,B|189:187|185:151|201:111|256:92|313:111|329:151|325:187|291:225,1,280,2|4
