osu file format v14

[General]
AudioFilename: x.mp3
AudioLeadIn: 0
PreviewTime: 127428
Countdown: 0
SampleSet: Soft
StackLeniency: 0.7
Mode: 0
LetterboxInBreaks: 0
WidescreenStoryboard: 0

[Editor]
DistanceSpacing: 1.82
BeatDivisor: 4
GridSize: 4
TimelineZoom: 2.6

[Metadata]
Title:Motto Hade ni Ne!
TitleUnicode:Motto Hade ni Ne!
Artist:DJ Sa9 feat. CAMRY
ArtistUnicode:DJ Sa9 feat. CAMRY
Creator:chucentry
Version:dreamismywaifu
Source:kannagi: Crazy Shire Maidens
Tags:
BeatmapID:735404
BeatmapSetID:332113

[Difficulty]
HPDrainRate:6.1
CircleSize:4.1
OverallDifficulty:8.1
ApproachRate:9.1
SliderMultiplier:1.7
SliderTickRate:1

[Events]
//Background and Video events
0,0,"moe-kannagi-crazy-shrine-maidens-nagi-screening-700497062.jpg",0,0
//Break Periods
2,47128,54344
2,157794,165510
//Storyboard Layer 0 (Background)
//Storyboard Layer 1 (Fail)
//Storyboard Layer 2 (Pass)
//Storyboard Layer 3 (Foreground)
//Storyboard Sound Samples

[TimingPoints]
1595,333.333333333333,4,2,1,60,1,0
13594,-100,4,2,1,70,0,0
45594,-100,4,2,1,60,0,0
57594,-125,4,2,1,50,0,0
68261,-100,4,2,1,60,0,0
73594,-100,4,2,1,70,0,0
94928,-100,4,2,1,60,0,0
128261,-100,4,2,1,80,0,1
157594,-100,4,2,1,100,0,0
168261,-125,4,2,1,40,0,0
184094,-125,4,2,1,50,0,0
186928,-100,4,2,1,70,0,0
194594,-166.666666666667,4,2,1,50,0,0
194928,-100,4,2,1,80,0,1
216261,-100,4,2,1,70,0,0
226594,-200,4,2,1,50,0,0
226928,-100,4,2,1,70,0,0
237594,-100,4,2,1,100,0,0

[Colours]
Combo1 : 255,128,128
Combo2 : 128,255,0
Combo3 : 255,0,255
Combo4 : 0,255,255
Combo5 : 0,185,0

[HitObjects]
256,192,261,12,0,1428,0:0:0:0:
80,72,1595,5,4,0:0:0:0:
224,180,1928,1,4,0:0:0:0:
107,194,2261,1,8,0:0:0:0:
340,191,2428,1,4,0:0:0:0:
340,191,2761,1,4,0:0:0:0:
308,304,3094,5,2,0:0:0:0:
224,180,3261,1,8,0:0:0:0:
188,280,3428,1,2,0:0:0:0:
188,280,3512,1,0,0:0:0:0:
188,280,3595,1,0,0:0:0:0:
107,194,3761,1,2,0:0:0:0:
340,191,3928,1,8,0:0:0:0:
264,56,4094,1,2,0:0:0:0:
88,288,4261,1,12,0:0:0:0:
340,191,4594,5,4,0:0:0:0:
340,191,4928,2,0,L|408:199,1,42.5,4|0,0:0|0:0,0:0:0:0:
180,112,5094,1,4,0:0:0:0:
152,84,5428,1,4,0:0:0:0:
97,230,5761,5,8,0:0:0:0:
122,254,5844,1,0,0:0:0:0:
151,276,5927,1,0,0:0:0:0:
182,294,6010,1,0,0:0:0:0:
215,309,6094,1,0,0:0:0:0:
250,319,6177,1,0,0:0:0:0:
285,326,6260,1,0,0:0:0:0:
321,329,6344,1,0,0:0:0:0:
357,327,6427,1,0,0:0:0:0:
393,320,6510,1,0,0:0:0:0:
428,310,6594,6,0,L|438:193,1,85,12|0,0:0|0:0,0:0:0:0:
392,136,6928,1,8,0:0:0:0:
468,64,7094,1,2,0:0:0:0:
316,24,7261,2,0,L|308:112,1,85,2|0,0:0|0:0,0:0:0:0:
336,260,7594,5,8,0:0:0:0:
232,172,7761,1,2,0:0:0:0:
232,172,7844,1,0,0:0:0:0:
232,172,7928,2,0,P|188:178|148:194,1,85,2|0,0:0|0:0,0:0:0:0:
124,312,8261,2,0,P|167:305|207:289,1,85,8|0,0:0|0:0,0:0:0:0:
304,144,8594,1,0,0:0:0:0:
336,260,8761,1,2,0:0:0:0:
341,281,8844,1,0,0:0:0:0:
347,302,8928,1,0,0:0:0:0:
428,212,9094,5,2,0:0:0:0:
268,304,9261,2,0,P|224:308|174:301,1,85,8|0,0:0|0:0,0:0:0:0:
92,220,9594,1,2,0:0:0:0:
230,193,9761,1,2,0:0:0:0:
52,348,9928,2,0,P|27:306|23:262,1,85,8|0,0:0|0:0,0:0:0:0:
22,270,10178,1,0,0:0:0:0:
22,270,10261,1,2,0:0:0:0:
152,56,10428,5,2,0:0:0:0:
32,156,10594,1,8,0:0:0:0:
230,193,10761,1,2,0:0:0:0:
230,193,10844,1,0,0:0:0:0:
230,193,10928,2,0,L|242:93,1,85,2|0,0:0|0:0,0:0:0:0:
152,56,11261,1,8,0:0:0:0:
320,184,11428,1,2,0:0:0:0:
332,196,11511,1,0,0:0:0:0:
344,208,11594,1,0,0:0:0:0:
239,312,11761,5,2,0:0:0:0:
100,260,11928,2,0,L|108:176,1,85,8|0,0:0|0:0,0:0:0:0:
152,56,12261,1,8,0:0:0:0:
369,134,12428,1,2,0:0:0:0:
143,198,12594,1,8,0:0:0:0:
288,12,12761,1,2,0:0:0:0:
279,246,12928,1,8,0:0:0:0:
136,28,13094,1,2,0:0:0:0:
397,121,13261,1,12,0:0:0:0:
416,152,13594,6,0,P|420:200|416:248,1,85,2|0,0:0|0:0,0:0:0:0:
280,330,13928,2,0,P|276:282|280:234,1,85,8|0,0:0|0:0,0:0:0:0:
212,116,14261,2,0,P|144:136|116:152,1,85,2|0,0:0|0:0,0:0:0:0:
335,178,14594,2,0,P|403:158|431:142,1,85,8|0,0:0|0:0,0:0:0:0:
344,60,14928,1,2,0:0:0:0:
344,60,15094,1,2,0:0:0:0:
256,188,15261,6,0,P|280:232|328:256,1,85,8|0,0:0|0:0,0:0:0:0:
440,340,15594,2,0,P|316:324|264:352,1,170,2|8,0:0|0:0,0:0:0:0:
156,308,16094,1,2,0:0:0:0:
332,224,16261,2,0,P|336:180|324:132,1,85,2|0,0:0|0:0,0:0:0:0:
176,84,16594,2,0,P|172:128|184:176,1,85,8|0,0:0|0:0,0:0:0:0:
332,224,16928,5,2,0:0:0:0:
156,308,17094,1,2,0:0:0:0:
319,346,17261,1,8,0:0:0:0:
235,170,17428,1,2,0:0:0:0:
151,346,17594,1,2,0:0:0:0:
270,223,17761,1,2,0:0:0:0:
80,196,17928,1,8,0:0:0:0:
324,148,18094,5,2,0:0:0:0:
324,148,18178,1,0,0:0:0:0:
324,148,18261,2,0,P|352:228|316:312,1,170,0|8,0:0|0:0,0:0:0:0:
151,346,18761,1,2,0:0:0:0:
151,346,18928,2,0,P|149:267|166:229,1,85,2|0,0:0|0:0,0:0:0:0:
270,223,19261,1,8,0:0:0:0:
192,120,19428,1,2,0:0:0:0:
334,63,19594,2,0,L|322:155,1,85,2|0,0:0|0:0,0:0:0:0:
340,296,19928,5,8,0:0:0:0:
136,260,20094,1,2,0:0:0:0:
136,260,20178,1,0,0:0:0:0:
136,260,20261,2,0,P|86:287|58:324,1,85,2|0,0:0|0:0,0:0:0:0:
255,298,20594,2,0,L|371:294,1,85,8|0,0:0|0:0,0:0:0:0:
164,180,20928,2,0,L|48:184,1,85,2|0,0:0|0:0,0:0:0:0:
272,320,21261,2,0,L|388:316,1,85,8|0,0:0|0:0,0:0:0:0:
492,156,21594,6,0,P|444:96|344:92,1,170,0|8,0:0|0:0,0:0:0:0:
248,200,22094,1,2,0:0:0:0:
400,168,22261,1,2,0:0:0:0:
288,56,22428,1,2,0:0:0:0:
168,176,22594,2,0,P|168:236|196:280,1,85,8|0,0:0|0:0,0:0:0:0:
177,257,22844,1,0,0:0:0:0:
177,257,22928,1,2,0:0:0:0:
360,72,23094,5,4,0:0:0:0:
349,100,23428,1,4,0:0:0:0:
341,127,23761,1,4,0:0:0:0:
330,155,24094,1,4,0:0:0:0:
330,155,24261,6,0,B|256:176|200:144|200:144|168:164,1,170,4|8,0:0|0:0,0:0:0:0:
216,272,24761,1,2,0:0:0:0:
396,202,24928,2,0,P|408:158|400:118,1,85,2|0,0:0|0:0,0:0:0:0:
272,12,25261,2,0,P|260:56|268:96,1,85,8|0,0:0|0:0,0:0:0:0:
216,272,25594,2,0,P|136:272|104:276,1,85,2|0,0:0|0:0,0:0:0:0:
20,340,25928,1,8,0:0:0:0:
244,341,26094,1,2,0:0:0:0:
244,341,26178,1,0,0:0:0:0:
244,341,26261,2,0,P|292:269|252:205,1,170,0|8,0:0|0:0,0:0:0:0:
100,104,26761,5,2,0:0:0:0:
131,265,26928,2,0,P|183:273|227:269,1,85,2|0,0:0|0:0,0:0:0:0:
404,172,27261,2,0,P|352:164|308:168,1,85,8|0,0:0|0:0,0:0:0:0:
100,104,27594,2,0,P|152:96|196:100,1,85,2|0,0:0|0:0,0:0:0:0:
184,97,27844,1,0,0:0:0:0:
184,97,27928,1,8,0:0:0:0:
404,172,28094,5,2,0:0:0:0:
248,232,28261,1,2,0:0:0:0:
292,84,28428,1,2,0:0:0:0:
352,272,28594,1,8,0:0:0:0:
160,328,28761,1,2,0:0:0:0:
119,338,28844,1,0,0:0:0:0:
79,327,28927,1,0,0:0:0:0:
50,298,29010,1,0,0:0:0:0:
35,259,29094,1,0,0:0:0:0:
35,217,29177,1,0,0:0:0:0:
47,177,29261,6,0,L|64:132,1,42.5
292,84,29428,2,0,L|275:129,1,42.5
200,240,29594,2,0,P|140:252|104:248,1,85,4|0,0:0|0:0,0:0:0:0:
208,94,29928,2,0,P|268:82|304:86,1,85,8|0,0:0|0:0,0:0:0:0:
456,172,30261,2,0,P|413:171|372:182,1,85,2|0,0:0|0:0,0:0:0:0:
232,308,30594,2,0,P|292:296|328:300,1,85,8|0,0:0|0:0,0:0:0:0:
96,344,30928,2,0,P|92:288|100:248,1,85,2|0,0:0|0:0,0:0:0:0:
208,92,31261,5,8,0:0:0:0:
332,80,31428,1,2,0:0:0:0:
284,196,31594,5,8,0:0:0:0:
160,208,31761,1,2,0:0:0:0:
232,308,31928,5,8,0:0:0:0:
356,296,32095,1,2,0:0:0:0:
472,176,32261,1,8,0:0:0:0:
442,145,32344,1,0,0:0:0:0:
407,122,32427,1,0,0:0:0:0:
366,112,32510,1,0,0:0:0:0:
324,118,32594,1,0,0:0:0:0:
287,139,32677,1,0,0:0:0:0:
258,170,32760,1,0,0:0:0:0:
239,199,32844,1,0,0:0:0:0:
212,232,32927,1,0,0:0:0:0:
175,253,33010,1,0,0:0:0:0:
134,259,33094,1,0,0:0:0:0:
93,249,33177,1,0,0:0:0:0:
57,226,33261,6,0,L|60:160,1,42.5,4|0,0:0|0:0,0:0:0:0:
179,63,33428,2,0,L|176:129,1,42.5,4|0,0:0|0:0,0:0:0:0:
216,208,33594,6,0,L|150:205,1,42.5,2|0,0:0|0:0,0:0:0:0:
53,86,33761,2,0,L|119:89,1,42.5,2|0,0:0|0:0,0:0:0:0:
247,93,33928,1,0,0:0:0:0:
289,93,34011,1,0,0:0:0:0:
330,104,34094,1,0,0:0:0:0:
366,125,34178,1,0,0:0:0:0:
396,156,34261,1,0,0:0:0:0:
414,194,34344,1,0,0:0:0:0:
419,236,34428,1,0,0:0:0:0:
409,278,34511,1,0,0:0:0:0:
388,314,34594,6,0,L|318:316,1,42.5,2|0,0:0|0:0,0:0:0:0:
216,208,34761,2,0,L|285:205,1,42.5,2|0,0:0|0:0,0:0:0:0:
144,332,34928,2,0,P|92:328|44:308,1,85,4|0,0:0|0:0,0:0:0:0:
24,128,35261,2,0,P|76:132|124:152,1,85,8|0,0:0|0:0,0:0:0:0:
298,193,35594,2,0,P|255:194|215:207,1,85,2|0,0:0|0:0,0:0:0:0:
144,332,35928,5,8,0:0:0:0:
300,308,36094,1,2,0:0:0:0:
300,308,36178,1,0,0:0:0:0:
300,308,36261,1,0,0:0:0:0:
298,193,36428,5,2,0:0:0:0:
144,332,36594,1,8,0:0:0:0:
272,164,36761,1,2,0:0:0:0:
380,328,36928,1,2,0:0:0:0:
380,328,37011,1,0,0:0:0:0:
380,328,37094,1,2,0:0:0:0:
192,216,37261,6,0,P|148:212|88:216,1,85,8|0,0:0|0:0,0:0:0:0:
28,316,37594,1,2,0:0:0:0:
128,160,37761,1,2,0:0:0:0:
240,296,37928,1,8,0:0:0:0:
56,222,38094,1,2,0:0:0:0:
56,222,38178,1,0,0:0:0:0:
56,222,38261,2,0,P|31:141|92:80,1,170,0|8,0:0|0:0,0:0:0:0:
128,160,38761,5,2,0:0:0:0:
240,296,38928,2,0,L|344:292,1,85,2|0,0:0|0:0,0:0:0:0:
440,196,39261,2,0,L|355:199,1,85,8|0,0:0|0:0,0:0:0:0:
224,108,39594,1,8,0:0:0:0:
224,108,39677,1,0,0:0:0:0:
224,108,39761,1,0,0:0:0:0:
388,124,39928,1,8,0:0:0:0:
388,124,40011,1,0,0:0:0:0:
388,124,40094,2,0,L|360:172,1,42.5
240,296,40261,6,0,P|156:308|112:240,1,170,4|8,0:0|0:0,0:0:0:0:
191,232,40761,1,2,0:0:0:0:
29,301,40928,2,0,P|16:256|28:200,1,85,2|0,0:0|0:0,0:0:0:0:
104,132,41261,1,8,0:0:0:0:
269,218,41428,1,2,0:0:0:0:
269,218,41511,1,0,0:0:0:0:
269,218,41594,2,0,P|260:263|224:308,1,85,2|0,0:0|0:0,0:0:0:0:
388,124,41928,5,8,0:0:0:0:
440,332,42094,1,2,0:0:0:0:
224,288,42261,2,0,P|192:204|248:140,1,170,0|8,0:0|0:0,0:0:0:0:
388,124,42761,1,2,0:0:0:0:
302,318,42928,5,8,0:0:0:0:
281,347,43011,1,0,0:0:0:0:
249,363,43094,1,0,0:0:0:0:
213,365,43178,1,0,0:0:0:0:
177,358,43261,1,0,0:0:0:0:
144,343,43344,1,0,0:0:0:0:
117,319,43428,1,0,0:0:0:0:
98,287,43511,1,0,0:0:0:0:
88,252,43594,1,0,0:0:0:0:
87,215,43678,1,0,0:0:0:0:
93,180,43761,1,0,0:0:0:0:
105,145,43844,1,0,0:0:0:0:
123,114,43928,6,0,L|190:106,1,42.5,2|0,0:0|0:0,0:0:0:0:
388,124,44094,2,0,L|345:129,1,42.5,2|0,0:0|0:0,0:0:0:0:
172,192,44261,1,8,0:0:0:0:
159,231,44344,1,0,0:0:0:0:
164,273,44427,1,0,0:0:0:0:
184,309,44510,1,0,0:0:0:0:
218,334,44594,1,0,0:0:0:0:
258,344,44677,1,0,0:0:0:0:
299,337,44760,1,0,0:0:0:0:
340,320,44844,1,0,0:0:0:0:
364,288,44928,6,0,L|422:274,1,42.5,2|0,0:0|0:0,0:0:0:0:
213,181,45094,2,0,L|171:191,1,42.5,2|0,0:0|0:0,0:0:0:0:
379,165,45261,2,0,L|391:105,1,42.5,2|0,0:0|0:0,0:0:0:0:
176,36,45428,2,0,L|190:93,1,42.5,2|0,0:0|0:0,0:0:0:0:
246,260,45594,6,0,B|306:280|306:280|366:268|366:268|422:288|422:288|536:272|478:88|346:184,1,425,4|0,0:0|0:0,0:0:0:0:
213,181,46594,1,8,0:0:0:0:
246,72,46761,1,2,0:0:0:0:
246,260,46928,5,4,0:0:0:0:
256,192,54928,12,0,57428,0:0:0:0:
256,192,57594,5,0,0:0:0:0:
256,192,57928,2,0,L|256:280,1,68
176,339,58428,1,0,0:0:0:0:
176,339,58511,1,0,0:0:0:0:
176,339,58594,1,0,0:0:0:0:
335,339,58761,1,0,0:0:0:0:
335,339,58844,1,0,0:0:0:0:
335,339,58928,2,0,P|372:280|328:220,1,136
256,192,59428,5,0,0:0:0:0:
304,280,59594,1,0,0:0:0:0:
400,184,59761,1,0,0:0:0:0:
436,320,59928,1,0,0:0:0:0:
272,332,60094,1,0,0:0:0:0:
412,164,60261,5,0,0:0:0:0:
324,104,60594,1,0,0:0:0:0:
208,196,61094,1,0,0:0:0:0:
265,252,61261,1,0,0:0:0:0:
189,267,61428,2,0,P|131:200|196:123,1,204
391,113,62094,6,0,P|351:105|303:105,1,68
208,196,62428,1,0,0:0:0:0:
208,196,62594,2,0,P|241:198|275:205,1,68
391,279,62928,1,0,0:0:0:0:
348,180,63094,1,0,0:0:0:0:
232,272,63261,1,0,0:0:0:0:
189,173,63428,6,0,L|201:89,1,68
323,211,63761,2,0,L|311:295,1,68
208,195,64094,1,0,0:0:0:0:
208,195,64178,1,0,0:0:0:0:
208,195,64261,1,0,0:0:0:0:
340,80,64428,5,0,0:0:0:0:
276,188,64594,2,0,P|219:196|182:194,1,68
340,80,64928,1,0,0:0:0:0:
444,188,65094,1,0,0:0:0:0:
276,188,65261,1,0,0:0:0:0:
172,80,65428,1,0,0:0:0:0:
340,155,65594,6,0,P|341:226|276:263,1,136
124,186,66094,6,0,P|123:115|188:78,1,136
292,40,66594,1,0,0:0:0:0:
315,32,66677,1,0,0:0:0:0:
340,29,66760,1,0,0:0:0:0:
365,32,66843,1,0,0:0:0:0:
391,43,66928,6,0,P|393:79|387:130,1,68,8|0,0:0|0:0,0:0:0:0:
240,240,67261,2,0,P|237:203|243:152,1,68,8|0,0:0|0:0,0:0:0:0:
444,268,67594,2,0,P|392:280|356:276,1,68,8|0,0:0|0:0,0:0:0:0:
192,176,67928,2,0,P|244:164|280:168,1,68,8|0,0:0|0:0,0:0:0:0:
184,316,68261,1,8,0:0:0:0:
144,316,68344,1,0,0:0:0:0:
109,299,68427,1,0,0:0:0:0:
84,269,68510,1,0,0:0:0:0:
75,231,68594,6,0,L|72:168,1,42.5,2|0,0:0|0:0,0:0:0:0:
189,133,68761,2,0,L|192:196,1,42.5,2|0,0:0|0:0,0:0:0:0:
184,316,68928,5,0,0:0:0:0:
217,336,69011,1,0,0:0:0:0:
255,346,69094,1,0,0:0:0:0:
294,350,69177,1,0,0:0:0:0:
334,349,69261,1,0,0:0:0:0:
373,343,69344,1,0,0:0:0:0:
411,333,69427,1,0,0:0:0:0:
447,317,69511,1,0,0:0:0:0:
479,294,69594,6,0,L|488:196,1,85,8|0,0:0|0:0,0:0:0:0:
408,100,69844,1,0,0:0:0:0:
408,100,69928,2,0,L|400:168,1,42.5
300,168,70095,1,8,0:0:0:0:
262,149,70178,1,0,0:0:0:0:
237,115,70261,1,0,0:0:0:0:
231,73,70344,1,0,0:0:0:0:
245,34,70428,1,0,0:0:0:0:
204,22,70512,1,0,0:0:0:0:
162,25,70595,1,0,0:0:0:0:
122,41,70678,1,0,0:0:0:0:
91,69,70762,1,0,0:0:0:0:
70,105,70845,1,0,0:0:0:0:
63,148,70928,6,0,L|60:196,3,42.5,12|0|0|0,0:0|0:0|0:0|0:0,0:0:0:0:
160,148,71261,6,0,L|163:100,5,42.5,12|0|0|0|0|0,0:0|0:0|0:0|0:0|0:0|0:0,0:0:0:0:
220,220,71761,6,0,L|217:268,3,42.5,12|0|0|0,0:0|0:0|0:0|0:0,0:0:0:0:
296,168,72094,6,0,L|299:120,8,42.5,12|0|0|0|0|0|0|0|0,0:0|0:0|0:0|0:0|0:0|0:0|0:0|0:0|0:0,0:0:0:0:
360,232,72844,2,0,L|360:264,16,21.25
432,252,73594,6,0,P|436:208|428:164,1,85,4|0,0:0|0:0,0:0:0:0:
260,60,73928,2,0,P|256:104|264:148,1,85,8|0,0:0|0:0,0:0:0:0:
320,308,74261,2,0,L|436:308,1,85,2|0,0:0|0:0,0:0:0:0:
232,208,74594,2,0,L|116:208,1,85,8|0,0:0|0:0,0:0:0:0:
36,156,74928,5,2,0:0:0:0:
108,292,75094,1,2,0:0:0:0:
232,208,75261,2,0,L|240:112,1,85,8|0,0:0|0:0,0:0:0:0:
321,40,75594,1,2,0:0:0:0:
152,156,75761,1,2,0:0:0:0:
316,260,75928,2,0,L|324:164,1,85,8|0,0:0|0:0,0:0:0:0:
321,40,76261,5,2,0:0:0:0:
216,104,76428,1,0,0:0:0:0:
216,104,76511,1,0,0:0:0:0:
216,104,76594,2,0,P|176:116|112:116,1,85,8|0,0:0|0:0,0:0:0:0:
32,216,76928,2,0,P|72:228|114:230,1,85,2|0,0:0|0:0,0:0:0:0:
232,316,77261,2,0,P|192:328|128:328,1,85,8|0,0:0|0:0,0:0:0:0:
264,212,77594,5,2,0:0:0:0:
348,332,77761,1,2,0:0:0:0:
184,252,77928,2,0,P|180:204|196:152,1,85,8|0,0:0|0:0,0:0:0:0:
288,60,78261,1,2,0:0:0:0:
360,164,78428,1,2,0:0:0:0:
184,252,78594,1,8,0:0:0:0:
196,127,78761,1,0,0:0:0:0:
196,127,78844,1,0,0:0:0:0:
196,127,78928,1,2,0:0:0:0:
340,248,79094,5,0,0:0:0:0:
208,344,79261,2,0,L|100:332,1,85,8|0,0:0|0:0,0:0:0:0:
64,223,79594,1,2,0:0:0:0:
196,127,79761,1,2,0:0:0:0:
196,127,79844,1,0,0:0:0:0:
196,127,79928,2,0,L|304:139,1,85,8|0,0:0|0:0,0:0:0:0:
464,88,80261,6,0,P|464:136|460:184,1,85,2|0,0:0|0:0,0:0:0:0:
337,332,80594,2,0,P|337:284|341:236,1,85,8|0,0:0|0:0,0:0:0:0:
464,88,80928,1,2,0:0:0:0:
196,127,81094,1,2,0:0:0:0:
344,28,81261,2,0,P|372:108|364:212,1,170,8|0,0:0|0:0,0:0:0:0:
336,332,81761,5,2,0:0:0:0:
144,300,81928,1,8,0:0:0:0:
124,296,82094,1,2,0:0:0:0:
336,332,82261,5,8,0:0:0:0:
185,208,82428,1,2,0:0:0:0:
352,348,82594,5,8,0:0:0:0:
169,194,82761,1,0,0:0:0:0:
169,194,82844,1,0,0:0:0:0:
169,194,82928,1,8,0:0:0:0:
300,148,83094,1,0,0:0:0:0:
300,148,83178,1,0,0:0:0:0:
300,148,83261,1,8,0:0:0:0:
156,60,83428,5,2,0:0:0:0:
280,248,83594,1,2,0:0:0:0:
76,216,83761,1,0,0:0:0:0:
256,76,83928,2,0,P|352:88|384:156,1,170,8|8,0:0|0:0,0:0:0:0:
383,146,84344,1,0,0:0:0:0:
383,146,84428,1,0,0:0:0:0:
280,248,84594,5,8,0:0:0:0:
280,248,84678,2,0,L|272:304,1,42.5
178,233,84928,5,8,0:0:0:0:
178,233,85011,2,0,L|170:289,1,42.5
76,216,85261,5,8,0:0:0:0:
76,216,85344,2,0,L|68:272,1,42.5
284,48,85594,5,8,0:0:0:0:
172,52,85761,1,2,0:0:0:0:
296,148,85927,1,8,0:0:0:0:
160,144,86094,1,2,0:0:0:0:
284,240,86260,1,8,0:0:0:0:
159,240,86428,1,2,0:0:0:0:
283,336,86594,1,8,0:0:0:0:
156,336,86761,1,2,0:0:0:0:
284,240,86928,6,0,L|392:240,1,85,8|0,0:0|0:0,0:0:0:0:
160,144,87261,2,0,L|75:144,1,85,8|0,0:0|0:0,0:0:0:0:
216,283,87594,6,0,L|306:354,1,85,8|0,0:0|0:0,0:0:0:0:
240,112,87928,2,0,L|149:40,1,85,8|0,0:0|0:0,0:0:0:0:
60,100,88261,1,8,0:0:0:0:
44,133,88344,1,0,0:0:0:0:
40,173,88428,1,0,0:0:0:0:
228,196,88594,1,8,0:0:0:0:
312,64,88761,2,0,L|404:56,1,85,0|8,0:0|0:0,0:0:0:0:
498,158,89094,2,0,L|406:150,1,85,0|8,0:0|0:0,0:0:0:0:
228,196,89428,1,0,0:0:0:0:
228,196,89511,1,0,0:0:0:0:
228,196,89594,6,0,P|192:268|236:352,1,170,8|8,0:0|0:0,0:0:0:0:
288,268,90094,1,2,0:0:0:0:
416,228,90261,2,0,L|424:160,1,42.5,8|0,0:0|0:0,0:0:0:0:
320,188,90428,2,0,L|328:120,1,42.5,2|0,0:0|0:0,0:0:0:0:
228,152,90594,2,0,L|236:84,1,42.5,8|0,0:0|0:0,0:0:0:0:
132,112,90761,2,0,L|140:44,1,42.5,2|0,0:0|0:0,0:0:0:0:
36,112,90928,6,0,P|40:152|80:192,1,85,2|0,0:0|0:0,0:0:0:0:
228,152,91261,1,8,0:0:0:0:
160,32,91428,1,2,0:0:0:0:
314,31,91594,2,0,L|302:115,1,85,2|0,0:0|0:0,0:0:0:0:
388,228,91928,1,8,0:0:0:0:
213,306,92094,1,0,0:0:0:0:
213,306,92178,1,0,0:0:0:0:
213,306,92261,2,0,P|193:214|229:150,1,170,0|8,0:0|0:0,0:0:0:0:
336,116,92761,6,0,L|320:160,1,42.5,2|0,0:0|0:0,0:0:0:0:
213,306,92928,1,8,0:0:0:0:
213,306,93094,1,2,0:0:0:0:
213,306,93261,1,8,0:0:0:0:
213,306,93428,1,2,0:0:0:0:
336,272,93594,6,0,L|428:276,1,85,8|0,0:0|0:0,0:0:0:0:
496,164,93928,2,0,L|404:160,1,85,8|0,0:0|0:0,0:0:0:0:
256,136,94261,1,8,0:0:0:0:
223,133,94344,1,0,0:0:0:0:
190,139,94428,1,0,0:0:0:0:
161,158,94511,1,0,0:0:0:0:
140,182,94594,2,0,L|122:227,1,42.5
213,306,94761,2,0,L|230:260,1,42.5
336,136,94928,6,0,P|383:137|419:154,1,85,4|0,0:0|0:0,0:0:0:0:
452,272,95261,2,0,P|404:272|368:256,1,85,8|0,0:0|0:0,0:0:0:0:
256,136,95594,1,2,0:0:0:0:
384,48,95761,1,2,0:0:0:0:
420,196,95928,1,8,0:0:0:0:
292,48,96094,1,2,0:0:0:0:
196,200,96261,2,0,L|104:200,1,85,2|0,0:0|0:0,0:0:0:0:
48,112,96594,1,8,0:0:0:0:
169,48,96761,5,0,0:0:0:0:
210,36,96844,1,0,0:0:0:0:
252,36,96927,1,0,0:0:0:0:
292,48,97010,1,0,0:0:0:0:
329,69,97094,1,0,0:0:0:0:
358,99,97177,1,0,0:0:0:0:
377,138,97261,2,0,L|360:192,1,42.5
196,200,97428,2,0,L|213:146,1,42.5
288,280,97594,6,0,P|212:292|172:288,1,85,2|0,0:0|0:0,0:0:0:0:
8,184,97928,2,0,P|84:172|124:176,1,85,8|0,0:0|0:0,0:0:0:0:
91,172,98178,1,0,0:0:0:0:
91,172,98261,1,2,0:0:0:0:
252,104,98428,1,2,0:0:0:0:
196,200,98594,1,8,0:0:0:0:
306,197,98761,1,0,0:0:0:0:
306,197,98844,1,0,0:0:0:0:
306,197,98928,2,0,L|282:305,1,85,2|0,0:0|0:0,0:0:0:0:
404,336,99261,1,8,0:0:0:0:
476,96,99428,5,0,0:0:0:0:
445,76,99511,1,0,0:0:0:0:
409,71,99594,1,0,0:0:0:0:
373,73,99677,1,0,0:0:0:0:
336,78,99761,1,0,0:0:0:0:
300,83,99844,1,0,0:0:0:0:
264,86,99927,1,0,0:0:0:0:
227,87,100011,1,0,0:0:0:0:
191,84,100094,1,0,0:0:0:0:
156,74,100177,1,0,0:0:0:0:
124,55,100261,6,0,L|103:151,1,85,2|0,0:0|0:0,0:0:0:0:
28,236,100594,1,8,0:0:0:0:
112,328,100761,1,2,0:0:0:0:
216,260,100928,2,0,L|222:175,1,85,2|0,0:0|0:0,0:0:0:0:
111,240,101261,1,8,0:0:0:0:
195,342,101428,1,2,0:0:0:0:
195,342,101511,1,0,0:0:0:0:
195,342,101594,2,0,P|259:354|331:338,1,127.5
348,312,101928,6,0,L|360:224,1,85,8|0,0:0|0:0,0:0:0:0:
500,88,102261,2,0,L|488:176,1,85,2|0,0:0|0:0,0:0:0:0:
472,340,102594,1,8,0:0:0:0:
332,180,102761,1,2,0:0:0:0:
332,180,102844,1,0,0:0:0:0:
332,180,102928,6,0,P|267:138|171:167,1,170,0|8,0:0|0:0,0:0:0:0:
115,300,103428,1,2,0:0:0:0:
248,220,103595,1,2,0:0:0:0:
106,150,103762,1,2,0:0:0:0:
204,300,103928,2,0,P|252:304|300:300,1,85,8|0,0:0|0:0,0:0:0:0:
288,301,104178,1,0,0:0:0:0:
288,301,104261,1,2,0:0:0:0:
140,228,104428,6,0,P|76:236|40:312,1,127.5,2|0,0:0|0:0,0:0:0:0:
115,300,104761,6,0,P|107:236|31:200,1,127.5,2|0,0:0|0:0,0:0:0:0:
106,150,105094,6,0,P|172:164|236:152,1,127.5,2|0,0:0|0:0,0:0:0:0:
268,140,105428,1,2,0:0:0:0:
432,130,105594,6,0,P|366:116|266:140,1,170,4|8,0:0|0:0,0:0:0:0:
356,208,106094,1,2,0:0:0:0:
500,172,106261,2,0,P|508:124|492:68,1,85,2|0,0:0|0:0,0:0:0:0:
320,32,106594,2,0,P|312:80|328:136,1,85,8|0,0:0|0:0,0:0:0:0:
356,208,106928,6,0,P|276:192|184:212,1,170,0|8,0:0|0:0,0:0:0:0:
408,268,107428,2,0,P|428:228|428:176,1,85,2|0,0:0|0:0,0:0:0:0:
320,32,107761,1,0,0:0:0:0:
320,32,107844,1,0,0:0:0:0:
320,32,107928,2,0,B|264:56|200:16|152:40,1,170,8|0,0:0|0:0,0:0:0:0:
58,133,108428,5,2,0:0:0:0:
58,133,108594,2,0,P|112:136|156:148,1,85,8|0,0:0|0:0,0:0:0:0:
236,224,108928,1,2,0:0:0:0:
88,216,109094,1,2,0:0:0:0:
256,304,109261,2,0,L|264:216,1,85,8|0,0:0|0:0,0:0:0:0:
160,240,109594,1,2,0:0:0:0:
360,304,109761,1,2,0:0:0:0:
320,144,109928,1,8,0:0:0:0:
256,304,110094,5,0,0:0:0:0:
215,317,110177,1,0,0:0:0:0:
173,320,110260,1,0,0:0:0:0:
131,312,110343,1,0,0:0:0:0:
93,293,110427,1,0,0:0:0:0:
61,265,110510,1,0,0:0:0:0:
38,230,110594,2,0,L|56:156,1,42.5
120,72,110761,2,0,L|130:113,1,42.5
160,240,110928,6,0,P|208:244|272:236,1,85,4|0,0:0|0:0,0:0:0:0:
404,145,111261,2,0,P|356:141|292:149,1,85,8|0,0:0|0:0,0:0:0:0:
160,240,111594,1,2,0:0:0:0:
356,280,111761,1,0,0:0:0:0:
356,280,111844,1,0,0:0:0:0:
356,280,111928,1,8,0:0:0:0:
178,165,112094,6,0,P|97:204|110:293,1,170,6|0,0:0|0:0,0:0:0:0:
248,336,112594,2,0,L|262:198,1,127.5,8|0,0:0|0:0,0:0:0:0:
337,173,112928,2,0,L|323:299,1,127.5,8|0,0:0|0:0,0:0:0:0:
399,265,113261,2,0,L|413:127,1,127.5,8|0,0:0|0:0,0:0:0:0:
476,48,113594,1,8,0:0:0:0:
440,36,113678,1,0,0:0:0:0:
408,56,113761,1,0,0:0:0:0:
372,72,113844,1,0,0:0:0:0:
336,52,113928,1,0,0:0:0:0:
300,40,114011,1,0,0:0:0:0:
260,40,114094,1,0,0:0:0:0:
224,56,114178,1,0,0:0:0:0:
184,52,114261,1,0,0:0:0:0:
148,64,114344,1,0,0:0:0:0:
120,92,114428,1,0,0:0:0:0:
112,128,114511,1,0,0:0:0:0:
112,168,114594,6,0,L|176:188,1,42.5,4|0,0:0|0:0,0:0:0:0:
320,128,114761,2,0,L|256:108,1,42.5
260,212,114928,1,0,0:0:0:0:
288,232,115011,1,0,0:0:0:0:
320,244,115094,1,0,0:0:0:0:
356,244,115178,1,0,0:0:0:0:
388,232,115261,1,0,0:0:0:0:
412,204,115344,1,0,0:0:0:0:
424,172,115428,2,0,L|436:116,1,42.5
496,248,115594,5,0,0:0:0:0:
480,280,115678,1,0,0:0:0:0:
452,304,115761,1,0,0:0:0:0:
420,316,115844,1,0,0:0:0:0:
388,324,115927,6,0,L|318:326,1,42.5
259,211,116094,2,0,L|217:213,1,42.5
145,337,116261,2,0,P|93:333|45:313,1,85,4|0,0:0|0:0,0:0:0:0:
20,196,116594,2,0,P|72:200|120:220,1,85,8|0,0:0|0:0,0:0:0:0:
244,324,116928,1,2,0:0:0:0:
403,234,117094,1,2,0:0:0:0:
259,211,117261,1,8,0:0:0:0:
472,68,117428,5,0,0:0:0:0:
472,68,117511,1,0,0:0:0:0:
472,68,117594,2,0,P|484:112|472:156,1,85,2|0,0:0|0:0,0:0:0:0:
403,234,117928,1,8,0:0:0:0:
192,260,118094,1,2,0:0:0:0:
320,344,118261,1,2,0:0:0:0:
259,211,118428,1,2,0:0:0:0:
132,348,118594,5,8,0:0:0:0:
101,317,118677,1,0,0:0:0:0:
83,278,118760,1,0,0:0:0:0:
79,236,118843,1,0,0:0:0:0:
92,196,118928,6,0,L|124:143,1,42.5,2|0,0:0|0:0,0:0:0:0:
224,88,119094,1,2,0:0:0:0:
16,184,119261,1,8,0:0:0:0:
192,260,119428,1,2,0:0:0:0:
20,328,119594,1,2,0:0:0:0:
92,196,119761,1,2,0:0:0:0:
176,336,119928,1,8,0:0:0:0:
248,204,120094,5,0,0:0:0:0:
248,204,120178,1,0,0:0:0:0:
248,204,120261,2,0,P|300:204|348:208,1,85,2|0,0:0|0:0,0:0:0:0:
404,336,120594,1,8,0:0:0:0:
472,168,120761,1,2,0:0:0:0:
284,280,120928,1,2,0:0:0:0:
252,284,121011,1,0,0:0:0:0:
220,280,121094,1,2,0:0:0:0:
92,196,121261,5,8,0:0:0:0:
264,164,121428,2,0,L|240:220,1,42.5,2|0,0:0|0:0,0:0:0:0:
88,352,121594,2,0,L|68:168,1,170,4|8,0:0|0:0,0:0:0:0:
164,64,122094,1,2,0:0:0:0:
264,164,122261,2,0,L|360:164,1,85,2|0,0:0|0:0,0:0:0:0:
440,84,122594,1,8,0:0:0:0:
476,236,122761,1,2,0:0:0:0:
476,236,122844,1,0,0:0:0:0:
476,236,122928,6,0,L|484:280,1,42.5,2|0,0:0|0:0,0:0:0:0:
332,200,123094,1,2,0:0:0:0:
440,84,123261,1,8,0:0:0:0:
267,133,123428,1,0,0:0:0:0:
267,133,123511,1,0,0:0:0:0:
267,133,123594,2,0,P|243:219|293:286,1,170,0|8,0:0|0:0,0:0:0:0:
400,348,124094,1,2,0:0:0:0:
476,236,124261,5,8,0:0:0:0:
463,201,124344,1,0,0:0:0:0:
457,165,124427,1,0,0:0:0:0:
456,129,124510,1,0,0:0:0:0:
462,93,124594,1,0,0:0:0:0:
474,58,124677,1,0,0:0:0:0:
480,35,124760,1,0,0:0:0:0:
445,44,124844,1,0,0:0:0:0:
408,49,124927,1,0,0:0:0:0:
372,48,125010,1,0,0:0:0:0:
335,45,125094,1,0,0:0:0:0:
299,40,125177,1,0,0:0:0:0:
263,36,125260,1,0,0:0:0:0:
227,32,125344,1,0,0:0:0:0:
190,33,125427,1,0,0:0:0:0:
154,37,125510,1,0,0:0:0:0:
119,49,125594,6,0,L|128:120,1,42.5,2|0,0:0|0:0,0:0:0:0:
268,224,125761,2,0,L|259:153,1,42.5,2|0,0:0|0:0,0:0:0:0:
104,44,125928,6,0,L|114:122,1,42.5,2|0,0:0|0:0,0:0:0:0:
284,236,126095,2,0,L|273:157,1,42.5,2|0,0:0|0:0,0:0:0:0:
52,232,126261,1,8,0:0:0:0:
60,276,126344,1,0,0:0:0:0:
84,312,126428,1,0,0:0:0:0:
120,332,126511,1,0,0:0:0:0:
164,336,126594,2,0,L|204:280,1,42.5,8|0,0:0|0:0,0:0:0:0:
104,44,126761,2,0,L|64:100,1,42.5,2|0,0:0|0:0,0:0:0:0:
135,249,126928,6,0,L|323:233,1,170,4|8,0:0|0:0,0:0:0:0:
400,96,127428,1,2,0:0:0:0:
400,96,127594,2,0,P|390:140|409:199,1,85,2|0,0:0|0:0,0:0:0:0:
496,296,127928,2,0,P|505:251|486:192,1,85,8|0,0:0|0:0,0:0:0:0:
138,165,128261,6,0,P|130:213|142:269,1,85,6|0,0:0|0:0,0:0:0:0:
360,212,128594,2,0,P|288:184|196:212,1,170,8|0,0:0|0:0,0:0:0:0:
109,299,129094,1,0,0:0:0:0:
109,299,129177,1,0,0:0:0:0:
109,299,129261,1,8,0:0:0:0:
401,286,129428,1,0,0:0:0:0:
401,286,129511,1,0,0:0:0:0:
401,286,129594,2,0,P|441:214|405:138,1,170,0|8,0:0|0:0,0:0:0:0:
236,124,130094,5,2,0:0:0:0:
268,304,130261,1,2,0:0:0:0:
360,212,130428,1,2,0:0:0:0:
181,230,130594,1,8,0:0:0:0:
332,112,130761,1,2,0:0:0:0:
401,286,130928,2,0,P|460:292|504:280,1,85,2|0,0:0|0:0,0:0:0:0:
407,139,131261,2,0,P|348:133|304:145,1,85,8|0,0:0|0:0,0:0:0:0:
323,137,131511,1,0,0:0:0:0:
323,137,131594,1,2,0:0:0:0:
181,230,131761,5,2,0:0:0:0:
360,212,131928,1,8,0:0:0:0:
154,154,132094,1,2,0:0:0:0:
154,154,132178,1,0,0:0:0:0:
154,154,132261,2,0,P|106:246|166:310,1,170,0|8,0:0|0:0,0:0:0:0:
323,137,132761,5,0,0:0:0:0:
323,137,132844,1,0,0:0:0:0:
323,137,132928,1,8,0:0:0:0:
188,40,133094,1,0,0:0:0:0:
188,40,133178,1,0,0:0:0:0:
188,40,133261,2,0,L|176:104,1,42.5,8|0,0:0|0:0,0:0:0:0:
28,236,133428,2,0,L|40:172,1,42.5,8|0,0:0|0:0,0:0:0:0:
154,154,133594,6,0,L|331:137,1,170,4|8,0:0|0:0,0:0:0:0:
458,321,134094,1,2,0:0:0:0:
243,242,134261,1,2,0:0:0:0:
458,169,134428,1,2,0:0:0:0:
266,166,134594,1,8,0:0:0:0:
481,245,134762,1,2,0:0:0:0:
266,318,134928,6,0,P|219:316|180:292,1,85,2|0,0:0|0:0,0:0:0:0:
148,128,135261,1,8,0:0:0:0:
64,244,135428,1,2,0:0:0:0:
144,92,135594,1,2,0:0:0:0:
243,242,135761,1,2,0:0:0:0:
71,120,135928,1,8,0:0:0:0:
221,100,136094,1,2,0:0:0:0:
221,100,136178,1,0,0:0:0:0:
221,100,136261,6,0,P|264:96|332:104,1,85,2|0,0:0|0:0,0:0:0:0:
439,228,136594,1,8,0:0:0:0:
296,308,136761,1,2,0:0:0:0:
336,116,136928,1,2,0:0:0:0:
380,308,137094,1,2,0:0:0:0:
243,242,137261,1,8,0:0:0:0:
412,148,137428,1,0,0:0:0:0:
296,308,137594,5,8,0:0:0:0:
252,329,137677,1,0,0:0:0:0:
206,339,137760,1,0,0:0:0:0:
158,340,137844,1,0,0:0:0:0:
111,330,137927,1,0,0:0:0:0:
67,312,138010,1,0,0:0:0:0:
27,285,138094,6,0,L|20:212,1,42.5,2|0,0:0|0:0,0:0:0:0:
112,140,138261,2,0,L|119:213,1,42.5,8|0,0:0|0:0,0:0:0:0:
243,242,138428,2,0,L|235:168,1,42.5,2|0,0:0|0:0,0:0:0:0:
327,96,138595,2,0,L|334:169,1,42.5,8|0,0:0|0:0,0:0:0:0:
448,212,138761,2,0,L|440:138,1,42.5,2|0,0:0|0:0,0:0:0:0:
304,80,138928,6,0,P|260:76|196:88,1,85,4|0,0:0|0:0,0:0:0:0:
65,212,139261,2,0,P|109:216|173:204,1,85,8|0,0:0|0:0,0:0:0:0:
263,153,139594,1,2,0:0:0:0:
316,268,139761,1,2,0:0:0:0:
395,142,139928,1,8,0:0:0:0:
192,44,140094,1,0,0:0:0:0:
192,44,140178,1,0,0:0:0:0:
192,44,140261,2,0,P|164:128|192:224,1,170,0|8,0:0|0:0,0:0:0:0:
316,348,140761,5,2,0:0:0:0:
391,228,140928,1,2,0:0:0:0:
240,311,141094,1,2,0:0:0:0:
315,191,141261,1,8,0:0:0:0:
392,311,141428,1,2,0:0:0:0:
239,228,141594,1,2,0:0:0:0:
311,106,141761,1,0,0:0:0:0:
311,106,141844,1,0,0:0:0:0:
311,106,141928,6,0,P|385:151|380:245,1,170,8|0,0:0|0:0,0:0:0:0:
240,311,142428,1,0,0:0:0:0:
240,311,142511,1,0,0:0:0:0:
240,311,142594,2,0,L|144:308,1,85,8|0,0:0|0:0,0:0:0:0:
28,176,142928,2,0,L|124:179,1,85,2|0,0:0|0:0,0:0:0:0:
311,106,143261,2,0,L|215:103,1,85,8|0,0:0|0:0,0:0:0:0:
396,32,143594,5,8,0:0:0:0:
411,53,143677,1,0,0:0:0:0:
423,76,143760,1,0,0:0:0:0:
431,101,143844,1,0,0:0:0:0:
435,127,143927,1,0,0:0:0:0:
435,153,144010,1,0,0:0:0:0:
431,179,144094,1,0,0:0:0:0:
422,204,144177,1,0,0:0:0:0:
409,227,144261,6,0,L|301:231,1,85,2|0,0:0|0:0,0:0:0:0:
311,106,144594,1,8,0:0:0:0:
496,228,144761,1,2,0:0:0:0:
348,344,144928,1,2,0:0:0:0:
435,127,145094,1,2,0:0:0:0:
463,346,145261,1,8,0:0:0:0:
292,200,145428,1,0,0:0:0:0:
292,200,145511,1,0,0:0:0:0:
292,200,145594,2,0,P|248:196|192:204,1,85,2|0,0:0|0:0,0:0:0:0:
129,301,145928,5,8,0:0:0:0:
202,125,146094,1,2,0:0:0:0:
248,310,146261,1,2,0:0:0:0:
101,187,146428,1,2,0:0:0:0:
292,200,146594,1,8,0:0:0:0:
292,200,146678,1,0,0:0:0:0:
292,200,146761,2,0,L|360:204,1,42.5
204,68,146928,6,0,B|204:144|204:144|196:156|196:156|196:268,1,170,4|0,0:0|0:0,0:0:0:0:
376,332,147428,6,0,B|376:256|376:256|384:244|384:244|384:132,1,170,4|0,0:0|0:0,0:0:0:0:
332,60,147928,2,0,L|348:32,6,21.25
204,68,148261,1,2,0:0:0:0:
176,84,148344,1,0,0:0:0:0:
152,108,148428,1,2,0:0:0:0:
176,212,148594,1,2,0:0:0:0:
204,196,148677,1,0,0:0:0:0:
228,172,148761,1,2,0:0:0:0:
80,53,148928,5,2,0:0:0:0:
58,93,149011,1,0,0:0:0:0:
61,139,149094,1,0,0:0:0:0:
83,179,149178,1,0,0:0:0:0:
100,222,149261,1,0,0:0:0:0:
95,268,149344,1,0,0:0:0:0:
75,309,149428,6,0,L|24:276,1,42.5
176,212,149594,2,0,P|272:208|352:232,1,170,4|0,0:0|0:0,0:0:0:0:
480,336,150094,2,0,P|384:340|304:316,1,170,4|0,0:0|0:0,0:0:0:0:
176,212,150594,5,2,0:0:0:0:
146,182,150677,1,0,0:0:0:0:
129,143,150760,1,0,0:0:0:0:
128,101,150844,1,0,0:0:0:0:
142,61,150928,2,0,P|284:56|336:72,1,170,4|0,0:0|0:0,0:0:0:0:
464,180,151428,2,0,P|322:185|270:169,1,170,4|0,0:0|0:0,0:0:0:0:
129,143,151928,5,2,0:0:0:0:
83,157,152011,1,0,0:0:0:0:
50,194,152094,1,0,0:0:0:0:
29,239,152178,1,0,0:0:0:0:
21,288,152261,2,0,L|44:352,1,42.5,2|0,0:0|0:0,0:0:0:0:
129,143,152428,2,0,L|114:102,1,42.5,2|0,0:0|0:0,0:0:0:0:
120,236,152594,5,2,0:0:0:0:
157,252,152677,1,0,0:0:0:0:
200,252,152760,1,0,0:0:0:0:
242,249,152844,1,0,0:0:0:0:
285,246,152927,1,0,0:0:0:0:
327,243,153010,1,0,0:0:0:0:
369,243,153094,1,0,0:0:0:0:
411,251,153178,6,0,L|436:264,2,21.25
348,320,153344,1,0,0:0:0:0:
348,320,153428,6,0,L|372:332,15,21.25
256,324,154094,2,0,L|256:356,18,21.25
184,332,154928,6,0,L|172:280,1,42.5,2|0,0:0|0:0,0:0:0:0:
28,224,155094,2,0,L|40:276,1,42.5,2|0,0:0|0:0,0:0:0:0:
152,256,155261,1,2,0:0:0:0:
194,258,155344,1,0,0:0:0:0:
236,252,155427,1,0,0:0:0:0:
275,235,155511,1,0,0:0:0:0:
305,206,155594,6,0,L|300:144,1,42.5,2|0,0:0|0:0,0:0:0:0:
432,68,155761,2,0,L|428:110,1,42.5,2|0,0:0|0:0,0:0:0:0:
396,238,155928,1,2,0:0:0:0:
366,248,156011,1,0,0:0:0:0:
335,250,156094,1,0,0:0:0:0:
304,246,156178,1,0,0:0:0:0:
275,235,156261,5,0,0:0:0:0:
275,235,156344,2,0,L|276:200,2,21.25
204,188,156511,5,0,0:0:0:0:
204,188,156594,2,0,L|204:152,2,21.25
120,160,156761,5,0,0:0:0:0:
120,160,156844,2,0,L|120:124,14,21.25
60,220,157511,1,0,0:0:0:0:
144,240,157594,1,4,0:0:0:0:
256,192,166094,12,0,167928,0:0:0:0:
52,276,168094,5,0,0:0:0:0:
52,276,168178,1,0,0:0:0:0:
52,276,168261,2,0,L|216:268,1,136,4|8,0:0|0:0,0:0:0:0:
288,288,168761,1,0,0:0:0:0:
360,215,168928,6,0,P|413:204|452:216,1,68
456,320,169261,2,0,P|402:330|363:318,1,68,8|0,0:0|0:0,0:0:0:0:
288,288,169594,2,0,P|280:244|284:196,1,68
366,137,169928,2,0,P|454:206|349:194,1,272,8|8,0:0|0:0,0:0:0:0:
252,108,170761,5,0,0:0:0:0:
252,108,170928,2,0,L|176:108,1,68
80,196,171261,1,8,0:0:0:0:
80,196,171428,2,0,L|156:196,1,68
284,184,171761,2,0,L|272:280,1,68,0|8,0:0|0:0,0:0:0:0:
152,344,172094,2,0,L|160:276,1,68
284,184,172428,5,0,0:0:0:0:
284,184,172594,2,0,B|376:256|456:184|456:184|432:140|372:160,1,272,8|8,0:0|0:0,0:0:0:0:
284,184,173428,1,0,0:0:0:0:
277,190,173511,1,0,0:0:0:0:
270,196,173594,2,0,L|178:196,1,68,4|0,0:0|0:0,0:0:0:0:
116,228,173928,1,8,0:0:0:0:
168,120,174094,1,0,0:0:0:0:
40,76,174261,2,0,L|44:168,1,68
36,304,174594,5,8,0:0:0:0:
116,228,174761,1,0,0:0:0:0:
148,332,174928,2,0,L|236:332,1,68
296,260,175261,1,8,0:0:0:0:
388,316,175428,1,0,0:0:0:0:
388,316,175511,1,0,0:0:0:0:
388,316,175594,2,0,P|396:272|392:240,1,68
436,168,175928,5,8,0:0:0:0:
436,168,176094,1,0,0:0:0:0:
296,260,176261,2,0,L|208:260,1,68,4|0,0:0|0:0,0:0:0:0:
152,164,176594,2,0,L|240:164,1,68,8|0,0:0|0:0,0:0:0:0:
80,268,176928,2,0,L|52:188,1,68
129,99,177261,2,0,L|157:179,1,68,8|0,0:0|0:0,0:0:0:0:
228,262,177594,6,0,L|328:258,1,68
436,168,177928,2,0,L|368:170,1,68,8|0,0:0|0:0,0:0:0:0:
228,262,178261,2,0,L|220:350,1,68
124,272,178594,2,0,L|132:184,1,68,8|0,0:0|0:0,0:0:0:0:
176,132,178844,1,0,0:0:0:0:
176,132,178928,6,0,L|268:132,1,68,4|0,0:0|0:0,0:0:0:0:
436,168,179261,2,0,L|432:260,1,68,8|0,0:0|0:0,0:0:0:0:
336,316,179594,2,0,L|340:224,1,68
368,124,179928,1,8,0:0:0:0:
176,132,180094,1,0,0:0:0:0:
269,163,180261,2,0,P|271:129|268:96,1,68
208,252,180594,1,8,0:0:0:0:
302,312,180761,5,0,0:0:0:0:
318,316,180844,1,0,0:0:0:0:
336,316,180928,2,0,P|340:260|332:224,1,68
176,132,181261,2,0,P|172:188|180:224,1,68,8|0,0:0|0:0,0:0:0:0:
342,146,181594,6,0,L|360:96,7,34,4|0|0|0|0|0|0|0,0:0|0:0|0:0|0:0|0:0|0:0|0:0|0:0,0:0:0:0:
284,92,182261,2,0,L|302:42,7,34
208,68,182928,6,0,L|216:40,4,17
128,112,183178,1,0,0:0:0:0:
128,112,183261,2,0,L|120:84,9,17
60,152,183678,1,0,0:0:0:0:
60,152,183761,2,0,L|52:124,6,17
129,193,184094,5,0,0:0:0:0:
139,203,184178,1,0,0:0:0:0:
149,213,184261,2,0,L|244:212,1,68,4|0,0:0|0:0,0:0:0:0:
320,132,184761,1,2,0:0:0:0:
360,260,184928,1,8,0:0:0:0:
216,212,185094,1,2,0:0:0:0:
216,212,185428,5,2,0:0:0:0:
386,182,185594,1,8,0:0:0:0:
208,96,185761,1,2,0:0:0:0:
208,96,186094,1,2,0:0:0:0:
156,147,186261,2,0,P|136:83|188:27,1,136,8|0,0:0|0:0,0:0:0:0:
288,64,186761,1,2,0:0:0:0:
308,180,186928,5,8,0:0:0:0:
164,332,187094,1,2,0:0:0:0:
156,147,187261,5,8,0:0:0:0:
308,291,187427,1,2,0:0:0:0:
100,264,187594,5,8,0:0:0:0:
244,112,187760,1,2,0:0:0:0:
308,291,187928,5,8,0:0:0:0:
234,94,188094,1,2,0:0:0:0:
408,28,188261,1,8,0:0:0:0:
431,65,188344,1,0,0:0:0:0:
447,107,188427,1,0,0:0:0:0:
454,151,188511,1,0,0:0:0:0:
455,196,188594,1,0,0:0:0:0:
448,240,188677,1,0,0:0:0:0:
434,282,188761,6,0,L|380:276,1,42.5,2|0,0:0|0:0,0:0:0:0:
264,132,188928,2,0,L|318:138,1,42.5,2|0,0:0|0:0,0:0:0:0:
180,276,189094,2,0,L|128:232,1,42.5,2|0,0:0|0:0,0:0:0:0:
288,24,189261,2,0,L|312:88,1,42.5,2|0,0:0|0:0,0:0:0:0:
80,124,189428,2,0,L|65:84,1,42.5,2|0,0:0|0:0,0:0:0:0:
264,132,189594,5,4,0:0:0:0:
264,132,189928,1,4,0:0:0:0:
184,200,190428,1,4,0:0:0:0:
344,200,190761,1,4,0:0:0:0:
344,200,191428,5,2,0:0:0:0:
344,200,191594,1,2,0:0:0:0:
344,200,191761,1,2,0:0:0:0:
260,252,191928,1,8,0:0:0:0:
336,96,192095,1,2,0:0:0:0:
444,304,192261,1,4,0:0:0:0:
336,96,192594,5,4,0:0:0:0:
336,96,193094,1,0,0:0:0:0:
336,96,193177,1,0,0:0:0:0:
336,96,193260,1,0,0:0:0:0:
444,108,193427,1,0,0:0:0:0:
444,108,193511,2,0,L|464:76,13,21.25
488,172,194094,2,0,L|508:140,10,21.25
472,248,194594,6,0,L|380:248,1,76.4999976654053,4|0,0:0|0:0,0:0:0:0:
322,248,194928,1,8,0:0:0:0:
228,156,195094,1,2,0:0:0:0:
396,60,195261,2,0,L|388:148,1,85,2|0,0:0|0:0,0:0:0:0:
322,248,195594,2,0,L|216:248,1,85,8|0,0:0|0:0,0:0:0:0:
108,176,195928,1,2,0:0:0:0:
251,77,196094,5,0,0:0:0:0:
251,77,196178,1,0,0:0:0:0:
251,77,196261,2,0,P|291:113|311:157,1,85,8|0,0:0|0:0,0:0:0:0:
322,248,196594,1,2,0:0:0:0:
112,292,196761,1,2,0:0:0:0:
228,156,196928,1,8,0:0:0:0:
244,344,197094,1,2,0:0:0:0:
108,176,197261,1,2,0:0:0:0:
322,248,197428,5,0,0:0:0:0:
322,248,197511,1,0,0:0:0:0:
322,248,197594,2,0,P|360:164|316:92,1,170,8|0,0:0|0:0,0:0:0:0:
108,176,198094,1,2,0:0:0:0:
228,156,198261,2,0,L|236:64,1,85,8|0,0:0|0:0,0:0:0:0:
108,176,198594,1,2,0:0:0:0:
336,128,198761,2,0,L|344:36,1,85,0|8,0:0|0:0,0:0:0:0:
235,71,199094,1,2,0:0:0:0:
453,71,199261,5,8,2:0:0:0:
468,107,199344,1,0,2:0:0:0:
479,147,199427,1,0,2:0:0:0:
483,189,199511,1,0,2:0:0:0:
479,230,199594,1,0,2:0:0:0:
469,270,199677,1,0,2:0:0:0:
451,308,199761,6,0,L|384:296,1,42.5
308,204,199928,2,0,L|266:211,1,42.5
216,344,200094,2,0,L|149:332,1,42.5
73,240,200261,2,0,P|68:200|80:144,1,85,2|0,0:0|0:0,0:0:0:0:
235,71,200594,2,0,P|240:111|228:167,1,85,4|0,0:0|0:0,0:0:0:0:
216,344,200928,5,2,0:0:0:0:
308,204,201094,1,4,0:0:0:0:
144,200,201261,1,10,0:0:0:0:
329,133,201428,1,0,0:0:0:0:
329,133,201511,1,0,0:0:0:0:
329,133,201594,2,0,P|381:205|336:273,1,170,0|8,0:0|0:0,0:0:0:0:
216,344,202094,6,0,L|120:344,1,85,2|0,0:0|0:0,0:0:0:0:
60,264,202428,1,2,0:0:0:0:
228,136,202594,1,8,0:0:0:0:
328,320,202761,1,0,0:0:0:0:
112,200,202928,2,0,P|72:184|12:196,1,85,4|0,0:0|0:0,0:0:0:0:
60,264,203178,1,0,0:0:0:0:
60,264,203261,6,0,P|100:280|160:268,1,85,12|0,0:0|0:0,0:0:0:0:
331,235,203594,2,0,L|328:320,1,85,2|0,0:0|0:0,0:0:0:0:
230,178,203928,2,0,L|226:118,1,42.5,8|0,0:0|0:0,0:0:0:0:
408,68,204094,2,0,L|412:128,1,42.5,6|0,0:0|0:0,0:0:0:0:
331,235,204261,2,0,B|332:152|332:152|324:136|324:136|324:60,1,170,0|8,0:0|0:0,0:0:0:0:
188,40,204761,5,0,0:0:0:0:
188,40,204844,1,0,0:0:0:0:
188,40,204928,1,8,0:0:0:0:
230,178,205094,1,0,0:0:0:0:
230,178,205178,1,0,0:0:0:0:
230,178,205261,2,0,L|218:242,1,42.5,8|0,0:0|0:0,0:0:0:0:
96,168,205428,2,0,L|108:104,1,42.5,2|0,0:0|0:0,0:0:0:0:
188,40,205594,6,0,L|368:32,1,170,4|8,0:0|0:0,0:0:0:0:
456,168,206094,1,2,0:0:0:0:
336,288,206261,1,2,0:0:0:0:
328,116,206428,1,2,0:0:0:0:
428,256,206594,1,8,0:0:0:0:
230,178,206761,1,0,0:0:0:0:
230,178,206844,1,0,0:0:0:0:
230,178,206928,2,0,P|184:176|132:180,1,85,2|0,0:0|0:0,0:0:0:0:
32,284,207261,5,8,0:0:0:0:
181,310,207428,1,2,0:0:0:0:
78,178,207595,1,2,0:0:0:0:
230,178,207761,1,2,0:0:0:0:
152,32,207928,1,8,0:0:0:0:
109,109,208094,1,0,0:0:0:0:
109,109,208178,1,0,0:0:0:0:
109,109,208261,2,0,B|192:110|192:110|208:102|208:102|284:102,1,170,0|8,0:0|0:0,0:0:0:0:
352,248,208761,2,0,B|282:248|282:248|266:256|266:256|183:255,1,170
44,156,209261,5,8,0:0:0:0:
34,126,209344,1,0,0:0:0:0:
35,94,209427,1,0,0:0:0:0:
47,65,209511,1,0,0:0:0:0:
67,42,209594,2,0,L|157:42,1,85,2|0,0:0|0:0,0:0:0:0:
276,180,209928,2,0,L|186:180,1,85,8|0,0:0|0:0,0:0:0:0:
44,156,210261,5,8,0:0:0:0:
44,156,210344,1,0,0:0:0:0:
44,156,210428,1,0,0:0:0:0:
136,292,210594,1,8,0:0:0:0:
136,292,210677,1,0,0:0:0:0:
136,292,210761,1,0,0:0:0:0:
276,180,210928,6,0,P|368:160|452:188,1,170,4|0,0:0|0:0,0:0:0:0:
299,292,211428,2,0,P|207:312|123:284,1,170,4|0,0:0|0:0,0:0:0:0:
144,164,211928,1,8,0:0:0:0:
171,132,212011,1,0,0:0:0:0:
206,107,212094,1,0,0:0:0:0:
246,92,212178,1,0,0:0:0:0:
289,88,212261,6,0,P|349:144|349:240,1,170,4|0,0:0|0:0,0:0:0:0:
132,260,212761,2,0,P|72:204|72:108,1,170,4|0,0:0|0:0,0:0:0:0:
344,32,213261,1,8,0:0:0:0:
376,48,213344,1,0,0:0:0:0:
404,72,213428,1,0,0:0:0:0:
416,104,213511,1,0,0:0:0:0:
416,140,213594,2,0,L|396:196,1,42.5,2|0,0:0|0:0,0:0:0:0:
264,204,213761,2,0,L|216:168,1,42.5,2|0,0:0|0:0,0:0:0:0:
80,80,213928,5,8,0:0:0:0:
63,109,214011,1,0,0:0:0:0:
62,143,214094,1,0,0:0:0:0:
67,176,214178,1,0,0:0:0:0:
75,209,214261,1,0,0:0:0:0:
80,243,214344,1,0,0:0:0:0:
80,280,214428,2,0,L|64:336,2,42.5
160,280,214678,1,0,0:0:0:0:
160,280,214761,2,0,L|145:329,2,42.5
211,228,215011,2,0,L|211:196,2,21.25
283,212,215178,1,0,0:0:0:0:
283,212,215261,2,0,L|283:180,2,21.25
359,196,215428,1,0,0:0:0:0:
359,196,215511,2,0,L|359:164,16,21.25
283,212,216261,6,0,P|236:220|184:212,1,85,4|0,0:0|0:0,0:0:0:0:
40,128,216594,2,0,P|87:120|139:128,1,85,8|0,0:0|0:0,0:0:0:0:
240,144,216928,1,2,0:0:0:0:
128,244,217094,1,2,0:0:0:0:
279,296,217261,2,0,L|283:204,1,85,8|0,0:0|0:0,0:0:0:0:
251,66,217594,2,0,P|207:74|159:114,1,85,2|0,0:0|0:0,0:0:0:0:
128,244,217928,5,8,0:0:0:0:
240,144,218094,1,2,0:0:0:0:
280,296,218261,2,0,L|392:296,1,85,2|0,0:0|0:0,0:0:0:0:
464,176,218594,1,8,0:0:0:0:
340,228,218761,1,2,0:0:0:0:
448,328,218928,1,2,0:0:0:0:
448,328,219261,1,8,0:0:0:0:
448,328,219594,6,0,L|452:268,1,42.5,8|0,0:0|0:0,0:0:0:0:
337,270,219761,2,0,L|339:227,1,42.5,2|0,0:0|0:0,0:0:0:0:
232,320,219928,2,0,L|236:260,1,42.5,8|0,0:0|0:0,0:0:0:0:
121,262,220094,2,0,L|123:219,1,42.5,2|0,0:0|0:0,0:0:0:0:
216,164,220261,2,0,L|320:164,1,85,2|0,0:0|0:0,0:0:0:0:
476,244,220594,1,8,0:0:0:0:
412,136,220761,1,2,0:0:0:0:
337,270,220927,2,0,L|253:258,1,85,2|0,0:0|0:0,0:0:0:0:
128,184,221261,1,8,0:0:0:0:
351,115,221427,5,0,0:0:0:0:
351,115,221511,1,0,0:0:0:0:
351,115,221594,2,0,P|371:207|335:271,1,170,2|8,0:0|0:0,0:0:0:0:
212,340,222094,1,0,0:0:0:0:
125,226,222261,6,0,L|129:166,1,42.5,8|0,0:0|0:0,0:0:0:0:
224,140,222428,2,0,L|221:182,1,42.5,2|0,0:0|0:0,0:0:0:0:
316,228,222594,2,0,L|320:168,1,42.5,8|0,0:0|0:0,0:0:0:0:
415,142,222761,2,0,L|412:184,1,42.5,2|0,0:0|0:0,0:0:0:0:
372,284,222928,6,0,P|332:304|276:300,1,85,2|0,0:0|0:0,0:0:0:0:
125,226,223261,1,8,0:0:0:0:
212,340,223428,1,2,0:0:0:0:
316,228,223594,2,0,L|324:112,1,85,2|0,0:0|0:0,0:0:0:0:
224,140,223928,1,8,0:0:0:0:
416,143,224094,1,0,0:0:0:0:
416,143,224178,1,0,0:0:0:0:
416,143,224261,6,0,P|448:232|416:308,1,170,0|8,0:0|0:0,0:0:0:0:
316,228,224761,2,0,L|328:172,1,42.5,2|0,0:0|0:0,0:0:0:0:
352,44,224928,1,8,0:0:0:0:
352,44,225094,1,2,0:0:0:0:
352,44,225261,1,8,0:0:0:0:
352,44,225428,1,2,0:0:0:0:
259,136,225594,6,0,P|196:140|154:127,1,85,2|0,0:0|0:0,0:0:0:0:
40,56,225928,2,0,P|103:52|144:64,1,85,8|0,0:0|0:0,0:0:0:0:
200,260,226261,1,2,0:0:0:0:
44,180,226428,1,2,0:0:0:0:
234,85,226594,6,0,P|261:124|252:145,1,63.75,8|0,0:0|0:0,0:0:0:0:
188,144,226928,6,0,L|104:144,1,85,4|0,0:0|0:0,0:0:0:0:
40,56,227261,1,8,0:0:0:0:
44,180,227428,2,0,L|56:240,1,42.5,2|0,0:0|0:0,0:0:0:0:
120,336,227594,1,8,0:0:0:0:
120,336,227761,1,2,0:0:0:0:
120,336,227928,1,8,0:0:0:0:
120,336,228094,1,2,0:0:0:0:
228,280,228261,6,0,L|324:280,1,85,2|0,0:0|0:0,0:0:0:0:
460,192,228594,2,0,L|364:192,1,85,8|0,0:0|0:0,0:0:0:0:
220,160,228928,1,2,0:0:0:0:
320,44,229094,1,2,0:0:0:0:
216,52,229261,1,8,0:0:0:0:
332,152,229427,1,2,0:0:0:0:
228,280,229594,6,0,L|144:284,1,85,2|0,0:0|0:0,0:0:0:0:
16,180,229928,2,0,L|100:176,1,85,8|0,0:0|0:0,0:0:0:0:
220,160,230261,2,0,L|216:212,1,42.5,8|0,0:0|0:0,0:0:0:0:
284,256,230428,2,0,L|288:204,1,42.5,2|0,0:0|0:0,0:0:0:0:
364,176,230594,2,0,L|360:228,1,42.5,8|0,0:0|0:0,0:0:0:0:
428,272,230761,2,0,L|432:220,1,42.5,2|0,0:0|0:0,0:0:0:0:
352,96,230928,6,0,L|260:88,1,85,2|0,0:0|0:0,0:0:0:0:
48,72,231261,1,8,0:0:0:0:
48,72,231344,1,0,0:0:0:0:
48,72,231428,2,0,P|87:100|152:109,1,85
276,168,231761,2,0,P|242:193|201:205,1,85,0|8,0:0|0:0,0:0:0:0:
60,284,232094,1,0,0:0:0:0:
60,284,232178,1,0,0:0:0:0:
60,284,232261,2,0,P|99:312|164:321,1,85,2|0,0:0|0:0,0:0:0:0:
350,205,232594,2,0,P|310:176|245:167,1,85,8|0,0:0|0:0,0:0:0:0:
84,184,232928,6,0,L|33:171,1,42.5,8|0,0:0|0:0,0:0:0:0:
176,84,233094,2,0,L|217:93,1,42.5,2|0,0:0|0:0,0:0:0:0:
96,88,233261,6,0,L|54:78,1,42.5,8|0,0:0|0:0,0:0:0:0:
164,180,233428,2,0,L|205:189,1,42.5,2|0,0:0|0:0,0:0:0:0:
304,276,233594,6,0,P|356:284|404:276,1,85,2|0,0:0|0:0,0:0:0:0:
504,164,233928,2,0,P|452:156|404:164,1,85,8|0,0:0|0:0,0:0:0:0:
227,225,234261,1,2,0:0:0:0:
320,128,234428,1,2,0:0:0:0:
167,67,234594,2,0,L|155:171,1,85,8|0,0:0|0:0,0:0:0:0:
382,228,234928,6,0,P|320:198|224:226,1,170,0|8,0:0|0:0,0:0:0:0:
116,333,235428,2,0,L|105:273,1,42.5,2|0,0:0|0:0,0:0:0:0:
79,141,235594,1,8,0:0:0:0:
79,141,235761,1,2,0:0:0:0:
79,141,235928,1,8,0:0:0:0:
79,141,236094,1,2,0:0:0:0:
180,236,236261,6,0,L|284:236,1,85,2|0,0:0|0:0,0:0:0:0:
424,128,236594,2,0,L|320:128,1,85,8|0,0:0|0:0,0:0:0:0:
170,73,236928,1,8,0:0:0:0:
142,105,237011,1,0,0:0:0:0:
127,143,237094,1,0,0:0:0:0:
127,186,237178,1,0,0:0:0:0:
139,224,237261,2,0,L|214:245,1,42.5,8|0,0:0|0:0,0:0:0:0:
364,160,237428,2,0,L|289:139,1,42.5,2|0,0:0|0:0,0:0:0:0:
256,196,237594,5,4,0:0:0:0:
