osu file format v9

[General]
AudioFilename: 321STARS.mp3
AudioLeadIn: 1996
PreviewTime: 62918
Countdown: 1
SampleSet: Normal
StackLeniency: 0.7
Mode: 1
LetterboxInBreaks: 1
SkinPreference:taiko

[Editor]
DistanceSpacing: 0.8
BeatDivisor: 4
GridSize: 8

[Metadata]
Title:321STARS
Artist:DJ SIMON
Creator:Zelos
Version:Taiko Oni
Source:Dance Dance Revolution
Tags:Extreme DDR

[Difficulty]
HPDrainRate:5
CircleSize:5
OverallDifficulty:5
ApproachRate:5
SliderMultiplier:1.4
SliderTickRate:1

[Events]
//Background and Video events
0,0,"321STARS-bg.png"
//Break Periods
//Storyboard Layer 0 (Background)
//Storyboard Layer 1 (Fail)
//Storyboard Layer 2 (Pass)
//Storyboard Layer 3 (Foreground)
//Storyboard Sound Samples
//Background Colour Transformations
3,100,163,162,255

[TimingPoints]
2564,312.5,4,1,0,100,1,0
63032,312.5,4,1,0,100,1,0

[HitObjects]
256,192,64,1,4
168,80,376,1,12
328,96,689,1,4
376,192,1001,1,12
312,312,1314,1,6
280,256,1626,1,6
360,256,1939,1,6
448,264,2251,1,6
256,112,2564,5,0
344,120,2720,1,2
440,120,2876,1,0
352,40,3032,1,2
256,48,3189,1,0
160,48,3345,1,2
152,120,3501,1,0
152,216,3657,1,0
216,224,3735,1,0
280,224,3814,1,0
384,224,3970,1,0
424,224,4048,1,0
472,224,4126,1,0
248,304,4282,1,2
336,304,4360,1,2
392,304,4439,1,2
80,304,4595,1,6
152,304,4751,1,6
256,112,5064,5,0
344,120,5220,1,2
440,120,5376,1,0
352,40,5532,1,2
256,48,5689,1,0
160,48,5845,1,2
152,120,6001,1,0
152,216,6157,1,0
216,224,6235,1,0
280,224,6314,1,0
384,224,6470,1,0
424,224,6548,1,0
472,224,6626,1,0
248,304,6782,1,2
336,304,6860,1,2
392,304,6939,1,2
80,304,7095,1,6
152,296,7251,1,6
256,112,7564,5,0
344,120,7720,1,2
440,120,7876,1,0
352,40,8032,1,2
256,48,8189,1,0
160,48,8345,1,2
152,120,8501,1,0
144,192,8657,1,0
208,192,8735,1,2
272,192,8814,1,0
144,192,8970,1,0
208,192,9048,1,2
272,192,9126,1,0
144,192,9282,1,0
208,192,9360,1,2
272,192,9439,1,0
240,288,9595,1,4
344,280,9751,1,4
256,112,10064,5,0
344,120,10220,1,2
440,120,10376,1,0
352,40,10532,1,2
256,48,10689,1,0
160,48,10845,1,2
152,120,11001,1,0
144,192,11157,1,0
208,192,11235,1,2
272,192,11314,1,0
144,192,11470,1,0
208,192,11548,1,2
272,192,11626,1,0
144,192,11782,1,0
208,192,11860,1,2
272,192,11939,1,0
240,288,12095,1,4
344,280,12251,1,4
344,88,12407,1,6
344,88,12564,1,6
240,96,12876,5,6
96,128,13189,1,4
96,128,13501,1,4
136,216,13814,1,6
184,224,14126,1,6
288,176,14439,1,4
352,152,14751,1,4
200,96,15064,1,6
256,88,15220,1,6
312,80,15376,1,6
368,64,15532,1,6
424,48,15689,1,6
424,112,15845,1,6
424,176,16001,1,6
424,240,16157,1,6
200,232,16314,5,4
200,232,16626,1,4
200,232,16939,1,4
256,112,17251,1,6
104,112,17564,5,0
176,96,17720,1,2
312,64,17876,1,0
400,72,18032,1,2
392,160,18189,1,0
264,192,18345,1,2
312,200,18423,1,2
368,208,18501,1,0
448,224,18657,1,2
104,112,18814,5,0
176,96,18970,1,2
312,64,19126,1,0
400,72,19282,1,2
392,160,19439,1,0
264,192,19595,1,2
312,200,19673,1,2
368,208,19751,1,0
448,224,19907,1,2
104,112,20064,5,0
176,96,20220,1,2
312,64,20376,1,0
400,72,20532,1,2
392,160,20689,1,0
264,192,20845,1,2
312,200,20923,1,2
368,208,21001,1,0
448,224,21157,1,2
104,112,21314,5,0
176,96,21470,1,2
312,64,21626,1,0
400,72,21782,1,2
392,160,21939,1,0
264,192,22095,1,2
312,200,22173,1,2
368,208,22251,1,0
448,224,22407,1,2
96,192,22564,5,0
168,192,22720,1,0
256,112,22876,1,2
256,48,23032,1,2
248,264,23189,1,0
248,336,23345,1,0
376,104,23501,1,2
448,112,23657,1,2
336,216,23814,1,0
352,296,23970,1,0
432,304,24126,1,2
440,200,24282,1,2
104,144,24439,1,0
184,144,24595,1,0
264,136,24751,1,2
184,80,24907,1,2
112,208,25064,5,0
152,208,25142,1,0
208,208,25220,1,0
264,208,25298,1,0
320,176,25376,1,0
352,120,25454,1,0
352,80,25532,1,0
336,40,25610,1,0
240,32,25689,1,2
168,32,25767,1,2
104,64,25845,1,2
48,120,25923,1,2
40,208,26001,1,2
64,296,26079,1,2
176,312,26157,1,2
312,304,26235,1,2
400,280,26314,1,0
432,232,26392,1,0
448,160,26470,1,0
448,96,26548,1,0
416,32,26626,1,0
216,104,26704,1,0
208,208,26782,1,0
296,128,26860,1,0
288,216,26939,1,2
368,200,27017,1,2
128,160,27095,1,2
128,272,27173,1,2
232,296,27251,1,2
368,336,27329,1,2
352,112,27407,1,2
280,64,27485,1,2
104,56,27564,5,0
176,48,27720,1,2
48,144,27876,1,0
136,112,28032,1,2
200,160,28189,1,0
96,216,28345,1,2
200,224,28501,1,0
272,208,28657,2,0,B|376:344,1,140
384,184,29282,1,6
376,96,29439,1,6
272,96,29595,1,6
160,72,29751,1,6
112,160,29907,1,0
104,56,30064,5,0
176,48,30220,1,2
48,144,30376,1,0
136,112,30532,1,2
200,160,30689,1,0
96,216,30845,1,2
200,224,31001,1,0
312,192,31157,2,0,B|224:336,1,140
384,184,31782,1,6
376,96,31939,1,6
272,96,32095,1,6
160,72,32251,1,6
112,160,32407,1,0
176,208,32564,6,0,B|312:296,1,140
304,192,33189,1,0
392,264,33345,1,2
472,192,33501,1,0
160,144,33657,2,0,B|240:288,1,140
80,192,34126,1,0
168,200,34282,1,2
240,200,34439,2,0,B|328:320,1,140
112,208,35064,5,0
152,208,35142,1,0
208,208,35220,1,0
264,208,35298,1,0
320,176,35376,1,0
352,120,35454,1,0
352,80,35532,1,0
336,40,35610,1,0
240,32,35689,1,2
168,32,35767,1,2
104,64,35845,1,2
48,120,35923,1,2
40,208,36001,1,2
64,296,36079,1,2
176,312,36157,1,2
312,304,36235,1,2
400,280,36314,1,0
432,232,36392,1,0
448,160,36470,1,0
448,96,36548,1,0
416,32,36626,1,0
216,104,36704,1,0
208,208,36782,1,0
296,128,36860,1,0
288,216,36939,1,2
368,200,37017,1,2
128,160,37095,1,2
128,272,37173,1,2
232,296,37251,1,2
368,336,37329,1,2
352,112,37407,1,2
144,72,37564,5,0
272,48,37876,1,2
272,48,38032,1,6
272,48,38189,1,6
240,176,38501,1,0
312,176,38657,1,2
384,176,38814,1,0
464,176,38970,1,2
88,120,39282,1,0
152,120,39360,1,2
216,120,39439,1,0
88,192,39595,1,0
152,192,39673,1,2
216,192,39751,1,0
128,280,39907,1,0
200,272,40064,1,0
344,192,40376,1,0
408,192,40532,1,0
296,72,40689,1,2
448,264,40845,1,2
424,72,41157,1,4
440,128,41470,1,6
480,48,41782,1,4
128,192,42095,5,0
136,224,42173,1,0
160,240,42251,1,0
200,256,42329,1,0
200,256,42407,1,0
256,256,42485,1,0
320,232,42564,1,2
320,88,42876,1,0
248,88,43032,1,0
120,80,43189,1,2
248,168,43501,1,0
312,168,43657,1,0
376,160,43814,1,0
448,152,43970,1,2
240,288,44282,1,2
240,288,44595,1,2
64,224,44751,1,0
256,96,44907,5,0
360,80,45064,1,4
96,112,45689,1,4
216,200,46314,1,6
272,224,46626,1,6
328,176,46939,1,6
272,144,47251,1,6
256,112,47564,5,0
344,120,47720,1,2
440,120,47876,1,0
352,40,48032,1,2
256,48,48189,1,0
160,48,48345,1,2
152,120,48501,1,0
152,216,48657,1,0
216,224,48735,1,0
280,224,48814,1,0
384,224,48970,1,0
424,224,49048,1,0
472,224,49126,1,0
248,304,49282,1,2
336,304,49360,1,2
392,304,49439,1,2
80,304,49595,1,6
152,304,49751,1,6
256,112,50064,5,0
344,120,50220,1,2
440,120,50376,1,0
352,40,50532,1,2
256,48,50689,1,0
160,48,50845,1,2
152,120,51001,1,0
152,216,51157,1,0
216,224,51235,1,0
280,224,51314,1,0
384,224,51470,1,0
424,224,51548,1,0
472,224,51626,1,0
248,304,51782,1,2
336,304,51860,1,2
392,304,51939,1,2
80,304,52095,1,6
152,304,52251,1,6
256,112,52564,5,0
344,120,52720,1,2
440,120,52876,1,0
352,40,53032,1,2
256,48,53189,1,0
160,48,53345,1,2
152,120,53501,1,0
144,192,53657,1,0
208,192,53735,1,2
272,192,53814,1,0
144,192,53970,1,0
208,192,54048,1,2
272,192,54126,1,0
144,192,54282,1,0
208,192,54360,1,2
272,192,54439,1,0
240,288,54595,1,4
344,280,54751,1,4
256,112,55064,5,0
344,120,55220,1,2
440,120,55376,1,0
352,40,55532,1,2
256,48,55689,1,0
160,48,55845,1,2
152,120,56001,1,0
144,192,56157,1,0
208,192,56235,1,2
272,192,56314,1,0
144,192,56470,1,0
208,192,56548,1,2
272,192,56626,1,0
144,192,56782,1,0
208,192,56860,1,2
272,192,56939,1,0
240,288,57095,1,4
344,280,57251,1,4
368,144,57407,1,0
368,208,57485,1,0
360,112,57564,1,0
128,104,57876,1,4
256,72,58189,1,6
248,152,58501,1,6
64,232,58814,1,4
248,240,59126,1,4
328,80,59439,1,6
136,128,59751,1,6
248,152,60064,1,6
248,152,60220,1,6
240,72,60376,1,6
144,56,60532,1,6
56,224,60689,1,6
176,312,60845,1,6
320,288,61001,1,6
328,208,61157,1,6
336,136,61314,1,4
144,144,61548,1,6
248,152,61782,1,4
256,192,61939,12,0,62876
232,32,63032,5,4
184,152,63344,5,6
360,120,63500,1,6
408,88,63657,1,6
232,288,63969,1,0
288,288,64125,1,0
288,208,64282,1,0
336,216,64438,1,8
432,224,64750,1,2
120,80,65063,1,0
192,88,65141,1,2
280,96,65219,1,0
136,192,65532,5,0
200,184,65688,1,0
272,184,65844,1,2
368,160,66000,1,2
16,152,66157,1,0
48,264,66313,1,0
160,272,66469,1,2
264,272,66625,1,2
256,56,66938,6,2,B|256:200,1,140
144,96,67563,5,0
184,176,67719,1,0
224,256,67875,1,0
328,272,68032,1,2
336,96,68344,1,6
440,104,68500,1,6
256,96,68657,1,6
232,288,68969,1,0
288,288,69125,1,0
288,208,69282,1,0
336,216,69438,1,2
432,224,69750,1,2
120,80,70063,1,0
192,88,70141,1,2
280,96,70219,1,0
112,192,70532,5,0
176,192,70688,1,0
240,192,70844,1,2
304,192,71000,1,2
368,192,71157,1,0
432,192,71313,1,0
424,128,71469,1,2
352,136,71625,1,2
176,64,71782,5,0
128,72,71860,1,0
96,104,71938,1,0
72,160,72016,1,0
64,232,72094,1,0
112,296,72172,1,0
200,288,72250,1,0
256,256,72328,1,0
216,152,72407,1,2
248,96,72485,1,2
312,56,72563,1,2
456,72,72641,1,2
432,192,72719,1,2
384,56,72797,1,2
336,232,72875,1,2
304,160,72953,1,2
408,280,73032,1,2
304,312,73344,1,6
240,312,73657,1,4
176,200,73969,1,4
80,144,74282,1,6
240,120,74594,1,6
352,104,74907,1,4
400,176,75219,1,4
216,224,75532,5,2
272,224,75610,1,2
288,176,75688,1,2
304,128,75766,1,2
304,72,75844,1,2
240,56,75922,1,2
160,80,76000,1,2
136,152,76078,1,2
128,216,76157,1,2
160,288,76235,1,2
240,312,76313,1,2
320,304,76391,1,2
384,272,76469,1,2
384,224,76547,1,2
376,144,76625,1,2
368,72,76703,1,2
200,192,76782,1,0
216,128,77094,1,4
80,80,77407,1,4
