osu file format v9

[General]
AudioFilename: 321STARS.mp3
AudioLeadIn: 0
PreviewTime: 62948
Countdown: 1
SampleSet: Normal
StackLeniency: 0.7
Mode: 0
LetterboxInBreaks: 1

[Editor]
DistanceSpacing: 0.6
BeatDivisor: 4
GridSize: 8

[Metadata]
Title:321STARS
Artist:DJ SIMON
Creator:Zelos
Version:Normal
Source:Dance Dance Revolution
Tags:Extreme DDR

[Difficulty]
HPDrainRate:5
CircleSize:5
OverallDifficulty:5
ApproachRate:5
SliderMultiplier:1.1
SliderTickRate:1

[Events]
//Background and Video events
0,0,"321STARS-bg.png"
//Break Periods
//Storyboard Layer 0 (Background)
//Storyboard Layer 1 (Fail)
//Storyboard Layer 2 (Pass)
//Storyboard Layer 3 (Foreground)
//Storyboard Sound Samples
//Background Colour Transformations
3,100,163,162,255

[TimingPoints]
2564,312.5,4,1,0,100,1,0
63032,312.5,4,1,0,100,1,0

[Colours]
Combo1 : 255,255,0
Combo2 : 0,240,0
Combo3 : 0,0,240
Combo4 : 240,0,0

[HitObjects]
120,104,2564,2,0,B|208:224|304:96,1,220,4|0
432,96,3814,1,0
432,160,4126,1,8
432,224,4439,1,0
304,192,5064,6,0,B|176:192|192:344,1,220
64,304,6314,1,0
104,248,6626,1,8
144,192,6939,1,0
272,192,7564,6,0,B|272:72|120:64,1,220
88,192,8814,1,0
152,192,9126,1,8
216,192,9439,1,0
344,192,10064,6,0,B|344:80|480:32,1,220
432,160,11314,1,0
416,224,11626,1,8
400,288,11939,1,0
312,192,12564,6,0,B|184:192,3,110
136,192,13814,2,0,B|136:72,3,110
256,192,15064,12,0,16314
256,192,16939,5,2
256,64,17564,6,2,B|320:64|336:128,2,110
128,64,18814,1,0
104,128,19126,1,8
96,192,19439,1,0
224,192,20064,6,2,B|296:192|304:128,2,110
360,192,21314,1,0
424,176,21626,1,8
488,160,21939,1,0
488,24,22564,6,2,B|408:24|408:80,2,110
360,32,23814,2,2,B|360:112|288:104,2,110
256,192,25064,12,0,26939
256,192,27564,5,0
224,136,27876,1,0
192,80,28189,1,0
160,24,28501,1,0
96,24,28814,2,2,B|16:24|24:104|40:152|128:184,1,220
248,160,30064,5,0
312,168,30376,1,0
360,208,30689,1,0
376,272,31001,1,0
384,336,31314,2,2,B|264:336|240:184,1,220
112,192,32564,6,2,B|120:312|264:336,1,220,2|8
352,240,33814,2,2,B|344:120|200:96,1,220,2|10
256,192,35064,12,0,36939
120,80,37564,6,0,B|208:80|208:152,1,110
208,200,38189,2,0,B|208:280|296:264,1,110
344,264,38814,2,0,B|344:184,1,55,0|2
344,144,39282,1,2
224,24,40064,6,0,B|160:24|152:104,1,110
152,160,40689,2,0,B|152:224|232:224,1,110
288,224,41314,2,0,B|400:224|408:384,1,220,0|8
432,248,42564,6,0,B|432:168|360:160,1,110
312,160,43189,2,0,B|232:160|240:88,1,110
240,32,43814,2,0,B|304:32,1,55
360,32,44282,1,2
312,192,45064,6,0,B|88:192,1,220
88,328,46314,1,2
152,312,46626,1,2
208,272,46939,1,2
232,208,47251,1,2
248,144,47564,6,0,B|368:144|424:272,1,220
288,288,48814,1,0
224,288,49126,1,8
160,288,49439,1,0
120,160,50064,6,0,B|248:160|256:16,1,220
384,40,51314,1,0
440,72,51626,1,8
464,128,51939,1,0
368,224,52564,6,0,B|256:224|256:384,1,220
128,352,53814,1,0
80,304,54126,1,8
32,256,54439,1,0
144,192,55064,6,0,B|256:192|288:336,1,220
416,352,56314,2,0,B|416:240,1,110,0|8
384,184,56939,2,0,B|304:80,1,110,0|8
256,192,57564,12,0,59751
256,192,60064,6,0,B|256:128,8,55
480,168,63032,6,0,B|416:168|400:80,1,110
392,32,63657,2,0,B|312:32|320:96,1,110,8|0
320,160,64282,2,0,B|320:216|248:232,2,110,0|10|0
184,160,65532,6,0,B|184:80|104:80,1,110
56,80,66157,2,0,B|56:152|136:160,1,110,8|0
120,224,66782,2,0,B|120:288|48:304,2,110,0|8|0
248,192,68032,6,0,B|320:192|320:104,1,110
384,120,68657,2,0,B|384:56|312:48,1,110,8|0
248,48,69282,2,0,B|248:112|152:120,2,110,0|10|0
256,176,70532,6,0,B|320:176|336:240,1,110
272,240,71157,2,0,B|272:320|200:304,1,110
144,304,71782,1,0
80,288,72094,1,8
40,240,72407,1,0
32,176,72719,1,8
32,112,73032,6,0,B|32:56|104:40,1,110
168,40,73657,2,0,B|240:40|248:128,1,110
312,96,74282,2,0,B|384:96|384:168,1,110
384,224,74907,2,0,B|384:288|304:288,1,110
256,192,75532,12,8,76782
256,192,77094,5,0
256,192,77407,1,4
