osu file format v9

[General]
AudioFilename: 321STARS.mp3
AudioLeadIn: 0
PreviewTime: 62948
Countdown: 1
SampleSet: Normal
StackLeniency: 0.7
Mode: 0
LetterboxInBreaks: 1

[Editor]
DistanceSpacing: 0.6
BeatDivisor: 4
GridSize: 8

[Metadata]
Title:321STARS
Artist:DJ SIMON
Creator:Zelos
Version:Easy
Source:Dance Dance Revolution
Tags:Extreme DDR

[Difficulty]
HPDrainRate:3
CircleSize:4
OverallDifficulty:3
ApproachRate:3
SliderMultiplier:1
SliderTickRate:1

[Events]
//Background and Video events
0,0,"321STARS-bg.png"
//Break Periods
//Storyboard Layer 0 (Background)
//Storyboard Layer 1 (Fail)
//Storyboard Layer 2 (Pass)
//Storyboard Layer 3 (Foreground)
//Storyboard Sound Samples
//Background Colour Transformations
3,100,163,162,255

[TimingPoints]
2564,312.5,4,1,0,100,1,0
63032,312.5,4,1,0,100,1,0

[Colours]
Combo1 : 255,255,0
Combo2 : 0,240,0
Combo3 : 0,0,240
Combo4 : 240,0,0

[HitObjects]
256,192,2564,1,4
376,192,3189,1,0
376,72,3814,2,0,B|256:72,2,100,0|8|0
376,192,5064,5,0
256,192,5689,1,0
152,128,6314,2,0,B|152:232,2,100,0|8|0
256,192,7564,5,0
368,160,8189,1,0
480,128,8814,2,0,B|480:56|424:32,2,100,0|8|0
368,136,10064,5,0
248,136,10689,1,0
128,136,11314,2,0,B|128:224|192:216,2,100,0|8|0
256,136,12564,6,0,B|256:32,7,100
320,32,15064,1,0
376,32,15376,1,0
432,32,15689,1,0
432,96,16001,1,0
376,96,16314,1,0
320,96,16626,2,8,B|320:200,1,100,8|4
440,192,17564,6,2,B|432:280|304:328,1,200
248,224,18814,1,0
136,224,19439,1,0
136,104,20064,6,2,B|160:40|328:56,1,200
440,40,21314,1,0
440,160,21939,1,0
320,160,22564,2,0,B|200:160|184:40,4,200,0|8|0|8|0
440,192,25689,6,2,B|336:192|320:336,2,200
448,72,27564,6,2,B|352:48|240:120,1,200
168,192,28814,1,0
256,272,29439,1,0
376,272,30064,6,2,B|376:176|256:128,1,200
256,8,31314,1,0
336,96,31939,1,0
256,184,32564,6,0,B|168:184|136:32,4,200,0|8|0|8|0
336,96,35689,6,2,B|424:128|440:264,2,200
280,200,37564,6,0,B|272:288|416:352|488:128|288:56,1,400
232,160,39439,1,2
256,56,40064,2,0,B|64:56|32:232|120:352,1,400
224,352,41939,1,2
344,352,42564,6,0,B|408:272|416:144|160:80,2,400,0|4|0
224,352,45689,1,0
256,240,46314,5,2
256,240,46626,1,2
256,240,46939,1,2
256,240,47251,1,2
256,240,47564,6,0,B|368:240|400:104,1,200
288,64,48814,2,0,B|176:64,2,100,0|8|0
256,176,50064,6,0,B|256:272|112:312,1,200
88,192,51314,2,0,B|88:120|144:112,2,100,0|8|0
208,192,52564,6,0,B|328:192|360:320,1,200
408,192,53814,2,0,B|408:128|344:128,2,100,0|8|0
288,192,55064,6,0,B|184:192|176:48,1,200
296,64,56314,1,0
296,64,56626,1,8
296,64,56939,1,0
416,64,57564,6,0,B|416:176,7,100
416,232,60064,6,0,B|352:232,8,50
88,200,63032,6,0,B|288:104,3,200,0|2|0|2
360,192,65532,6,0,B|360:288|232:336,3,200,0|2|0|2
256,216,68032,6,0,B|256:128|80:152,1,200,0|2
88,272,69282,1,2
88,272,69594,1,2
88,272,69907,1,2
240,272,70532,6,0,B|336:272|360:128,1,200
240,128,71782,1,2
176,128,72094,1,2
112,128,72407,1,2
48,128,72719,1,2
48,184,73032,6,0,B|152:184,7,100
256,192,75532,12,8,77407
