osu file format v12

[General]
AudioFilename: 01 Mmmmmmm.mp3
AudioLeadIn: 0
PreviewTime: 58176
Countdown: 0
SampleSet: Normal
StackLeniency: 0.7
Mode: 0
LetterboxInBreaks: 1
WidescreenStoryboard: 0

[Editor]
Bookmarks: 231737
DistanceSpacing: 0.5
BeatDivisor: 4
GridSize: 8

[Metadata]
Title:Mmmmmmm
TitleUnicode:Mmmmmmm
Artist:DJ SHARPNEL
ArtistUnicode:DJ SHARPNEL
Creator:K o h a k u
Version:Insane
Source:
Tags:
BeatmapID:173360
BeatmapSetID:57517

[Difficulty]
HPDrainRate:6
CircleSize:4
OverallDifficulty:8
ApproachRate:9
SliderMultiplier:2
SliderTickRate:1

[Events]
//Background and Video events
0,0,"BG.jpg",0,0
//Break Periods
2,98500,105165
2,150755,168618
//Storyboard Layer 0 (Background)
//Storyboard Layer 1 (Fail)
//Storyboard Layer 2 (Pass)
//Storyboard Layer 3 (Foreground)
//Storyboard Sound Samples
//Background Colour Transformations
3,100,163,162,255

[TimingPoints]
2500,311.04199066874,4,1,0,70,1,0
10276,-200,4,1,0,70,0,0
10376,-200,4,1,0,15,0,0
11053,-100,4,1,0,70,0,0
24583,-200,4,1,0,70,0,0
24895,-100,4,1,0,70,0,0
24995,-100,4,1,0,70,0,0
86170,-200,4,1,0,70,0,0
86792,-100,4,1,0,70,0,0
105765,-100,4,1,0,15,0,0
108254,-100,4,1,0,70,0,0
171395,-100,4,1,0,5,0,0
171629,-100,4,1,0,70,0,0
184459,-200,4,1,0,70,0,0
185237,-100,4,1,0,70,0,0
188736,-200,4,1,0,70,0,0
189125,-100,4,1,0,70,0,0

[Colours]
Combo1 : 255,128,0
Combo2 : 240,34,4
Combo3 : 5,5,240

[HitObjects]
24,248,2500,1,0,0:0:0:0:
48,104,2655,1,0,0:0:0:0:
168,192,2811,2,0,B|184:240|184:240|152:296,1,100
488,248,3122,5,0,0:0:0:0:
464,104,3277,1,0,0:0:0:0:
344,192,3433,2,0,B|328:240|328:240|360:296,1,100
256,168,3744,5,0,0:0:0:0:
352,56,3899,2,0,B|384:96|384:96|384:152,1,100
160,56,4210,1,0,0:0:0:0:
80,184,4366,2,0,B|136:160|184:192,1,100
256,312,4677,5,0,0:0:0:0:
176,187,4832,1,0,0:0:0:0:
312,128,4988,2,0,B|368:128|416:144,1,100
336,272,5299,1,0,0:0:0:0:
312,128,5454,1,0,0:0:0:0:
80,184,5610,2,0,B|80:240|80:240|128:288,1,100
240,192,5921,2,0,B|240:80,1,100
392,104,6232,1,0,0:0:0:0:
392,256,6388,1,0,0:0:0:0:
120,280,6543,1,0,0:0:0:0:
120,128,6699,1,0,0:0:0:0:
256,56,6854,5,0,0:0:0:0:
256,56,6932,1,0,0:0:0:0:
256,56,7010,1,0,0:0:0:0:
328,192,7165,2,0,B|320:240|280:280,1,100
104,192,7476,6,0,B|96:144|56:104,1,100
408,192,7787,2,0,B|416:144|456:104,1,100
304,96,8098,5,0,0:0:0:0:
152,72,8254,1,0,0:0:0:0:
192,216,8409,1,0,0:0:0:0:
192,216,8720,6,0,B|304:216,1,100
400,64,9031,2,0,B|288:64,1,100,0|0,0:0|0:0,0:0:0:0:
300,64,9498,5,0,0:0:0:0:
376,192,9653,1,0,0:0:0:0:
224,192,9809,1,0,0:0:0:0:
112,168,9965,6,0,B|112:56,1,100
400,168,10276,2,0,B|144:168,1,250
160,240,11209,5,0,0:0:0:0:
160,240,11286,1,0,0:0:0:0:
160,240,11364,1,0,0:0:0:0:
352,240,11520,1,0,0:0:0:0:
352,240,11597,1,0,0:0:0:0:
352,240,11675,1,0,0:0:0:0:
248,136,11831,5,0,0:0:0:0:
248,128,11909,1,0,0:0:0:0:
248,120,11986,1,0,0:0:0:0:
248,112,12064,1,0,0:0:0:0:
248,104,12142,1,0,0:0:0:0:
248,96,12220,1,0,0:0:0:0:
248,88,12297,1,0,0:0:0:0:
248,80,12375,1,0,0:0:0:0:
248,72,12453,5,0,0:0:0:0:
112,144,12608,1,0,0:0:0:0:
200,264,12764,2,0,B|168:304|120:320,1,100
264,72,13075,5,0,0:0:0:0:
400,144,13230,1,0,0:0:0:0:
312,264,13386,2,0,B|344:304|392:320,1,100
320,192,13697,5,0,0:0:0:0:
424,88,13853,1,0,0:0:0:0:
264,72,14008,1,0,0:0:0:0:
400,144,14164,1,0,0:0:0:0:
352,288,14319,6,0,B|296:304|256:280,1,100
256,128,14630,2,0,B|200:144|160:120,1,100
24,192,14941,5,0,0:0:0:0:
152,264,15097,1,0,0:0:0:0:
192,120,15252,1,0,0:0:0:0:
256,256,15408,1,0,0:0:0:0:
320,120,15563,2,0,B|320:64|360:24,1,100
192,264,15874,2,0,B|192:320|152:360,1,100
304,320,16185,5,0,0:0:0:0:
376,184,16341,1,0,0:0:0:0:
344,328,16496,1,0,0:0:0:0:
336,176,16652,1,0,0:0:0:0:
256,48,16807,5,0,0:0:0:0:
256,72,16885,1,0,0:0:0:0:
256,96,16963,1,0,0:0:0:0:
144,192,17118,1,0,0:0:0:0:
256,336,17274,5,0,0:0:0:0:
256,312,17352,1,0,0:0:0:0:
256,288,17430,1,0,0:0:0:0:
256,184,17585,1,0,0:0:0:0:
392,120,17741,2,0,B|504:120,1,100
304,328,18052,5,0,0:0:0:0:
256,184,18207,1,0,0:0:0:0:
120,120,18363,2,0,B|8:120,1,100
120,192,18674,5,0,0:0:0:0:
256,48,18829,1,0,0:0:0:0:
392,192,18985,1,0,0:0:0:0:
256,336,19140,1,0,0:0:0:0:
256,336,19296,6,0,B|280:288|280:288|344:264,1,100
320,120,19607,2,0,B|296:168|296:168|232:192,1,100
256,192,19918,12,0,20851,0:0:0:0:
128,48,21162,5,0,0:0:0:0:
136,48,21240,1,0,0:0:0:0:
144,48,21318,1,0,0:0:0:0:
304,160,21473,5,0,0:0:0:0:
280,160,21551,1,0,0:0:0:0:
256,160,21629,1,0,0:0:0:0:
136,288,21784,5,0,0:0:0:0:
144,288,21862,1,0,0:0:0:0:
152,288,21940,1,0,0:0:0:0:
160,288,22017,1,0,0:0:0:0:
168,288,22095,1,0,0:0:0:0:
176,288,22173,1,0,0:0:0:0:
184,288,22251,1,0,0:0:0:0:
192,288,22328,1,0,0:0:0:0:
200,288,22406,6,0,B|232:240|232:240|232:176,1,100
400,48,22717,2,0,B|368:96|368:96|368:160,1,100
312,288,23028,6,0,B|280:240|280:240|280:176,1,100
112,48,23339,2,0,B|144:96|144:96|144:160,1,100
296,152,23650,5,0,0:0:0:0:
440,192,23806,1,0,0:0:0:0:
256,240,23961,1,0,0:0:0:0:
208,152,24117,1,0,0:0:0:0:
208,152,24272,1,0,0:0:0:0:
208,152,24583,6,0,B|328:152,1,100
424,56,25050,5,0,0:0:0:0:
312,152,25206,1,0,0:0:0:0:
208,152,25361,1,0,0:0:0:0:
208,304,25517,5,0,0:0:0:0:
112,192,25672,1,0,0:0:0:0:
208,152,25828,1,0,0:0:0:0:
112,264,25983,1,0,0:0:0:0:
256,56,26139,5,0,0:0:0:0:
400,192,26294,1,0,0:0:0:0:
288,24,26450,1,0,0:0:0:0:
360,208,26605,1,0,0:0:0:0:
256,320,26761,5,0,0:0:0:0:
256,312,26839,1,0,0:0:0:0:
256,304,26916,1,0,0:0:0:0:
256,296,26994,1,0,0:0:0:0:
256,288,27072,2,0,B|256:176,1,100
272,176,27383,5,0,0:0:0:0:
384,72,27538,1,0,0:0:0:0:
480,192,27694,2,0,B|480:240|480:240|424:280,1,100
240,176,28005,5,0,0:0:0:0:
128,72,28160,1,0,0:0:0:0:
32,192,28316,2,0,B|32:240|32:240|88:280,1,100
160,224,28627,5,0,0:0:0:0:
256,112,28783,1,0,0:0:0:0:
256,264,28938,1,0,0:0:0:0:
408,280,29094,1,0,0:0:0:0:
408,128,29249,6,0,B|432:72|432:72|480:48|480:48,2,100
256,152,29716,1,0,0:0:0:0:
120,80,29871,5,0,0:0:0:0:
256,152,30027,1,0,0:0:0:0:
112,200,30182,1,0,0:0:0:0:
240,280,30338,1,0,0:0:0:0:
392,80,30493,5,0,0:0:0:0:
256,152,30649,1,0,0:0:0:0:
400,200,30804,1,0,0:0:0:0:
272,280,30960,1,0,0:0:0:0:
256,336,31115,5,0,0:0:0:0:
256,232,31271,1,0,0:0:0:0:
256,136,31426,1,0,0:0:0:0:
256,32,31582,1,0,0:0:0:0:
160,64,31737,6,0,B|136:64|136:64,12,25
264,64,32360,5,0,0:0:0:0:
392,176,32515,1,0,0:0:0:0:
392,176,32593,1,0,0:0:0:0:
392,176,32671,1,0,0:0:0:0:
256,272,32826,1,0,0:0:0:0:
256,272,32904,1,0,0:0:0:0:
256,272,32982,1,0,0:0:0:0:
256,272,33059,1,0,0:0:0:0:
256,272,33137,1,0,0:0:0:0:
256,272,33215,1,0,0:0:0:0:
256,272,33293,1,0,0:0:0:0:
256,272,33370,1,0,0:0:0:0:
256,272,33448,1,0,0:0:0:0:
160,128,33604,6,0,B|96:128|40:168,1,100
256,192,33915,2,0,B|320:192|376:152,1,100
448,304,34226,1,0,0:0:0:0:
440,296,34304,1,0,0:0:0:0:
432,288,34381,1,0,0:0:0:0:
424,280,34459,1,0,0:0:0:0:
416,272,34537,1,0,0:0:0:0:
408,264,34615,1,0,0:0:0:0:
400,256,34692,1,0,0:0:0:0:
392,240,34848,6,0,B|392:136,1,100
256,88,35159,2,0,B|256:192,1,100
112,240,35470,1,0,0:0:0:0:
112,232,35548,1,0,0:0:0:0:
112,224,35625,1,0,0:0:0:0:
112,216,35703,1,0,0:0:0:0:
112,208,35781,1,0,0:0:0:0:
112,200,35859,1,0,0:0:0:0:
112,192,35937,1,0,0:0:0:0:
136,72,36092,6,0,B|32:72,1,100
472,312,36403,6,0,B|368:312,1,100
104,312,36714,6,0,B|0:312,1,100
432,72,37025,6,0,B|312:72,1,100
232,72,37336,5,0,0:0:0:0:
136,144,37492,1,0,0:0:0:0:
248,192,37647,1,0,0:0:0:0:
328,64,37803,5,0,0:0:0:0:
176,64,37958,1,0,0:0:0:0:
256,192,38114,1,0,0:0:0:0:
368,288,38269,2,0,B|448:224,1,100
144,288,38580,6,0,B|64:224,1,100
96,112,38891,1,0,0:0:0:0:
216,136,39047,1,0,0:0:0:0:
288,232,39202,5,0,0:0:0:0:
296,80,39358,1,0,0:0:0:0:
424,160,39513,1,0,0:0:0:0:
288,232,39669,1,0,0:0:0:0:
144,192,39825,6,0,B|48:96,1,100
256,192,40136,1,0,0:0:0:0:
368,192,40291,2,0,B|464:96,1,100
256,192,40602,1,0,0:0:0:0:
256,32,40758,6,0,B|256:136,1,100
256,192,41069,5,0,0:0:0:0:
256,200,41146,1,0,0:0:0:0:
256,208,41224,1,0,0:0:0:0:
256,216,41302,1,0,0:0:0:0:
256,224,41380,1,0,0:0:0:0:
256,232,41458,1,0,0:0:0:0:
256,240,41535,1,0,0:0:0:0:
256,248,41613,1,0,0:0:0:0:
256,256,41691,6,0,B|256:296,12,25
152,200,42313,5,0,0:0:0:0:
168,80,42546,1,0,0:0:0:0:
336,144,42779,1,0,0:0:0:0:
336,144,43090,6,0,B|384:176|384:176|432:176|432:176,2,100
256,56,43557,1,0,0:0:0:0:
256,176,43713,1,0,0:0:0:0:
152,240,43868,1,0,0:0:0:0:
152,360,44024,1,0,0:0:0:0:
152,240,44179,1,0,0:0:0:0:
192,128,44335,6,0,B|144:96|144:96|88:96|88:96,2,100
320,128,44801,2,0,B|368:96|368:96|424:96|424:96,2,100
256,232,45268,2,0,B|256:176|248:176|248:176|256:168|256:168|264:176|264:176|256:184|256:184|256:72,1,200
160,144,45734,6,0,B|112:168|112:168|56:168,1,100
160,240,46045,2,0,B|208:264|208:264|264:264,1,100
352,240,46356,2,0,B|400:216|400:216|456:216,1,100
400,104,46667,1,0,0:0:0:0:
392,104,46745,1,0,0:0:0:0:
384,104,46823,1,0,0:0:0:0:
272,64,46979,2,0,B|232:96|232:96|160:96,1,100
256,192,47290,5,0,0:0:0:0:
408,192,47445,1,0,0:0:0:0:
288,288,47601,1,0,0:0:0:0:
328,144,47756,1,0,0:0:0:0:
176,128,47912,1,0,0:0:0:0:
176,128,48067,6,0,B|128:160|128:160|80:160|80:160,2,100
256,40,48534,1,0,0:0:0:0:
328,144,48689,1,0,0:0:0:0:
392,40,48845,1,0,0:0:0:0:
272,192,49000,5,0,0:0:0:0:
208,88,49156,1,0,0:0:0:0:
160,200,49311,1,0,0:0:0:0:
224,304,49467,1,0,0:0:0:0:
328,192,49622,6,0,B|368:152|368:152|448:144,1,100
264,104,49933,2,0,B|304:64|304:64|384:56,1,100
328,192,50244,2,0,B|264:192|264:192|200:160,1,100
88,192,50555,6,0,B|88:248|56:288,1,100
168,240,50867,1,0,0:0:0:0:
256,160,51022,2,0,B|296:128|296:128|296:80,1,100
392,152,51333,1,0,0:0:0:0:
368,272,51489,5,0,0:0:0:0:
368,272,51566,1,0,0:0:0:0:
368,272,51644,1,0,0:0:0:0:
272,192,51800,1,0,0:0:0:0:
272,192,51877,1,0,0:0:0:0:
272,192,51955,1,0,0:0:0:0:
208,96,52111,1,0,0:0:0:0:
200,96,52188,1,0,0:0:0:0:
192,96,52266,1,0,0:0:0:0:
184,96,52344,1,0,0:0:0:0:
176,96,52422,1,0,0:0:0:0:
168,96,52499,1,0,0:0:0:0:
160,96,52577,6,0,B|112:112|112:112|48:160,1,100
48,256,52888,1,0,0:0:0:0:
160,216,53044,1,0,0:0:0:0:
248,272,53199,1,0,0:0:0:0:
368,288,53355,5,0,0:0:0:0:
368,288,53433,1,0,0:0:0:0:
368,168,53588,1,0,0:0:0:0:
368,168,53666,1,0,0:0:0:0:
288,80,53821,1,0,0:0:0:0:
288,80,53899,1,0,0:0:0:0:
288,80,53977,1,0,0:0:0:0:
168,72,54132,6,0,B|144:64,3,25
96,176,54444,2,0,B|56:192|56:192,7,25
96,176,54755,2,0,B|88:136|88:136,5,25
160,216,55066,5,0,0:0:0:0:
256,152,55221,1,0,0:0:0:0:
352,224,55377,1,0,0:0:0:0:
352,248,55454,1,0,0:0:0:0:
456,192,55610,1,0,0:0:0:0:
456,168,55688,1,0,0:0:0:0:
456,144,55765,1,0,0:0:0:0:
456,120,55843,1,0,0:0:0:0:
456,96,55921,1,0,0:0:0:0:
456,72,55999,1,0,0:0:0:0:
344,104,56154,5,0,0:0:0:0:
320,104,56232,1,0,0:0:0:0:
296,104,56310,1,0,0:0:0:0:
256,216,56465,1,0,0:0:0:0:
408,152,56621,5,0,0:0:0:0:
408,152,56699,1,0,0:0:0:0:
408,152,56776,1,0,0:0:0:0:
256,216,56932,1,0,0:0:0:0:
256,216,57010,1,0,0:0:0:0:
256,216,57087,1,0,0:0:0:0:
256,216,57165,1,0,0:0:0:0:
256,216,57243,1,0,0:0:0:0:
104,152,57398,1,0,0:0:0:0:
104,152,57476,1,0,0:0:0:0:
104,152,57553,1,0,0:0:0:0:
104,152,57632,1,0,0:0:0:0:
104,152,57709,1,0,0:0:0:0:
328,296,57865,5,0,0:0:0:0:
320,296,57943,1,0,0:0:0:0:
312,296,58020,1,0,0:0:0:0:
304,296,58098,1,0,0:0:0:0:
296,296,58176,1,0,0:0:0:0:
216,208,58332,5,0,0:0:0:0:
216,208,58487,2,0,B|216:144|216:144|176:88,1,100
312,80,58798,2,0,B|360:72|360:72|440:120,1,100
200,304,59109,6,0,B|152:312|152:312|72:264,1,100
120,168,59420,2,0,B|168:160|168:160|248:208,1,100
392,104,59731,5,0,0:0:0:0:
360,248,59887,1,0,0:0:0:0:
288,120,60042,1,0,0:0:0:0:
248,264,60198,2,0,B|200:240|200:240|192:192,1,100
192,40,60509,5,0,0:0:0:0:
80,88,60664,1,0,0:0:0:0:
32,200,60820,1,0,0:0:0:0:
152,192,60975,6,0,B|256:192,1,100
360,88,61286,2,0,B|256:88,1,100
160,304,61597,2,0,B|264:304,1,100
344,216,61909,1,0,0:0:0:0:
424,304,62064,1,0,0:0:0:0:
424,304,62220,5,0,0:0:0:0:
424,152,62375,1,0,0:0:0:0:
280,192,62531,1,0,0:0:0:0:
256,48,62686,1,0,0:0:0:0:
144,96,62842,6,0,B|144:208,1,100
368,96,63153,2,0,B|368:208,1,100
256,112,63464,5,0,0:0:0:0:
344,192,63619,2,0,B|448:192,2,100
256,272,64086,5,0,0:0:0:0:
256,112,64241,1,0,0:0:0:0:
256,272,64397,1,0,0:0:0:0:
256,112,64552,1,0,0:0:0:0:
168,192,64708,5,0,0:0:0:0:
344,192,64863,1,0,0:0:0:0:
168,192,65019,1,0,0:0:0:0:
344,192,65174,2,0,B|424:192|424:192,2,50
384,80,65486,5,0,0:0:0:0:
256,40,65641,1,0,0:0:0:0:
128,80,65797,1,0,0:0:0:0:
256,152,65952,5,0,0:0:0:0:
152,216,66108,2,0,B|104:224|104:224|72:288,1,100
256,152,66419,1,0,0:0:0:0:
360,216,66574,2,0,B|408:224|408:224|440:288,1,100
320,312,66885,1,0,0:0:0:0:
480,152,67041,1,0,0:0:0:0:
392,64,67196,5,0,0:0:0:0:
320,160,67352,1,0,0:0:0:0:
120,320,67507,5,0,0:0:0:0:
192,224,67663,1,0,0:0:0:0:
256,120,67818,5,0,0:0:0:0:
256,112,67896,1,0,0:0:0:0:
256,104,67974,1,0,0:0:0:0:
256,96,68052,1,0,0:0:0:0:
256,88,68129,1,0,0:0:0:0:
256,80,68207,1,0,0:0:0:0:
256,72,68285,1,0,0:0:0:0:
256,64,68363,1,0,0:0:0:0:
256,56,68440,1,0,0:0:0:0:
144,88,68596,6,0,B|96:96|40:80,1,100
368,88,68907,2,0,B|416:96|472:80,1,100
48,192,69218,6,0,B|96:232|176:248,1,100
464,192,69529,2,0,B|416:232|336:248,1,100
264,192,69840,2,0,B|304:88,1,100
248,192,70151,2,0,B|208:296,1,100
288,192,70462,2,0,B|408:192,1,100
424,80,70773,1,0,0:0:0:0:
312,48,70929,6,0,B|248:40|168:48,1,100
200,336,71240,2,0,B|264:344|344:336,1,100
56,144,71551,6,0,B|48:200|64:272,1,100
456,240,71862,2,0,B|464:184|448:112,1,100
256,128,72173,5,0,0:0:0:0:
200,192,72328,1,0,0:0:0:0:
256,256,72484,1,0,0:0:0:0:
312,192,72639,1,0,0:0:0:0:
256,40,72795,5,0,0:0:0:0:
112,192,72951,1,0,0:0:0:0:
256,344,73106,1,0,0:0:0:0:
400,192,73262,1,0,0:0:0:0:
400,192,73417,5,0,0:0:0:0:
328,96,73573,2,0,B|264:80|200:80,2,100
256,192,74039,2,0,B|208:160|128:152|128:152,2,100
256,312,74506,1,0,0:0:0:0:
352,248,74661,5,0,0:0:0:0:
288,112,74817,1,0,0:0:0:0:
200,232,74972,1,0,0:0:0:0:
352,248,75128,1,0,0:0:0:0:
112,272,75439,5,0,0:0:0:0:
136,112,75594,1,0,0:0:0:0:
288,112,75750,1,0,0:0:0:0:
432,136,75905,6,0,B|424:184|424:184|440:240,1,100
80,136,76216,2,0,B|88:184|88:184|72:240,1,100
152,320,76527,1,0,0:0:0:0:
256,264,76683,1,0,0:0:0:0:
360,320,76839,1,0,0:0:0:0:
256,376,76994,1,0,0:0:0:0:
256,216,77150,5,0,0:0:0:0:
120,128,77305,1,0,0:0:0:0:
256,48,77461,1,0,0:0:0:0:
392,128,77616,1,0,0:0:0:0:
480,192,77772,5,0,0:0:0:0:
360,192,77927,5,0,0:0:0:0:
352,192,78005,1,0,0:0:0:0:
344,192,78083,1,0,0:0:0:0:
336,192,78160,1,0,0:0:0:0:
328,192,78238,1,0,0:0:0:0:
320,192,78316,1,0,0:0:0:0:
312,192,78394,6,0,B|256:176|256:176|216:128,1,100
256,264,78705,2,0,B|312:280|312:280|352:328,1,100
80,96,79016,6,0,B|136:80|136:80|176:32,1,100
136,168,79327,2,0,B|80:184|80:184|40:232,1,100
256,328,79638,5,0,0:0:0:0:
360,272,79793,1,0,0:0:0:0:
320,160,79949,1,0,0:0:0:0:
216,216,80104,1,0,0:0:0:0:
216,216,80182,1,0,0:0:0:0:
216,216,80260,1,0,0:0:0:0:
256,104,80416,5,0,0:0:0:0:
256,104,80493,1,0,0:0:0:0:
256,104,80571,2,0,B|312:72|312:72|376:72,1,100
104,256,80882,6,0,B|48:288|48:288|-16:288,1,100
80,192,81193,2,0,B|136:160|136:160|200:160,1,100
408,256,81504,6,0,B|464:288|464:288|528:288,1,100
432,192,81815,2,0,B|376:160|376:160|312:160,1,100
256,72,82126,5,0,0:0:0:0:
160,192,82282,1,0,0:0:0:0:
48,96,82437,1,0,0:0:0:0:
160,192,82593,1,0,0:0:0:0:
304,144,82748,5,0,0:0:0:0:
304,152,82826,1,0,0:0:0:0:
304,160,82904,1,0,0:0:0:0:
304,168,82982,1,0,0:0:0:0:
304,176,83059,2,0,B|296:232|240:272,1,100
248,272,83293,1,0,0:0:0:0:
240,280,83370,6,0,B|112:280,1,100
272,104,83681,2,0,B|400:104,1,100
456,192,83993,5,0,0:0:0:0:
256,344,84148,1,0,0:0:0:0:
72,192,84304,1,0,0:0:0:0:
72,192,84615,5,0,0:0:0:0:
136,88,84770,1,0,0:0:0:0:
208,184,84926,2,0,B|200:240|200:240|136:288,1,100
165,266,85392,5,0,0:0:0:0:
256,192,85548,1,0,0:0:0:0:
344,272,85703,1,0,0:0:0:0:
256,352,85859,6,0,B|256:240,1,100
256,192,86170,2,0,B|256:-8,1,200
120,192,87103,5,0,0:0:0:0:
144,192,87181,1,0,0:0:0:0:
168,192,87258,1,0,0:0:0:0:
368,104,87414,5,0,0:0:0:0:
344,104,87492,1,0,0:0:0:0:
320,104,87569,1,0,0:0:0:0:
256,280,87725,5,0,0:0:0:0:
272,240,87803,1,0,0:0:0:0:
256,200,87881,1,0,0:0:0:0:
264,160,87958,1,0,0:0:0:0:
248,120,88036,1,0,0:0:0:0:
256,80,88114,1,0,0:0:0:0:
256,40,88192,1,0,0:0:0:0:
160,56,88347,6,0,B|112:80|112:80|48:80,1,100
80,200,88658,1,0,0:0:0:0:
168,280,88814,1,0,0:0:0:0:
352,56,88969,6,0,B|400:80|400:80|464:80,1,100
432,200,89280,1,0,0:0:0:0:
344,280,89436,1,0,0:0:0:0:
256,200,89591,5,0,0:0:0:0:
368,104,89747,1,0,0:0:0:0:
256,200,89902,1,0,0:0:0:0:
136,288,90058,1,0,0:0:0:0:
136,288,90136,1,0,0:0:0:0:
136,288,90213,1,0,0:0:0:0:
104,144,90369,5,0,0:0:0:0:
104,120,90447,1,0,0:0:0:0:
104,96,90524,2,0,B|128:48|128:48|192:48,1,100
408,96,90835,6,0,B|384:48|384:48|320:48,1,100
256,136,91146,1,0,0:0:0:0:
408,96,91302,1,0,0:0:0:0:
344,200,91458,1,0,0:0:0:0:
256,280,91613,1,0,0:0:0:0:
168,200,91769,1,0,0:0:0:0:
184,80,92080,5,0,0:0:0:0:
336,72,92236,1,0,0:0:0:0:
440,176,92391,1,0,0:0:0:0:
344,288,92546,1,0,0:0:0:0:
200,256,92702,5,0,0:0:0:0:
200,248,92779,1,0,0:0:0:0:
200,240,92857,1,0,0:0:0:0:
200,232,92935,1,0,0:0:0:0:
200,232,93013,1,0,0:0:0:0:
200,112,93168,1,0,0:0:0:0:
200,120,93246,1,0,0:0:0:0:
200,128,93324,6,0,B|304:128,1,100
408,72,93635,1,0,0:0:0:0:
360,184,93790,1,0,0:0:0:0:
280,96,93946,5,0,0:0:0:0:
360,184,94101,1,0,0:0:0:0:
272,264,94257,1,0,0:0:0:0:
272,264,94568,6,0,B|272:160|272:160,2,100
272,264,95034,1,0,0:0:0:0:
144,64,95346,1,0,0:0:0:0:
96,176,95501,1,0,0:0:0:0:
208,128,95657,1,0,0:0:0:0:
208,128,95812,2,0,B|120:192,1,100
128,240,96123,5,0,0:0:0:0:
136,240,96201,1,0,0:0:0:0:
144,240,96279,1,0,0:0:0:0:
152,240,96356,1,0,0:0:0:0:
160,240,96434,1,0,0:0:0:0:
168,240,96512,1,0,0:0:0:0:
176,240,96590,1,0,0:0:0:0:
184,240,96667,1,0,0:0:0:0:
192,240,96745,1,0,0:0:0:0:
200,240,96823,1,0,0:0:0:0:
208,240,96901,1,0,0:0:0:0:
216,240,96979,1,0,0:0:0:0:
224,240,97056,5,0,0:0:0:0:
256,128,97212,1,0,0:0:0:0:
376,128,97367,5,0,0:0:0:0:
384,128,97445,1,0,0:0:0:0:
392,128,97523,1,0,0:0:0:0:
400,128,97601,1,0,0:0:0:0:
408,128,97678,2,0,B|448:128,8,25
408,136,98067,6,0,B|408:200,3,50
96,280,105765,5,0,0:0:0:0:
112,280,105843,1,0,0:0:0:0:
128,280,105921,1,0,0:0:0:0:
144,272,105999,1,0,0:0:0:0:
160,264,106076,1,0,0:0:0:0:
176,264,106154,1,0,0:0:0:0:
184,256,106232,1,0,0:0:0:0:
192,248,106310,1,0,0:0:0:0:
200,240,106388,1,0,0:0:0:0:
208,232,106465,1,0,0:0:0:0:
224,224,106543,1,0,0:0:0:0:
232,216,106621,1,0,0:0:0:0:
240,200,106699,1,0,0:0:0:0:
248,184,106776,1,0,0:0:0:0:
256,176,106854,1,0,0:0:0:0:
272,176,106932,1,0,0:0:0:0:
288,184,107010,1,0,0:0:0:0:
304,184,107087,1,0,0:0:0:0:
320,176,107165,1,0,0:0:0:0:
336,176,107243,1,0,0:0:0:0:
352,176,107321,1,0,0:0:0:0:
368,176,107398,1,0,0:0:0:0:
384,176,107476,1,0,0:0:0:0:
400,168,107554,1,0,0:0:0:0:
416,160,107632,1,0,0:0:0:0:
424,152,107709,1,0,0:0:0:0:
432,136,107787,1,0,0:0:0:0:
440,120,107865,1,0,0:0:0:0:
440,104,107943,1,0,0:0:0:0:
440,88,108020,1,0,0:0:0:0:
432,72,108098,1,0,0:0:0:0:
424,64,108176,1,0,0:0:0:0:
408,56,108254,6,0,B|240:48,1,150
96,128,108720,1,0,0:0:0:0:
256,48,108954,1,0,0:0:0:0:
256,224,109187,5,0,0:0:0:0:
256,224,109342,2,0,B|256:336,1,100
376,192,109731,1,0,0:0:0:0:
256,56,109965,1,0,0:0:0:0:
144,192,110198,1,0,0:0:0:0:
256,328,110431,5,0,0:0:0:0:
256,328,110587,2,0,B|256:216,1,100
408,136,110975,2,0,B|352:120|256:128,1,150
258,127,111442,1,0,0:0:0:0:
96,192,111675,6,0,B|136:160|136:160|192:160|192:160,2,100
256,272,112220,1,0,0:0:0:0:
416,192,112453,1,0,0:0:0:0:
416,192,112686,1,0,0:0:0:0:
416,192,112919,1,0,0:0:0:0:
416,192,113075,6,0,B|296:192,1,100
136,192,113464,1,0,0:0:0:0:
256,320,113697,1,0,0:0:0:0:
136,192,113930,1,0,0:0:0:0:
256,320,114164,1,0,0:0:0:0:
352,248,114319,5,0,0:0:0:0:
352,128,114475,1,0,0:0:0:0:
184,192,114708,1,0,0:0:0:0:
184,192,114941,1,0,0:0:0:0:
184,192,115174,1,0,0:0:0:0:
256,24,115408,1,0,0:0:0:0:
256,144,115563,5,0,0:0:0:0:
256,144,115719,2,0,B|304:184|304:184|400:184,1,150
256,304,116185,1,0,0:0:0:0:
256,304,116419,1,0,0:0:0:0:
256,304,116652,1,0,0:0:0:0:
176,192,116807,5,0,0:0:0:0:
336,192,116963,1,0,0:0:0:0:
256,32,117196,1,0,0:0:0:0:
256,216,117430,1,0,0:0:0:0:
168,56,117663,1,0,0:0:0:0:
344,56,117896,5,0,0:0:0:0:
360,72,117974,1,0,0:0:0:0:
376,88,118052,1,0,0:0:0:0:
392,104,118129,1,0,0:0:0:0:
408,120,118207,1,0,0:0:0:0:
368,296,118440,1,0,0:0:0:0:
368,296,118674,1,0,0:0:0:0:
368,296,118907,1,0,0:0:0:0:
224,192,119140,1,0,0:0:0:0:
224,192,119296,6,0,B|112:192,1,100
124,192,119685,1,0,0:0:0:0:
124,192,119918,1,0,0:0:0:0:
124,192,120151,1,0,0:0:0:0:
256,72,120384,1,0,0:0:0:0:
368,112,120540,5,0,0:0:0:0:
376,136,120618,1,0,0:0:0:0:
384,160,120695,1,0,0:0:0:0:
296,240,120929,2,0,B|224:264|224:264|144:224,1,150
152,48,121395,1,0,0:0:0:0:
336,48,121629,1,0,0:0:0:0:
456,72,121784,5,0,0:0:0:0:
456,72,121862,1,0,0:0:0:0:
456,72,121940,1,0,0:0:0:0:
376,160,122173,1,0,0:0:0:0:
296,248,122406,1,0,0:0:0:0:
208,328,122639,1,0,0:0:0:0:
120,248,122873,1,0,0:0:0:0:
40,160,123028,5,0,0:0:0:0:
64,160,123106,1,0,0:0:0:0:
88,160,123184,1,0,0:0:0:0:
256,96,123417,1,0,0:0:0:0:
256,272,123650,1,0,0:0:0:0:
256,96,123884,1,0,0:0:0:0:
256,72,124117,5,0,0:0:0:0:
256,72,124195,1,0,0:0:0:0:
256,72,124272,1,0,0:0:0:0:
256,72,124428,2,0,B|304:112|304:112|352:192,1,150
120,272,124895,2,0,B|192:248|280:280,1,150
432,192,125361,2,0,B|496:192|488:192,4,50
256,144,125905,2,0,B|88:136|88:136|88:136,1,150
106,136,126372,1,0,0:0:0:0:
256,232,126605,1,0,0:0:0:0:
376,232,126761,5,0,0:0:0:0:
376,232,126839,1,0,0:0:0:0:
376,232,126916,1,0,0:0:0:0:
456,72,127150,1,0,0:0:0:0:
376,232,127383,1,0,0:0:0:0:
136,192,127616,5,0,0:0:0:0:
256,56,127849,1,0,0:0:0:0:
256,176,128005,5,0,0:0:0:0:
256,176,128160,1,0,0:0:0:0:
256,256,130027,5,0,0:0:0:0:
256,248,130104,1,0,0:0:0:0:
256,240,130182,1,0,0:0:0:0:
256,232,130260,1,0,0:0:0:0:
256,224,130338,1,0,0:0:0:0:
256,216,130416,1,0,0:0:0:0:
256,208,130493,1,0,0:0:0:0:
256,200,130571,1,0,0:0:0:0:
256,192,130649,6,0,B|256:88|256:88|376:48,1,200
432,144,131115,1,0,0:0:0:0:
344,232,131271,1,0,0:0:0:0:
432,312,131426,1,0,0:0:0:0:
392,200,131582,1,0,0:0:0:0:
392,80,131737,1,0,0:0:0:0:
96,112,131893,6,0,B|168:112|168:112|216:152|216:152|288:152,1,200
256,272,132360,1,0,0:0:0:0:
168,192,132515,1,0,0:0:0:0:
280,152,132671,1,0,0:0:0:0:
368,232,132826,1,0,0:0:0:0:
432,128,132982,5,0,0:0:0:0:
432,128,133059,1,0,0:0:0:0:
432,128,133137,2,0,B|424:64|424:64|280:64,1,200
168,64,133604,1,0,0:0:0:0:
64,128,133759,2,0,B|120:160|144:200,1,100
448,128,134070,2,0,B|392:160|368:200,1,100
360,216,134304,1,0,0:0:0:0:
360,240,134381,6,0,B|336:288|336:288|240:288|240:288|192:224,1,200
160,136,134848,1,0,0:0:0:0:
352,136,135003,1,0,0:0:0:0:
208,248,135159,1,0,0:0:0:0:
304,136,135314,1,0,0:0:0:0:
80,296,135470,5,0,0:0:0:0:
80,296,135548,1,0,0:0:0:0:
80,296,135625,2,0,B|176:328|176:328|288:296,1,200
432,88,136092,2,0,B|336:56|336:56|336:56,1,100
80,88,136403,2,0,B|176:56|176:56|176:56,1,100
256,144,136714,6,0,B|200:160,1,50
256,144,136870,2,0,B|320:192|320:192|328:280|328:280|392:320,1,200
424,200,137336,1,0,0:0:0:0:
256,312,137492,1,0,0:0:0:0:
256,144,137647,1,0,0:0:0:0:
120,40,137803,1,0,0:0:0:0:
136,208,137958,5,0,0:0:0:0:
136,208,138036,1,0,0:0:0:0:
136,208,138114,2,0,B|216:216|216:216|320:208|320:208|368:208,1,200
408,112,138580,2,0,B|360:80|360:80|296:80,2,100
408,272,139047,2,0,B|360:304|360:304|296:304,1,100
296,304,139280,5,0,0:0:0:0:
272,304,139358,2,0,B|192:256|208:192|176:128,1,200
256,40,139825,2,0,B|296:72|296:72|264:152,1,100
264,304,140136,2,0,B|304:272|304:272|272:192,1,100
176,184,140447,5,0,0:0:0:0:
176,184,140524,1,0,0:0:0:0:
176,184,140602,2,0,B|240:176|240:176|312:176,2,100
176,64,141069,2,0,B|112:56|112:56|40:56,2,100
176,184,141535,1,0,0:0:0:0:
256,304,141691,5,0,0:0:0:0:
280,304,141769,1,0,0:0:0:0:
304,304,141846,1,0,0:0:0:0:
368,200,142002,1,0,0:0:0:0:
344,200,142080,1,0,0:0:0:0:
320,200,142157,1,0,0:0:0:0:
296,200,142235,1,0,0:0:0:0:
272,200,142313,1,0,0:0:0:0:
264,80,142468,1,0,0:0:0:0:
384,104,142624,1,0,0:0:0:0:
504,80,142779,1,0,0:0:0:0:
504,304,142935,5,0,0:0:0:0:
504,304,143013,1,0,0:0:0:0:
504,304,143090,2,0,B|400:328|304:280,1,200
8,80,143557,2,0,B|112:56|208:104,1,200
320,104,144024,2,0,B|352:168|320:280,1,150
280,288,144335,6,0,B|208:312|128:288,1,150
120,112,144801,1,0,0:0:0:0:
232,160,144957,2,0,B|288:192|288:192|432:192,1,200
423,192,145423,5,0,0:0:0:0:
423,192,145501,1,0,0:0:0:0:
424,128,145579,2,0,B|352:48|352:48|256:40,1,200
144,72,146045,1,0,0:0:0:0:
168,192,146201,1,0,0:0:0:0:
264,120,146356,1,0,0:0:0:0:
280,240,146512,1,0,0:0:0:0:
392,280,146667,6,0,B|440:280|440:280,2,50
256,280,146979,1,0,0:0:0:0:
120,280,147134,2,0,B|72:280|72:280,2,50
256,280,147445,1,0,0:0:0:0:
256,176,147601,2,0,B|256:64|256:64,2,100
432,80,148067,6,0,B|392:112|392:112|336:112,1,100
240,56,148378,2,0,B|192:40|192:40|128:48,1,100
120,160,148689,1,0,0:0:0:0:
208,240,148845,1,0,0:0:0:0:
304,240,149000,1,0,0:0:0:0:
392,160,149156,1,0,0:0:0:0:
448,56,149311,5,0,0:0:0:0:
424,56,149389,1,0,0:0:0:0:
400,56,149467,1,0,0:0:0:0:
256,152,149622,5,0,0:0:0:0:
280,152,149700,1,0,0:0:0:0:
304,152,149778,1,0,0:0:0:0:
440,288,149933,5,0,0:0:0:0:
400,288,150011,1,0,0:0:0:0:
360,288,150089,1,0,0:0:0:0:
320,288,150167,1,0,0:0:0:0:
280,288,150244,1,0,0:0:0:0:
240,288,150322,1,0,0:0:0:0:
200,288,150400,1,0,0:0:0:0:
160,288,150478,1,0,0:0:0:0:
120,288,150555,5,0,0:0:0:0:
256,264,169218,5,0,0:0:0:0:
256,256,169296,1,0,0:0:0:0:
256,248,169374,1,0,0:0:0:0:
256,240,169451,1,0,0:0:0:0:
256,232,169529,1,0,0:0:0:0:
256,224,169607,1,0,0:0:0:0:
256,216,169685,1,0,0:0:0:0:
256,208,169762,1,0,0:0:0:0:
256,200,169840,1,0,0:0:0:0:
256,192,169918,1,0,0:0:0:0:
256,184,169996,1,0,0:0:0:0:
256,176,170073,1,0,0:0:0:0:
256,168,170151,1,0,0:0:0:0:
256,160,170229,1,0,0:0:0:0:
256,152,170307,1,0,0:0:0:0:
256,144,170384,1,0,0:0:0:0:
256,192,170462,12,0,171551,0:0:0:0:
120,88,171706,5,0,0:0:0:0:
120,88,172017,5,0,0:0:0:0:
120,88,172173,1,0,0:0:0:0:
144,288,172328,1,0,0:0:0:0:
264,128,172484,1,0,0:0:0:0:
72,192,172639,1,0,0:0:0:0:
272,208,172795,1,0,0:0:0:0:
408,56,172951,5,0,0:0:0:0:
408,176,173106,1,0,0:0:0:0:
408,56,173262,5,0,0:0:0:0:
408,176,173417,1,0,0:0:0:0:
256,296,173728,6,0,B|200:336|200:336|152:336,2,100
256,176,174195,2,0,B|216:136|160:128,1,100
256,176,174506,2,0,B|304:136|384:128,1,100
408,56,174817,5,0,0:0:0:0:
376,168,174972,1,0,0:0:0:0:
256,176,175128,1,0,0:0:0:0:
136,168,175283,1,0,0:0:0:0:
104,56,175439,6,0,B|56:96|24:160,1,100
408,56,175750,2,0,B|456:96|488:160,1,100
184,328,176061,5,0,0:0:0:0:
184,200,176216,1,0,0:0:0:0:
328,328,176372,5,0,0:0:0:0:
328,200,176527,1,0,0:0:0:0:
256,104,176683,6,0,B|192:72|192:72|40:72,1,200
256,280,177305,2,0,B|320:312|320:312|472:312,1,200
256,280,177772,1,0,0:0:0:0:
256,160,177927,5,0,0:0:0:0:
152,216,178083,1,0,0:0:0:0:
168,80,178238,5,0,0:0:0:0:
272,24,178394,1,0,0:0:0:0:
376,80,178549,5,0,0:0:0:0:
376,80,178627,1,0,0:0:0:0:
376,80,178705,2,0,B|400:128|400:128|472:176,1,100
384,264,179016,1,0,0:0:0:0:
198,168,179171,6,0,B|144:152|72:168,1,100
313,168,179482,2,0,B|368:152|440:168,1,100
472,80,179793,5,0,0:0:0:0:
472,232,179949,1,0,0:0:0:0:
416,96,180104,1,0,0:0:0:0:
416,96,180416,5,0,0:0:0:0:
256,48,180571,1,0,0:0:0:0:
96,96,180727,1,0,0:0:0:0:
256,152,180882,1,0,0:0:0:0:
256,272,181038,5,0,0:0:0:0:
256,272,181115,1,0,0:0:0:0:
256,272,181193,1,0,0:0:0:0:
152,216,181349,1,0,0:0:0:0:
144,336,181504,1,0,0:0:0:0:
144,336,181582,1,0,0:0:0:0:
144,336,181660,6,0,B|200:344|264:336,1,100
368,48,181971,2,0,B|312:40|248:48,1,100
192,136,182282,5,0,0:0:0:0:
328,192,182437,1,0,0:0:0:0:
480,192,182593,1,0,0:0:0:0:
480,192,182904,6,0,B|400:288,1,100
344,136,183215,1,0,0:0:0:0:
344,136,183370,1,0,0:0:0:0:
256,48,183681,5,0,0:0:0:0:
88,304,183837,1,0,0:0:0:0:
424,304,183993,1,0,0:0:0:0:
256,216,184148,6,0,B|256:328,1,100
112,216,184459,2,0,B|368:216,1,250
352,144,185392,5,0,0:0:0:0:
352,144,185469,1,0,0:0:0:0:
352,144,185547,1,0,0:0:0:0:
160,144,185703,1,0,0:0:0:0:
160,144,185780,1,0,0:0:0:0:
160,144,185858,1,0,0:0:0:0:
256,200,186014,6,0,B|256:248,7,50
312,96,186636,6,0,B|280:144|280:144|280:208,1,100
112,336,186947,2,0,B|144:288|144:288|144:224,1,100
200,96,187258,6,0,B|232:144|232:144|232:208,1,100
400,336,187569,2,0,B|368:288|368:288|368:224,1,100
216,232,187880,5,0,0:0:0:0:
72,192,188036,1,0,0:0:0:0:
256,144,188191,1,0,0:0:0:0:
304,232,188347,1,0,0:0:0:0:
304,232,188502,1,0,0:0:0:0:
304,232,188813,6,0,B|184:232,1,100
88,328,189280,5,0,0:0:0:0:
200,232,189436,1,0,0:0:0:0:
304,232,189591,1,0,0:0:0:0:
304,80,189747,5,0,0:0:0:0:
400,192,189902,1,0,0:0:0:0:
304,232,190058,1,0,0:0:0:0:
400,120,190213,1,0,0:0:0:0:
256,328,190369,5,0,0:0:0:0:
112,192,190524,1,0,0:0:0:0:
224,360,190680,1,0,0:0:0:0:
152,176,190835,1,0,0:0:0:0:
256,64,190991,5,0,0:0:0:0:
256,72,191069,1,0,0:0:0:0:
256,80,191146,1,0,0:0:0:0:
256,88,191224,1,0,0:0:0:0:
256,96,191302,2,0,B|256:208,1,100
240,208,191613,5,0,0:0:0:0:
128,312,191768,1,0,0:0:0:0:
32,192,191924,2,0,B|32:144|32:144|88:104,1,100
272,208,192235,5,0,0:0:0:0:
384,312,192390,1,0,0:0:0:0:
480,192,192546,2,0,B|480:144|480:144|424:104,1,100
352,160,192857,5,0,0:0:0:0:
256,272,193013,1,0,0:0:0:0:
256,120,193168,1,0,0:0:0:0:
104,104,193324,1,0,0:0:0:0:
104,256,193479,6,0,B|80:312|80:312|32:336|32:336,2,100
256,232,193946,1,0,0:0:0:0:
392,304,194101,5,0,0:0:0:0:
256,232,194257,1,0,0:0:0:0:
400,184,194412,1,0,0:0:0:0:
272,104,194568,1,0,0:0:0:0:
120,304,194723,5,0,0:0:0:0:
256,232,194879,1,0,0:0:0:0:
112,184,195034,1,0,0:0:0:0:
240,104,195190,1,0,0:0:0:0:
256,48,195345,5,0,0:0:0:0:
256,152,195501,1,0,0:0:0:0:
256,248,195656,1,0,0:0:0:0:
256,352,195812,1,0,0:0:0:0:
352,320,195967,6,0,B|376:320|376:320,12,25
392,128,196590,5,0,0:0:0:0:
288,64,196745,1,0,0:0:0:0:
264,64,196823,1,0,0:0:0:0:
240,64,196901,1,0,0:0:0:0:
136,120,197056,1,0,0:0:0:0:
136,144,197134,1,0,0:0:0:0:
136,168,197212,1,0,0:0:0:0:
136,192,197290,1,0,0:0:0:0:
136,216,197367,1,0,0:0:0:0:
256,248,197523,1,0,0:0:0:0:
256,128,197678,1,0,0:0:0:0:
360,184,197834,5,0,0:0:0:0:
424,288,197989,1,0,0:0:0:0:
400,288,198067,1,0,0:0:0:0:
376,288,198145,1,0,0:0:0:0:
304,192,198300,1,0,0:0:0:0:
280,192,198378,1,0,0:0:0:0:
256,192,198456,1,0,0:0:0:0:
232,192,198534,1,0,0:0:0:0:
208,192,198611,1,0,0:0:0:0:
128,104,198767,1,0,0:0:0:0:
8,104,198923,1,0,0:0:0:0:
88,192,199078,5,0,0:0:0:0:
184,264,199234,1,0,0:0:0:0:
184,240,199311,1,0,0:0:0:0:
184,216,199389,1,0,0:0:0:0:
280,288,199545,1,0,0:0:0:0:
280,264,199622,1,0,0:0:0:0:
280,240,199700,1,0,0:0:0:0:
280,216,199778,1,0,0:0:0:0:
280,192,199856,1,0,0:0:0:0:
288,72,200011,1,0,0:0:0:0:
392,128,200167,1,0,0:0:0:0:
464,32,200322,6,0,B|416:56|416:56|336:72,1,100
256,320,200633,6,0,B|208:344|208:344|128:360,1,100
408,320,200944,6,0,B|456:296|456:296|536:280,1,100
0,112,201255,6,0,B|48:88|48:88|128:72,1,100
216,80,201566,5,0,0:0:0:0:
328,112,201722,1,0,0:0:0:0:
312,128,201800,1,0,0:0:0:0:
296,144,201877,1,0,0:0:0:0:
184,272,202033,1,0,0:0:0:0:
200,256,202111,1,0,0:0:0:0:
216,240,202188,1,0,0:0:0:0:
232,224,202266,1,0,0:0:0:0:
248,208,202344,1,0,0:0:0:0:
368,192,202499,1,0,0:0:0:0:
488,192,202655,1,0,0:0:0:0:
24,192,202811,5,0,0:0:0:0:
112,112,202966,1,0,0:0:0:0:
136,112,203044,1,0,0:0:0:0:
160,112,203122,1,0,0:0:0:0:
232,272,203277,1,0,0:0:0:0:
208,272,203355,1,0,0:0:0:0:
184,272,203433,1,0,0:0:0:0:
160,272,203510,1,0,0:0:0:0:
136,272,203588,1,0,0:0:0:0:
224,184,203744,1,0,0:0:0:0:
224,184,203899,1,0,0:0:0:0:
256,64,204055,5,0,0:0:0:0:
352,136,204210,2,0,B|384:176|464:192,1,100
256,64,204521,1,0,0:0:0:0:
160,136,204677,2,0,B|128:176|48:192,1,100
256,304,204988,6,0,B|256:200,1,100
256,128,205299,5,0,0:0:0:0:
256,120,205377,1,0,0:0:0:0:
256,112,205454,1,0,0:0:0:0:
256,104,205532,1,0,0:0:0:0:
256,96,205610,1,0,0:0:0:0:
256,88,205688,1,0,0:0:0:0:
256,80,205765,1,0,0:0:0:0:
256,72,205843,1,0,0:0:0:0:
256,64,205921,5,0,0:0:0:0:
256,56,205999,1,0,0:0:0:0:
256,48,206076,1,0,0:0:0:0:
256,40,206154,1,0,0:0:0:0:
256,32,206232,6,0,B|192:32|104:80|56:160,1,200
256,352,206699,2,0,B|320:352|408:304|456:224,1,200
328,192,207165,1,0,0:0:0:0:
264,88,207321,6,0,B|224:136|224:136|144:152|144:152,2,100
144,64,207787,1,0,0:0:0:0:
64,152,207943,1,0,0:0:0:0:
176,200,208098,2,0,B|232:224|232:224|288:224|280:224,2,100
256,112,208565,5,0,0:0:0:0:
368,160,208720,1,0,0:0:0:0:
368,280,208876,2,0,B|320:328|272:336,1,100
144,104,209187,2,0,B|192:56|240:48,1,100
256,168,209498,2,0,B|304:120|352:112,1,100
256,168,209809,2,0,B|208:216|160:224,1,100
56,192,210120,6,0,B|72:144|48:80,2,100
256,264,210587,1,0,0:0:0:0:
456,192,210742,2,0,B|440:144|480:64,1,100
472,72,210975,1,0,0:0:0:0:
472,48,211053,1,0,0:0:0:0:
448,32,211131,1,0,0:0:0:0:
424,24,211209,1,0,0:0:0:0:
304,48,211364,5,0,0:0:0:0:
280,56,211442,1,0,0:0:0:0:
256,72,211520,2,0,B|256:120|224:168,1,100
256,312,211831,2,0,B|256:264|288:216,1,100
112,192,212142,6,0,B|64:160|64:160|48:104,1,100
400,192,212453,2,0,B|448:160|448:160|464:104,1,100
256,144,212764,5,0,0:0:0:0:
152,80,212919,2,0,B|104:96|24:96,1,100
256,144,213230,1,0,0:0:0:0:
360,80,213386,2,0,B|408:96|488:96,1,100
256,240,213697,6,0,B|216:272|216:272|216:336,2,100
368,192,214164,1,0,0:0:0:0:
424,88,214319,1,0,0:0:0:0:
312,40,214475,1,0,0:0:0:0:
192,40,214630,1,0,0:0:0:0:
112,200,214786,6,0,B|112:144|112:144|72:96,1,100
200,120,215097,1,0,0:0:0:0:
296,192,215252,6,0,B|296:264|344:304|432:312,1,200
216,192,215719,2,0,B|216:120|168:80|80:72,1,200
96,192,216185,6,0,B|112:248|176:272,1,100
256,192,216496,5,0,0:0:0:0:
336,104,216652,1,0,0:0:0:0:
408,200,216807,1,0,0:0:0:0:
328,288,216963,1,0,0:0:0:0:
256,192,217118,5,0,0:0:0:0:
176,104,217274,1,0,0:0:0:0:
104,200,217429,1,0,0:0:0:0:
184,288,217585,1,0,0:0:0:0:
296,336,217741,5,0,0:0:0:0:
320,336,217818,1,0,0:0:0:0:
344,336,217896,1,0,0:0:0:0:
368,336,217974,1,0,0:0:0:0:
392,336,218052,1,0,0:0:0:0:
440,232,218207,2,0,B|440:176|440:176,5,50
440,120,218674,5,0,0:0:0:0:
336,64,218829,1,0,0:0:0:0:
320,184,218985,1,0,0:0:0:0:
208,136,219140,1,0,0:0:0:0:
216,256,219296,5,0,0:0:0:0:
192,256,219374,1,0,0:0:0:0:
168,256,219451,1,0,0:0:0:0:
144,256,219529,1,0,0:0:0:0:
120,256,219607,1,0,0:0:0:0:
112,136,219762,5,0,0:0:0:0:
136,136,219840,1,0,0:0:0:0:
160,136,219917,1,0,0:0:0:0:
184,136,219995,1,0,0:0:0:0:
208,136,220073,1,0,0:0:0:0:
320,184,220229,5,0,0:0:0:0:
320,184,220307,1,0,0:0:0:0:
320,184,220384,1,0,0:0:0:0:
320,184,220462,1,0,0:0:0:0:
320,184,220540,1,0,0:0:0:0:
440,192,220695,6,0,B|432:248|376:272,1,100
264,272,221006,1,0,0:0:0:0:
72,192,221162,2,0,B|80:248|136:272,1,100
152,280,221395,5,0,0:0:0:0:
176,288,221473,1,0,0:0:0:0:
200,288,221551,1,0,0:0:0:0:
224,288,221629,1,0,0:0:0:0:
248,280,221706,1,0,0:0:0:0:
272,264,221784,1,0,0:0:0:0:
280,240,221862,1,0,0:0:0:0:
280,216,221940,1,0,0:0:0:0:
280,192,222017,1,0,0:0:0:0:
280,168,222095,1,0,0:0:0:0:
160,184,222251,5,0,0:0:0:0:
48,104,222406,2,0,B|96:80|144:80,1,100
184,192,222717,5,0,0:0:0:0:
256,96,222873,1,0,0:0:0:0:
368,144,223028,1,0,0:0:0:0:
480,192,223184,1,0,0:0:0:0:
328,192,223339,5,0,0:0:0:0:
256,288,223495,1,0,0:0:0:0:
144,240,223650,1,0,0:0:0:0:
32,192,223806,1,0,0:0:0:0:
96,88,223961,6,0,B|64:48|8:40,1,100
160,176,224272,2,0,B|192:216|248:224,1,100
272,224,224506,1,0,0:0:0:0:
296,224,224583,1,0,0:0:0:0:
344,224,224739,6,0,B|392:200|432:144,1,100
352,56,225050,1,0,0:0:0:0:
256,128,225206,1,0,0:0:0:0:
168,48,225361,1,0,0:0:0:0:
80,128,225517,2,0,B|56:176|56:232,1,100
168,192,225828,2,0,B|192:144|192:88,1,100
272,184,226139,1,0,0:0:0:0:
296,184,226216,1,0,0:0:0:0:
320,184,226294,1,0,0:0:0:0:
416,256,226450,5,0,0:0:0:0:
416,232,226527,1,0,0:0:0:0:
416,208,226605,1,0,0:0:0:0:
352,104,226761,1,0,0:0:0:0:
336,88,226839,1,0,0:0:0:0:
320,72,226916,1,0,0:0:0:0:
200,80,227072,5,0,0:0:0:0:
72,168,227227,1,0,0:0:0:0:
72,168,227383,2,0,B|120:216|184:224,1,100
256,344,227694,5,0,0:0:0:0:
352,240,227849,1,0,0:0:0:0:
256,136,228005,1,0,0:0:0:0:
160,240,228160,1,0,0:0:0:0:
352,344,228316,5,0,0:0:0:0:
256,240,228471,1,0,0:0:0:0:
352,136,228627,1,0,0:0:0:0:
448,240,228782,1,0,0:0:0:0:
160,344,228938,5,0,0:0:0:0:
256,240,229093,1,0,0:0:0:0:
160,136,229249,1,0,0:0:0:0:
64,240,229404,1,0,0:0:0:0:
64,240,229482,1,0,0:0:0:0:
64,240,229560,1,0,0:0:0:0:
64,240,229638,1,0,0:0:0:0:
64,240,229716,6,0,B|72:184|104:144,1,100
168,48,230027,1,0,0:0:0:0:
168,48,230104,1,0,0:0:0:0:
168,48,230182,2,0,B|216:32|296:40,1,100
344,336,230493,2,0,B|296:352|216:344,1,100
192,240,230804,1,0,0:0:0:0:
256,144,230960,1,0,0:0:0:0:
376,136,231115,1,0,0:0:0:0:
304,40,231271,1,0,0:0:0:0:
200,104,231426,6,0,B|152:128|96:120,1,100
112,240,231737,2,0,B|64:264|8:256,1,100
56,144,232048,5,0,0:0:0:0:
72,120,232126,1,0,0:0:0:0:
88,104,232204,1,0,0:0:0:0:
104,88,232282,1,0,0:0:0:0:
128,72,232360,2,0,B|160:48|160:48,4,25
248,56,232671,6,0,B|296:72|360:72,1,100
424,168,232982,1,0,0:0:0:0:
304,192,233137,1,0,0:0:0:0:
304,192,233293,2,0,B|304:256|352:296,1,100
338,283,233604,1,0,0:0:0:0:
338,283,233759,1,0,0:0:0:0:
144,192,233915,5,0,0:0:0:0:
176,40,234070,1,0,0:0:0:0:
296,144,234226,1,0,0:0:0:0:
144,192,234381,1,0,0:0:0:0:
144,192,234459,1,0,0:0:0:0:
144,192,234537,6,0,B|160:248|240:272,1,100
256,152,234848,1,0,0:0:0:0:
352,80,235003,2,0,B|400:104|464:104,1,100
160,304,235314,6,0,B|112:280|48:280,1,100
80,160,235625,1,0,0:0:0:0:
200,192,235781,1,0,0:0:0:0:
200,72,235937,1,0,0:0:0:0:
88,40,236092,1,0,0:0:0:0:
80,160,236248,1,0,0:0:0:0:
312,192,236403,5,0,0:0:0:0:
312,72,236559,1,0,0:0:0:0:
424,40,236714,1,0,0:0:0:0:
432,160,236870,1,0,0:0:0:0:
400,272,237025,5,0,0:0:0:0:
400,272,237181,1,0,0:0:0:0:
112,272,237336,1,0,0:0:0:0:
112,272,237414,1,0,0:0:0:0:
112,272,237492,1,0,0:0:0:0:
200,184,237647,6,0,B|200:136|168:88,1,100
312,184,237958,2,0,B|312:136|344:88,1,100
424,176,238269,1,0,0:0:0:0:
256,64,238425,1,0,0:0:0:0:
256,320,238580,1,0,0:0:0:0:
256,320,238736,1,0,0:0:0:0:
392,296,238891,6,0,B|392:248|424:200,1,100
120,296,239202,2,0,B|120:248|88:200,1,100
88,176,239436,1,0,0:0:0:0:
96,152,239513,6,0,B|128:96|208:80,1,100
200,88,239747,1,0,0:0:0:0:
224,88,239825,2,0,B|256:144|336:160,1,100
416,128,240136,5,0,0:0:0:0:
376,240,240291,1,0,0:0:0:0:
264,200,240447,1,0,0:0:0:0:
144,192,240602,1,0,0:0:0:0:
40,128,240758,5,0,0:0:0:0:
80,16,240913,1,0,0:0:0:0:
192,56,241069,1,0,0:0:0:0:
312,64,241224,1,0,0:0:0:0:
400,152,241380,5,0,0:0:0:0:
456,256,241535,1,0,0:0:0:0:
336,280,241691,1,0,0:0:0:0:
264,184,241846,1,0,0:0:0:0:
264,184,241924,1,0,0:0:0:0:
264,184,242002,2,0,B|224:184|224:184,4,25
152,136,242313,5,0,0:0:0:0:
48,192,242468,1,0,0:0:0:0:
128,280,242624,6,0,B|176:304|240:296,1,100
248,296,242857,1,0,0:0:0:0:
272,288,242935,2,0,B|336:264|376:256,1,100
392,248,243168,1,0,0:0:0:0:
416,232,243246,5,0,0:0:0:0:
368,120,243402,1,0,0:0:0:0:
256,88,243557,1,0,0:0:0:0:
304,200,243713,1,0,0:0:0:0:
200,144,243868,5,0,0:0:0:0:
176,144,243946,1,0,0:0:0:0:
152,144,244024,1,0,0:0:0:0:
312,240,244179,5,0,0:0:0:0:
336,240,244257,1,0,0:0:0:0:
360,240,244335,1,0,0:0:0:0:
467,188,244490,5,0,0:0:0:0:
398,89,244646,2,0,B|350:54|275:47,1,100
255,160,244957,1,0,0:0:0:0:
140,195,245112,5,0,0:0:0:0:
209,293,245268,1,0,0:0:0:0:
325,318,245423,2,0,B|428:320|428:318,1,100
368,208,245734,2,0,B|471:210|471:208,1,100
408,104,246045,2,0,B|511:106|511:104,1,100
256,88,246356,5,0,0:0:0:0:
144,184,246512,1,0,0:0:0:0:
296,168,246667,1,0,0:0:0:0:
168,96,246823,1,0,0:0:0:0:
224,232,246979,5,0,0:0:0:0:
224,272,247056,1,0,0:0:0:0:
224,312,247134,1,0,0:0:0:0:
288,152,247290,1,0,0:0:0:0:
288,112,247367,1,0,0:0:0:0:
288,72,247445,1,0,0:0:0:0:
288,32,247523,1,0,0:0:0:0:
288,0,247601,6,0,B|240:16|176:16,1,100
104,96,247912,1,0,0:0:0:0:
216,144,248067,1,0,0:0:0:0:
128,224,248223,1,0,0:0:0:0:
128,224,248300,1,0,0:0:0:0:
128,224,248378,1,0,0:0:0:0:
384,224,248534,1,0,0:0:0:0:
384,224,248611,1,0,0:0:0:0:
384,224,248689,1,0,0:0:0:0:
400,104,248845,6,0,B|360:72|288:64|288:64,3,100
280,64,249389,1,0,0:0:0:0:
256,64,249467,6,0,B|184:72|136:64,1,100
256,320,249778,2,0,B|328:312|376:320,1,100
360,200,250089,5,0,0:0:0:0:
312,88,250244,1,0,0:0:0:0:
256,192,250400,1,0,0:0:0:0:
184,96,250555,1,0,0:0:0:0:
152,184,250711,5,0,0:0:0:0:
200,296,250866,1,0,0:0:0:0:
256,192,251022,1,0,0:0:0:0:
328,288,251177,1,0,0:0:0:0:
400,192,251333,5,0,0:0:0:0:
472,192,251489,1,0,0:0:0:0:
112,192,251644,5,0,0:0:0:0:
40,192,251800,1,0,0:0:0:0:
112,88,251955,5,0,0:0:0:0:
128,80,252033,1,0,0:0:0:0:
136,72,252111,1,0,0:0:0:0:
152,56,252188,1,0,0:0:0:0:
168,40,252266,6,0,B|232:40|272:40,1,100
344,344,252577,2,0,B|280:344|240:344,1,100
256,144,252888,6,0,B|320:144|360:144,1,100
256,240,253199,2,0,B|192:240|152:240,1,100
256,192,253510,5,0,0:0:0:0:
256,192,253666,1,0,0:0:0:0:
376,104,253821,1,0,0:0:0:0:
376,104,253977,1,0,0:0:0:0:
256,8,254132,1,0,0:0:0:0:
256,8,254288,1,0,0:0:0:0:
144,104,254444,1,0,0:0:0:0:
144,104,254599,1,0,0:0:0:0:
256,192,254755,5,0,0:0:0:0:
256,192,254911,1,0,0:0:0:0:
136,280,255066,1,0,0:0:0:0:
136,280,255222,1,0,0:0:0:0:
256,376,255377,1,0,0:0:0:0:
256,376,255533,1,0,0:0:0:0:
368,280,255689,1,0,0:0:0:0:
368,280,255844,1,0,0:0:0:0:
416,136,255999,5,0,0:0:0:0:
416,136,256154,1,0,0:0:0:0:
96,136,256310,5,0,0:0:0:0:
96,136,256465,1,0,0:0:0:0:
240,192,256621,1,0,0:0:0:0:
240,192,256776,1,0,0:0:0:0:
256,40,256932,1,0,0:0:0:0:
256,40,257010,1,0,0:0:0:0:
256,40,257087,1,0,0:0:0:0:
256,40,257165,1,0,0:0:0:0:
256,40,257243,1,0,0:0:0:0:
344,160,257398,1,0,0:0:0:0:
440,88,257554,5,0,0:0:0:0:
440,88,257865,1,0,0:0:0:0:
408,200,258020,1,0,0:0:0:0:
240,192,258176,5,0,0:0:0:0:
288,304,258332,1,0,0:0:0:0:
104,80,258487,5,0,0:0:0:0:
56,192,258643,1,0,0:0:0:0:
160,240,258798,5,0,0:0:0:0:
352,240,258954,1,0,0:0:0:0:
160,240,259109,1,0,0:0:0:0:
352,240,259265,1,0,0:0:0:0:
352,240,259576,6,0,B|400:192|464:184|464:184,2,100
320,128,260042,5,0,0:0:0:0:
216,72,260198,1,0,0:0:0:0:
352,240,260353,5,0,0:0:0:0:
160,144,260509,1,0,0:0:0:0:
392,352,260664,5,0,0:0:0:0:
96,208,260820,1,0,0:0:0:0:
272,352,260975,5,0,0:0:0:0:
168,304,261131,1,0,0:0:0:0:
256,216,261286,5,0,0:0:0:0:
256,192,261364,1,0,0:0:0:0:
256,168,261442,1,0,0:0:0:0:
256,144,261520,1,0,0:0:0:0:
256,120,261597,1,0,0:0:0:0:
256,96,261675,1,0,0:0:0:0:
256,72,261753,2,0,B|296:40|360:48|360:48,2,100
144,72,262220,5,0,0:0:0:0:
144,72,262297,1,0,0:0:0:0:
144,72,262375,1,0,0:0:0:0:
144,72,262453,1,0,0:0:0:0:
144,72,262531,1,0,0:0:0:0:
