osu file format v12

[General]
AudioFilename: Feel The Melody Xin.mp3
AudioLeadIn: 0
PreviewTime: 32768
Countdown: 0
SampleSet: Normal
StackLeniency: 0.7
Mode: 0
LetterboxInBreaks: 0
EpilepsyWarning: 1

[Editor]
DistanceSpacing: 1
BeatDivisor: 4
GridSize: 4

[Metadata]
Title:Feel The Melody
TitleUnicode:Feel The Melody
Artist:DJ S3RL feat. Sara
ArtistUnicode:DJ S3RL feat. Sara
Creator:XinCrin
Version:Normal
Source:
Tags:trance rave Kin [Te][Amo]
BeatmapID:197226
BeatmapSetID:68053

[Difficulty]
HPDrainRate:4
CircleSize:4
OverallDifficulty:4
ApproachRate:5
SliderMultiplier:1
SliderTickRate:1

[Events]
//Background and Video events
0,0,"BG.jpg",0,0
//Break Periods
2,77045,86616
2,109959,116787
//Storyboard Layer 0 (Background)
Sprite,Background,Centre,"BG.jpg",320,240 F,0,0,,0
Sprite,Background,Centre,"BG.jpg",320,240 M,0,45,,320,240 S,0,45,,0.6269194 F,0,45,1416,0,0.7179147 F,0,1416,10673,0.7179147,0.5576939 F,0,11016,20616,1 F,0,20616,21645,1,0 S,0,21987,,0.625 F,0,21987,31587,1 F,0,31587,32616,1,0 F,0,32959,54902,1 F,0,54902,55587,1 F,0,55587,75473,1,0.9931719 F,0,75473,76845,0.9931719,0 F,0,87816,93302,0.003619404,1 F,0,93302,97416,1,0.9980022 F,0,97416,98445,0.9980022,0 F,0,98787,109759,1 F,0,109759,110787,1,0 F,0,120730,142673,1 F,0,142673,163245,1 F,0,163245,165302,1,0
Sprite,Background,Centre,"SB\Flash.png",320,240 L,0,30 F,0,120730,121416,1,0 L,0,30 F,0,32959,33645,0.8,0 L,0,8 F,0,98787,99473,1,0 S,0,98787,100159,1
Sprite,Background,Centre,"SB\Light.png",320,240 M,0,32959,,176,242 F,0,32959,,1 R,0,32959,53530,0,-5.368721
Sprite,Background,Centre,"SB\Light.png",320,240 M,0,120730,,176,242 F,0,120730,,1 R,0,120730,141301,0,-5.368721
Sprite,Background,Centre,"SB\girlwhite.png",320,240 F,0,32959,53530,1 F,0,53530,53873,1,0 F,0,109759,115245,1 F,0,115245,116616,1,0
Sprite,Background,Centre,"SB\girlwhite.png",320,240 F,0,120730,141302,1
//Storyboard Layer 1 (Fail)
//Storyboard Layer 2 (Pass)
//Storyboard Layer 3 (Foreground)
Sprite,Foreground,Centre,"SB\color.jpg",320,240 L,0,60 F,0,142673,143016,1,0
Sprite,Foreground,Centre,"SB\color.jpg",320,240 L,0,30 F,0,55587,55930,1,0 L,0,23 F,0,66559,66902,1,0
Sprite,Foreground,Centre,"SB\Storyboard.png",320,240 M,0,111130,,398,341 F,0,111130,111473,0,1 V,0,111130,111473,0.1719431,1.072796,0.8362086,1.20019 F,0,111473,112502,1 F,0,112502,112845,1,0
Sprite,Foreground,Centre,"SB\xin.png",320,240 M,0,111473,,504,381 F,0,111473,111816,0,1 V,0,111473,111816,0.4085309,1.063697,1.054597,1.109194 F,0,111816,112845,1 F,0,112845,113187,1,0.008593329
Sprite,Foreground,Centre,"SB\mapped.png",398,341 F,0,113187,113530,0,1 V,0,113187,113530,0.5268244,1.0091,0.8817059,1.063697 F,0,113530,114902,1 F,0,114902,115245,1,0
Sprite,Foreground,Centre,"SB\xin.png",320,240 M,0,113873,,504,381 F,0,113873,114216,0,1 V,0,113873,114216,0.4085309,1.063697,1.054597,1.109194 F,0,114216,115245,1 F,0,115245,115587,1,0.008593329
Sprite,Foreground,Centre,"SB\1.png",531,366 F,0,12730,13073,0,1 V,0,12730,13073,0.5367786,1.919052,0.8097625,1.145593 F,0,13073,14102,1 F,0,14102,14445,1,0
Sprite,Foreground,Centre,"SB\2.png",572,404 F,0,13759,14102,0,1 V,0,13759,14102,1.309384,1.027298,1,1 F,0,14102,15473,1 F,0,15473,15816,1,0
Sprite,Foreground,Centre,"SB\3.png",531,366 F,0,18216,18559,0,1 V,0,18216,18559,0.9909003,1.500474,0.9818009,1.072796 R,0,18559,,0 F,0,18559,19587,1,0.973761 F,0,19587,19930,0.973761,0
Sprite,Foreground,Centre,"SB\4.png",572,404 F,0,19416,19759,0,1 V,0,19416,19759,1.245687,1.027298,0.9818009,0.9818009 F,0,19759,20959,1,0.9708455 F,0,20959,21302,0.9708455,0
Sprite,Foreground,Centre,"SB\5.png",531,366 F,0,23530,23873,0,1 V,0,23530,23873,1.0091,1.418578,1.0091,1.127393 F,0,23873,25073,1 F,0,25073,25416,1,0
Sprite,Foreground,Centre,"SB\6.png",572,404 F,0,24902,25245,0,1 V,0,24902,25245,1.300285,1.027299,1.090996,1.072796 F,0,25245,26787,1 F,0,26787,27130,1,0
Sprite,Foreground,Centre,"SB\7.png",531,366 F,0,29016,29359,0,1 V,0,29016,29359,0.8726068,1.773459,0.9545029,1.227488 F,0,29359,30902,1,0.9650146 F,0,30902,31245,0.9650146,0
Sprite,Foreground,Centre,"SB\8.png",572,404 F,0,30559,30902,0,1 V,0,30559,30902,1.354881,0.9909003,0.9999993,0.9727014 F,0,30902,31930,1 F,0,31930,32616,1,0
Sprite,Foreground,Centre,"SB\1.png",320,240 F,0,78216,78559,0,1 V,0,78216,78559,0.1,0.8271091,1.082749,1.218389 F,0,78559,79930,1,0.9912537 F,0,79930,80273,0.9912537,0
Sprite,Foreground,Centre,"SB\2.png",320,240 M,0,79587,,507,281 F,0,79587,79930,0,1 V,0,79587,79930,1.163792,0.9909006,1.0091,1.054597 F,0,79930,81645,1,0.9883382 F,0,81645,81987,0.9883382,0
Sprite,Foreground,Centre,"SB\3.png",320,240 F,0,84045,84387,0,1 V,0,84045,84387,1,2.428626,1,1 F,0,84387,85759,1,0.9678363 F,0,85759,86102,0.9678363,0
Sprite,Foreground,Centre,"SB\4.png",320,240 M,0,85073,,507,281 F,0,85073,85416,0,1 V,0,85073,85416,1.163792,0.9909006,1.0091,1.054597 F,0,85416,87131,1,0.9883382 F,0,87131,87473,0.9883382,0
Sprite,Foreground,Centre,"SB\5.png",531,366 F,0,89359,89702,0,1 V,0,89359,89702,1.0091,1.418578,1.0091,1.127393 F,0,89702,90902,1 F,0,90902,91245,1,0
Sprite,Foreground,Centre,"SB\6.png",572,404 F,0,90730,91073,0,1 V,0,90730,91073,1.300285,1.027299,1.090996,1.072796 F,0,91073,92615,1 F,0,92615,92958,1,0
Sprite,Foreground,Centre,"SB\7.png",531,366 F,0,94845,95188,0,1 V,0,94845,95188,0.8726068,1.773459,0.9545029,1.227488 F,0,95188,96731,1,0.9650146 F,0,96731,97074,0.9650146,0
Sprite,Foreground,Centre,"SB\8.png",572,404 F,0,96216,96559,0,1 V,0,96216,96559,1.354881,0.9909003,0.9999993,0.9727014 F,0,96559,97587,1 F,0,97587,98273,1,0
Sprite,Foreground,Centre,"SB\layer.jpg",320,240 F,0,21987,22673,1,0 F,0,32959,33645,1,0 F,0,43930,44616,1,0 F,0,53530,54216,1,0 F,0,54902,55587,1,0 F,0,65873,66559,0.8453081,0 F,0,109759,110445,1,0 F,0,117987,119359,0.007852645,0.8134597 F,0,119359,120045,0.8134597,0 F,0,120730,121416,1,0.01185802 F,0,131702,132387,1,0 F,0,141302,141987,1,0 F,0,142673,143359,1,0 F,0,153645,154330,0.558673,0
//Storyboard Sound Samples
//Background Colour Transformations
3,100,163,162,255

[TimingPoints]
45,342.857142857143,4,1,0,60,1,0
32959,-100,4,1,1,70,0,1
43845,-100,4,1,1,70,0,0
43930,-100,4,1,1,70,0,1
53530,-100,4,1,1,70,0,0
55416,-100,4,2,1,70,0,0
70587,-100,4,2,0,70,0,0
70759,-100,4,2,1,70,0,0
87730,-100,4,2,0,70,0,0
98702,-100,4,1,0,70,0,0
120730,-100,4,1,1,70,0,1
131616,-100,4,1,1,70,0,0
131702,-100,4,1,1,70,0,1
141302,-100,4,1,1,70,0,0
144473,-100,4,1,0,70,0,0
144645,-100,4,1,1,70,0,0
152530,-100,4,1,1,70,0,0
152702,-100,4,1,0,70,0,0
153130,-100,4,1,1,70,0,0
163245,-100,4,2,1,5,0,0

[Colours]
Combo1 : 128,255,255
Combo2 : 255,94,94
Combo3 : 177,100,255
SliderBorder : 180,180,180

[HitObjects]
205,217,21987,2,0,P|165:152|179:76,2,150,4|0|0,0:0|0:0|0:0,0:0:0:0:
304,222,23359,2,0,P|269:290|205:317,2,150,0|0|0,0:0|0:0|0:0,0:0:0:0:
259,134,24730,2,0,P|336:131|391:174,2,150,0|0|0,0:0|0:0|0:0,0:0:0:0:
205,217,26102,1,0,0:0:0:0:
96,300,26616,2,0,L|68:152,1,150
4,76,27473,6,0,P|52:52|140:84,1,150
216,212,28502,1,0,0:0:0:0:
272,296,28845,2,0,P|217:319|138:273,1,150
64,152,29873,1,0,0:0:0:0:
140,88,30216,2,0,P|256:8|372:88,1,300
448,152,31587,1,4,0:0:0:0:
200,48,32959,6,0,B|164:92|172:128|172:128|220:172|200:232,1,200,4|0,0:0|0:0,0:0:0:0:
104,204,33987,1,8,0:0:0:0:
128,300,34330,2,0,P|168:328|220:328,1,100,0|8,0:0|0:0,0:0:0:0:
320,328,35016,2,0,P|369:327|409:299,1,100,0|8,0:0|0:0,0:0:0:0:
324,244,35702,6,0,B|344:204|384:196|384:196|440:224|500:196,1,200
436,116,36730,1,8,0:0:0:0:
352,60,37073,1,0,0:0:0:0:
256,100,37416,2,0,P|208:112|156:100,1,100,8|0,0:0|0:0,0:0:0:0:
60,112,38102,1,8,0:0:0:0:
108,200,38444,6,0,P|204:224|300:200,1,200,4|0,0:0|0:0,0:0:0:0:
340,292,39473,1,8,0:0:0:0:
244,324,39816,2,0,P|196:336|148:324,1,100,0|8,0:0|0:0,0:0:0:0:
64,268,40502,2,0,P|32:232|28:176,1,100,0|8,0:0|0:0,0:0:0:0:
120,144,41187,5,0,0:0:0:0:
136,44,41530,1,8,0:0:0:0:
236,24,41873,1,0,0:0:0:0:
312,88,42216,1,8,0:0:0:0:
288,184,42559,2,0,B|340:196|380:164|380:164|380:216|436:252,1,200
508,312,43587,1,8,0:0:0:0:
416,356,43930,6,0,P|332:316|242:359,1,200,4|0,0:0|0:0,0:0:0:0:
156,312,44959,1,8,0:0:0:0:
164,212,45302,2,0,P|172:164|212:132,1,100,0|8,0:0|0:0,0:0:0:0:
312,132,45987,2,0,P|350:163|358:211,1,100,0|8,0:0|0:0,0:0:0:0:
456,200,46673,6,0,P|440:112|356:36,1,200
260,36,47702,1,8,0:0:0:0:
184,100,48044,2,0,P|152:128|96:132,1,100,0|8,0:0|0:0,0:0:0:0:
80,236,48730,2,0,P|172:244|196:336,1,200,0|0,0:0|0:0,0:0:0:0:
296,348,49759,5,8,0:0:0:0:
380,296,50102,2,0,L|364:196,1,100,0|8,0:0|0:0,0:0:0:0:
444,136,50787,2,0,L|460:236,1,100,0|8,0:0|0:0,0:0:0:0:
380,296,51473,1,0,0:0:0:0:
296,240,51816,1,8,0:0:0:0:
256,192,52159,12,4,53530,0:0:0:0:
120,116,54387,6,0,L|112:168,1,50
64,176,54730,2,0,L|12:164,1,50,0|4,0:0|0:0,0:0:0:0:
140,312,55587,6,0,P|184:288|208:244,1,100,4|8,0:0|0:0,0:0:0:0:
308,248,56273,2,0,P|331:290|375:314,1,100,0|8,0:0|0:0,0:0:0:0:
404,224,56959,1,0,0:0:0:0:
356,136,57302,1,8,0:0:0:0:
288,64,57644,6,0,P|196:28|124:92,1,200,4|0,0:0|0:0,0:0:0:0:
36,48,58673,1,8,0:0:0:0:
20,148,59016,2,0,P|0:244|76:304,1,200,4|2,0:0|0:0,0:0:0:0:
104,208,60044,1,2,0:0:0:0:
180,140,60387,1,2,0:0:0:0:
292,304,61073,6,0,B|324:328|360:288|388:312,1,100,4|8,0:0|0:0,0:0:0:0:
468,372,61759,2,0,P|472:288|388:216,1,200
292,192,62787,1,8,0:0:0:0:
344,104,63130,6,0,B|312:56|256:80|256:80|200:56|168:104,1,200,4|0,0:0|0:0,0:0:0:0:
152,200,64159,2,0,P|168:248|216:280,1,100,8|0,0:0|0:0,0:0:0:0:
305,276,64844,2,0,P|344:248|360:200,1,100,8|2,0:0|0:0,0:0:0:0:
352,100,65530,1,2,0:0:0:0:
252,80,65873,6,0,B|232:132|168:120|168:120|104:108|84:160,1,200,4|0,0:0|0:0,0:0:0:0:
56,248,66902,2,0,P|80:288|128:304,1,100,8|2,0:0|0:0,0:0:0:0:
180,220,67587,1,8,0:0:0:0:
256,284,67930,1,0,0:0:0:0:
328,220,68273,1,8,0:0:0:0:
384,304,68616,6,0,P|432:288|456:248,1,100,2|8,0:0|0:0,0:0:0:0:
396,168,69302,2,0,B|364:132|312:136|312:136|344:88|304:32,1,200,0|2,0:0|0:0,0:0:0:0:
208,36,70330,2,0,B|171:87|203:135|203:135|151:131|119:167,1,200,8|8,0:0|0:0,0:0:0:0:
168,256,71359,2,0,P|256:216|344:256,1,200,2|0,0:0|0:0,0:0:0:0:
424,320,72387,5,8,0:0:0:0:
336,368,72730,1,2,0:0:0:0:
256,312,73073,1,8,0:0:0:0:
176,368,73416,1,0,0:0:0:0:
88,320,73759,1,8,0:0:0:0:
256,192,74102,12,4,76844,0:0:0:0:
168,296,87816,6,0,B|220:324|256:280|256:280|296:324|348:296,1,200,2|2,0:0|0:0,0:0:0:0:
308,204,88845,1,0,0:0:0:0:
208,204,89187,1,2,0:0:0:0:
68,148,89702,6,0,P|96:88|176:80,1,150,2|2,0:0|0:0,0:0:0:0:
256,132,90559,2,0,P|316:112|340:32,2,150,2|2|2,0:0|0:0|0:0,0:0:0:0:
176,192,91930,2,0,P|116:240|116:308,1,150,0|2,0:0|0:0,0:0:0:0:
208,344,92787,2,0,L|260:372,1,50,0|2,0:0|0:0,0:0:0:0:
300,356,93130,2,0,L|328:308,1,50,0|2,0:0|0:0,0:0:0:0:
468,364,93816,6,0,P|500:300|468:228,1,150,0|2,0:0|0:0,0:0:0:0:
388,176,94673,2,0,P|440:128|512:144,2,150,2|0|2,0:0|0:0|0:0,0:0:0:0:
320,248,96045,2,0,P|256:280|188:248,1,150,2|0,0:0|0:0,0:0:0:0:
196,148,96902,2,0,L|232:108,1,50,0|2,0:0|0:0,0:0:0:0:
280,112,97245,2,0,L|313:149,1,50,0|4,0:0|0:0,0:0:0:0:
208,356,98787,6,0,P|140:344|104:272,2,150,4|0|0,0:0|0:0|0:0,0:0:0:0:
308,356,100159,2,0,P|376:344|411:277,2,150
308,252,101530,2,0,L|348:104,2,150
208,252,102902,2,0,L|168:107,2,150
112,220,104273,6,0,P|76:156|92:80,2,150,4|0|0,0:0|0:0|0:0,0:0:0:0:
180,296,105645,2,0,P|108:320|44:280,2,150
232,208,107016,2,0,P|256:136|320:108,2,150
284,292,108387,2,0,P|348:326|416:296,2,150
348,216,109759,1,4,0:0:0:0:
256,192,117987,12,4,119359,0:0:0:0:
168,304,120730,6,0,B|216:340|256:168|292:340|344:308,1,200,4|0,0:0|0:0,0:0:0:0:
392,220,121759,2,0,P|352:180|304:168,1,100,8|0,0:0|0:0,0:0:0:0:
256,84,122445,1,8,0:0:0:0:
200,168,122787,2,0,P|159:179|119:219,1,100,0|8,0:0|0:0,0:0:0:0:
24,192,123473,6,0,P|84:112|180:80,1,200
276,100,124502,1,8,0:0:0:0:
376,84,124845,2,0,P|416:104|448:152,1,100,0|8,0:0|0:0,0:0:0:0:
440,248,125530,2,0,P|407:279|351:296,1,100,0|8,0:0|0:0,0:0:0:0:
268,244,126216,6,0,P|180:208|108:280,1,200,4|0,0:0|0:0,0:0:0:0:
204,312,127245,1,8,0:0:0:0:
268,244,127587,2,0,L|260:132,1,100,0|8,0:0|0:0,0:0:0:0:0|0
356,120,128273,2,0,L|364:232,1,100,0|8,0:0|0:0,0:0:0:0:
368,320,128959,6,0,P|452:280|448:180,1,200
364,136,129987,1,8,0:0:0:0:
452,92,130330,2,0,B|404:28|324:48|324:48|272:32,1,200
256,132,131359,1,8,0:0:0:0:
156,120,131702,6,0,L|56:136,1,100,4|8,0:0|0:0,0:0:0:0:
56,236,132387,2,0,B|104:272|148:236|148:236|192:204|244:236,1,200
204,328,133416,2,0,P|236:364|288:360,1,100,8|0,0:0|0:0,0:0:0:0:
372,312,134102,1,8,0:0:0:0:
364,212,134445,6,0,P|332:176|280:180,1,100,0|8,0:0|0:0,0:0:0:0:
204,240,135130,2,0,P|155:242|123:206,1,100,0|8,0:0|0:0,0:0:0:0:
72,120,135816,2,0,P|24:188|76:292,1,200
123,206,136845,1,8,0:0:0:0:
164,116,137187,6,0,B|204:88|204:88|212:36,1,100,0|8,0:0|0:0,0:0:0:0:
300,37,137873,2,0,B|307:87|307:87|347:115,1,100,0|8,0:0|0:0,0:0:0:0:
440,152,138559,2,0,P|424:244|331:257,1,200,0|0,0:0|0:0,0:0:0:0:
256,328,139587,1,8,0:0:0:0:
180,257,139930,2,0,P|88:244|72:152,1,200,0|0,0:0|0:0,0:0:0:0:
172,160,140959,1,8,0:0:0:0:
256,108,141302,1,4,0:0:0:0:
108,340,142673,6,0,L|212:360,1,100,4|8,0:0|0:0,0:0:0:0:
256,272,143359,1,0,0:0:0:0:
305,358,143702,2,0,L|404:340,1,100,8|0,0:0|0:0,0:0:0:0:
452,320,144216,2,0,P|472:268|464:216,1,100,0|0,0:0|0:0,0:0:0:0:
404,148,144902,5,0,0:0:0:0:
360,120,145073,1,8,0:0:0:0:
268,156,145416,2,0,P|224:136|180:156,1,100,0|8,0:0|0:0,0:0:0:0:
212,248,146102,2,0,B|172:288|168:332|168:332|128:360|68:340,1,200
80,240,147130,1,8,0:0:0:0:
68,192,147302,6,0,P|56:148|80:100,1,100
120,72,147816,2,0,P|168:80|212:56,1,100,8|0,0:0|0:0,0:0:0:0:
292,116,148502,1,8,0:0:0:0:
340,132,148673,2,0,P|384:164|404:208,1,100
440,236,149187,2,0,P|444:264|436:288,1,50,8|0,0:0|0:0,0:0:0:0:
408,320,149530,6,0,P|312:308|296:216,1,200
256,128,150559,1,8,0:0:0:0:
220,220,150902,2,0,P|200:268|160:292,1,100,0|8,0:0|0:0,0:0:0:0:
60,280,151587,2,0,P|80:232|120:208,1,100,0|8,0:0|0:0,0:0:0:0:
168,120,152273,2,0,P|256:20|344:120,1,300,0|8,0:0|0:0,0:0:0:0:
352,220,153645,6,0,P|436:160|432:72,1,200,4|0,0:0|0:0,0:0:0:0:
344,120,154673,1,8,0:0:0:0:
248,96,155016,2,0,P|200:104|160:144,1,100,0|8,0:0|0:0,0:0:0:0:
104,220,155702,5,0,0:0:0:0:
128,316,156045,2,0,P|176:296|212:324,1,100,8|0,0:0|0:0,0:0:0:0:
256,232,156730,1,8,0:0:0:0:
304,320,157073,2,0,P|339:294|387:314,1,100,0|8,0:0|0:0,0:0:0:0:
452,236,157759,6,0,P|368:196|376:100,1,200
464,148,158787,1,8,0:0:0:0:
448,48,159130,2,0,P|352:24|288:92,1,200
272,188,160159,1,8,0:0:0:0:
196,252,160502,5,0,0:0:0:0:
120,188,160845,1,8,0:0:0:0:
196,120,161187,2,0,L|196:20,1,100,0|8,0:0|0:0,0:0:0:0:
256,192,161873,12,0,163245,0:0:0:0:
