osu file format v12

[General]
AudioFilename: Feel The Melody Xin.mp3
AudioLeadIn: 0
PreviewTime: 32768
Countdown: 0
SampleSet: Soft
StackLeniency: 0.7
Mode: 0
LetterboxInBreaks: 0
EpilepsyWarning: 1

[Editor]
Bookmarks: 155007
DistanceSpacing: 1
BeatDivisor: 2
GridSize: 4

[Metadata]
Title:Feel The Melody
TitleUnicode:Feel The Melody
Artist:DJ S3RL feat. Sara
ArtistUnicode:DJ S3RL feat. Sara
Creator:XinCrin
Version:Hard
Source:
Tags:trance rave Kin [Te][Amo]
BeatmapID:197225
BeatmapSetID:68053

[Difficulty]
HPDrainRate:7
CircleSize:4
OverallDifficulty:7
ApproachRate:8
SliderMultiplier:1.6
SliderTickRate:1

[Events]
//Background and Video events
0,0,"BG.jpg",0,0
//Break Periods
2,77045,87066
2,109959,117237
//Storyboard Layer 0 (Background)
Sprite,Background,Centre,"BG.jpg",320,240 F,0,0,,0
Sprite,Background,Centre,"BG.jpg",320,240 M,0,45,,320,240 S,0,45,,0.6269194 F,0,45,1416,0,0.7179147 F,0,1416,10673,0.7179147,0.5576939 F,0,11016,20616,1 F,0,20616,21645,1,0 S,0,21987,,0.625 F,0,21987,31587,1 F,0,31587,32616,1,0 F,0,32959,54902,1 F,0,54902,55587,1 F,0,55587,75473,1,0.9931719 F,0,75473,76845,0.9931719,0 F,0,87816,93302,0.003619404,1 F,0,93302,97416,1,0.9980022 F,0,97416,98445,0.9980022,0 F,0,98787,109759,1 F,0,109759,110787,1,0 F,0,120730,142673,1 F,0,142673,163245,1 F,0,163245,165302,1,0
Sprite,Background,Centre,"SB\Flash.png",320,240 L,0,30 F,0,120730,121416,1,0 L,0,30 F,0,32959,33645,0.8,0 L,0,8 F,0,98787,99473,1,0 S,0,98787,100159,1
Sprite,Background,Centre,"SB\Light.png",320,240 M,0,32959,,176,242 F,0,32959,,1 R,0,32959,53530,0,-5.368721
Sprite,Background,Centre,"SB\Light.png",320,240 M,0,120730,,176,242 F,0,120730,,1 R,0,120730,141301,0,-5.368721
Sprite,Background,Centre,"SB\girlwhite.png",320,240 F,0,32959,53530,1 F,0,53530,53873,1,0 F,0,109759,115245,1 F,0,115245,116616,1,0
Sprite,Background,Centre,"SB\girlwhite.png",320,240 F,0,120730,141302,1
//Storyboard Layer 1 (Fail)
//Storyboard Layer 2 (Pass)
//Storyboard Layer 3 (Foreground)
Sprite,Foreground,Centre,"SB\color.jpg",320,240 L,0,60 F,0,142673,143016,1,0
Sprite,Foreground,Centre,"SB\color.jpg",320,240 L,0,30 F,0,55587,55930,1,0 L,0,23 F,0,66559,66902,1,0
Sprite,Foreground,Centre,"SB\Storyboard.png",320,240 M,0,111130,,398,341 F,0,111130,111473,0,1 V,0,111130,111473,0.1719431,1.072796,0.8362086,1.20019 F,0,111473,112502,1 F,0,112502,112845,1,0
Sprite,Foreground,Centre,"SB\xin.png",320,240 M,0,111473,,504,381 F,0,111473,111816,0,1 V,0,111473,111816,0.4085309,1.063697,1.054597,1.109194 F,0,111816,112845,1 F,0,112845,113187,1,0.008593329
Sprite,Foreground,Centre,"SB\mapped.png",398,341 F,0,113187,113530,0,1 V,0,113187,113530,0.5268244,1.0091,0.8817059,1.063697 F,0,113530,114902,1 F,0,114902,115245,1,0
Sprite,Foreground,Centre,"SB\xin.png",320,240 M,0,113873,,504,381 F,0,113873,114216,0,1 V,0,113873,114216,0.4085309,1.063697,1.054597,1.109194 F,0,114216,115245,1 F,0,115245,115587,1,0.008593329
Sprite,Foreground,Centre,"SB\1.png",531,366 F,0,12730,13073,0,1 V,0,12730,13073,0.5367786,1.919052,0.8097625,1.145593 F,0,13073,14102,1 F,0,14102,14445,1,0
Sprite,Foreground,Centre,"SB\2.png",572,404 F,0,13759,14102,0,1 V,0,13759,14102,1.309384,1.027298,1,1 F,0,14102,15473,1 F,0,15473,15816,1,0
Sprite,Foreground,Centre,"SB\3.png",531,366 F,0,18216,18559,0,1 V,0,18216,18559,0.9909003,1.500474,0.9818009,1.072796 R,0,18559,,0 F,0,18559,19587,1,0.973761 F,0,19587,19930,0.973761,0
Sprite,Foreground,Centre,"SB\4.png",572,404 F,0,19416,19759,0,1 V,0,19416,19759,1.245687,1.027298,0.9818009,0.9818009 F,0,19759,20959,1,0.9708455 F,0,20959,21302,0.9708455,0
Sprite,Foreground,Centre,"SB\5.png",531,366 F,0,23530,23873,0,1 V,0,23530,23873,1.0091,1.418578,1.0091,1.127393 F,0,23873,25073,1 F,0,25073,25416,1,0
Sprite,Foreground,Centre,"SB\6.png",572,404 F,0,24902,25245,0,1 V,0,24902,25245,1.300285,1.027299,1.090996,1.072796 F,0,25245,26787,1 F,0,26787,27130,1,0
Sprite,Foreground,Centre,"SB\7.png",531,366 F,0,29016,29359,0,1 V,0,29016,29359,0.8726068,1.773459,0.9545029,1.227488 F,0,29359,30902,1,0.9650146 F,0,30902,31245,0.9650146,0
Sprite,Foreground,Centre,"SB\8.png",572,404 F,0,30559,30902,0,1 V,0,30559,30902,1.354881,0.9909003,0.9999993,0.9727014 F,0,30902,31930,1 F,0,31930,32616,1,0
Sprite,Foreground,Centre,"SB\1.png",320,240 F,0,78216,78559,0,1 V,0,78216,78559,0.1,0.8271091,1.082749,1.218389 F,0,78559,79930,1,0.9912537 F,0,79930,80273,0.9912537,0
Sprite,Foreground,Centre,"SB\2.png",320,240 M,0,79587,,507,281 F,0,79587,79930,0,1 V,0,79587,79930,1.163792,0.9909006,1.0091,1.054597 F,0,79930,81645,1,0.9883382 F,0,81645,81987,0.9883382,0
Sprite,Foreground,Centre,"SB\3.png",320,240 F,0,84045,84387,0,1 V,0,84045,84387,1,2.428626,1,1 F,0,84387,85759,1,0.9678363 F,0,85759,86102,0.9678363,0
Sprite,Foreground,Centre,"SB\4.png",320,240 M,0,85073,,507,281 F,0,85073,85416,0,1 V,0,85073,85416,1.163792,0.9909006,1.0091,1.054597 F,0,85416,87131,1,0.9883382 F,0,87131,87473,0.9883382,0
Sprite,Foreground,Centre,"SB\5.png",531,366 F,0,89359,89702,0,1 V,0,89359,89702,1.0091,1.418578,1.0091,1.127393 F,0,89702,90902,1 F,0,90902,91245,1,0
Sprite,Foreground,Centre,"SB\6.png",572,404 F,0,90730,91073,0,1 V,0,90730,91073,1.300285,1.027299,1.090996,1.072796 F,0,91073,92615,1 F,0,92615,92958,1,0
Sprite,Foreground,Centre,"SB\7.png",531,366 F,0,94845,95188,0,1 V,0,94845,95188,0.8726068,1.773459,0.9545029,1.227488 F,0,95188,96731,1,0.9650146 F,0,96731,97074,0.9650146,0
Sprite,Foreground,Centre,"SB\8.png",572,404 F,0,96216,96559,0,1 V,0,96216,96559,1.354881,0.9909003,0.9999993,0.9727014 F,0,96559,97587,1 F,0,97587,98273,1,0
Sprite,Foreground,Centre,"SB\layer.jpg",320,240 F,0,21987,22673,1,0 F,0,32959,33645,1,0 F,0,43930,44616,1,0 F,0,53530,54216,1,0 F,0,54902,55587,1,0 F,0,65873,66559,0.8453081,0 F,0,109759,110445,1,0 F,0,117987,119359,0.007852645,0.8134597 F,0,119359,120045,0.8134597,0 F,0,120730,121416,1,0.01185802 F,0,131702,132387,1,0 F,0,141302,141987,1,0 F,0,142673,143359,1,0 F,0,153645,154330,0.558673,0
//Storyboard Sound Samples
//Background Colour Transformations
3,100,163,162,255

[TimingPoints]
45,342.857142857143,4,1,0,60,1,0
32959,-100,4,1,1,70,0,1
43845,-100,4,1,1,70,0,0
43930,-100,4,1,1,70,0,1
53530,-100,4,1,1,70,0,0
55416,-100,4,2,1,70,0,0
75473,-100,4,2,1,30,0,0
98702,-100,4,1,1,70,0,0
120730,-100,4,1,1,70,0,1
131616,-100,4,1,1,70,0,0
131702,-100,4,1,1,70,0,1
141302,-100,4,1,1,70,0,0
163245,-100,4,2,1,5,0,0

[Colours]
Combo1 : 128,255,255
Combo2 : 255,94,94
Combo3 : 177,100,255
SliderBorder : 180,180,180

[HitObjects]
300,340,21987,6,0,B|344:356|384:316|364:284|364:284|340:240,1,160,4|0,0:0|0:0,0:0:0:0:
172,240,22502,2,0,B|148:284|148:284|128:316|168:356|212:340,1,160,0|0,0:0|0:0,0:0:0:0:
256,272,23016,1,0,0:0:0:0:
240,192,23187,1,0,0:0:0:0:
168,156,23359,1,0,0:0:0:0:
96,192,23530,1,0,0:0:0:0:
236,112,23873,6,0,P|292:64|372:84,1,160
316,144,24387,2,0,P|340:176|376:192,1,80
444,152,24730,2,0,P|480:172|500:204,1,80
388,324,25245,2,0,P|320:344|306:273,1,160
205,273,25759,2,0,P|192:344|124:324,1,160
256,32,26616,5,0,0:0:0:0:
324,176,26959,1,0,0:0:0:0:
256,132,27130,1,0,0:0:0:0:
188,176,27302,1,0,0:0:0:0:
256,220,27473,1,0,0:0:0:0:
48,340,27816,5,0,0:0:0:0:
48,340,27987,2,0,B|108:304|96:244|96:244|112:192,1,160
28,196,28502,2,0,L|52:120,1,80
116,72,28845,2,0,P|152:60|196:72,1,80
332,140,29359,6,0,P|400:148|392:76,1,160
316,60,29873,2,0,P|276:80|256:112,1,80
276,188,30216,2,0,P|332:228|420:220,1,160
416,320,30730,2,0,P|328:312|276:356,1,160
196,340,31245,1,0,0:0:0:0:
116,336,31416,1,0,0:0:0:0:
56,280,31587,1,4,0:0:0:0:
304,228,32959,6,0,L|296:68,1,160,4|8,0:0|0:0,0:0:0:0:
216,68,33473,2,0,L|208:228,1,160,0|0,0:0|0:0,0:0:0:0:
228,304,33987,2,0,P|268:300|304:316,1,80,8|8,0:0|0:0,0:0:0:0:
152,320,34330,2,0,P|110:319|78:299,1,80
128,236,34673,1,8,0:0:0:0:
88,164,34845,1,0,0:0:0:0:
244,132,35187,5,0,0:0:0:0:
246,52,35359,1,8,0:0:0:0:
323,29,35530,1,8,0:0:0:0:
368,96,35702,1,0,0:0:0:0:
319,159,35873,1,0,0:0:0:0:
456,76,36216,6,0,P|480:148|424:212,1,160
356,236,36730,2,0,P|344:200|352:160,1,80,8|8,0:0|0:0,0:0:0:0:
432,296,37073,2,0,P|388:344|304:316,1,160,0|8,0:0|0:0,0:0:0:0:
206,318,37587,2,0,P|124:344|80:296,1,160,0|0,0:0|0:0,0:0:0:0:
136,236,38102,2,0,P|116:200|80:180,1,80,8|8,0:0|0:0,0:0:0:0:
108,104,38444,6,0,P|180:144|216:212,1,160,4|8,0:0|0:0,0:0:0:0:
296,212,38959,2,0,P|331:145|403:105,1,160
472,148,39473,1,8,0:0:0:0:
420,208,39644,1,8,0:0:0:0:
480,268,39816,2,0,P|468:304|436:332,1,80,0|0,0:0|0:0,0:0:0:0:
360,308,40159,5,8,0:0:0:0:
308,368,40330,1,0,0:0:0:0:
100,248,40673,1,0,0:0:0:0:
100,248,40844,2,0,P|64:228|44:196,1,80,8|8,0:0|0:0,0:0:0:0:
120,168,41187,5,0,0:0:0:0:
120,168,41359,2,0,P|176:216|160:308,2,160,0|0|0,0:0|0:0|0:0,0:0:0:0:
44,192,42216,1,8,0:0:0:0:
24,268,42387,1,0,0:0:0:0:
80,324,42559,1,0,0:0:0:0:
192,208,42902,5,8,0:0:0:0:
256,160,43073,2,0,B|340:175|340:175|372:148|428:164,1,160
392,240,43587,2,0,P|408:276|400:320,1,80,8|8,0:0|0:0,0:0:0:0:
344,372,43930,6,0,B|296:400|268:373|240:344|188:372,1,160,4|8,0:0|0:0,0:0:0:0:
124,328,44444,2,0,P|76:280|100:196,1,160
204,212,44959,2,0,P|183:243|143:255,1,80,8|8,0:0|0:0,0:0:0:0:
160,144,45302,5,0,0:0:0:0:
256,116,45473,1,0,0:0:0:0:
352,144,45644,1,8,0:0:0:0:
332,68,45816,2,0,B|304:24|252:12|252:12|180:20,1,160
128,68,46330,2,0,L|64:116,1,80,8|8,0:0|0:0,0:0:0:0:
60,196,46673,6,0,L|124:244,1,80,0|0,0:0|0:0,0:0:0:0:
188,292,47016,1,8,0:0:0:0:
256,336,47187,2,0,B|300:364|300:364|336:380|384:344|384:316,1,160,0|0,0:0|0:0,0:0:0:0:
312,276,47702,2,0,P|344:248|380:244,1,80,8|0,0:0|0:0,0:0:0:0:
456,264,48044,1,0,0:0:0:0:
480,192,48216,2,0,P|448:168|408:160,1,80,0|8,0:0|0:0,0:0:0:0:
340,124,48559,5,8,0:0:0:0:
300,56,48730,1,0,0:0:0:0:
212,56,48902,1,8,0:0:0:0:
168,124,49073,1,8,0:0:0:0:
256,124,49244,1,0,0:0:0:0:
188,208,49416,6,0,P|256:240|328:200,1,160,4|8,0:0|0:0,0:0:0:0:
360,276,49930,2,0,L|396:352,1,80
456,256,50273,2,0,L|420:184,1,80,0|8,0:0|0:0,0:0:0:0:
388,112,50616,1,0,0:0:0:0:
464,88,50787,6,0,P|440:52|400:36,1,80,0|0,0:0|0:0,0:0:0:0:
332,60,51130,1,8,0:0:0:0:
312,136,51302,2,8,P|240:160|192:100,1,160,0|0,0:0|0:0,0:0:0:0:
112,112,51816,2,0,L|40:148,1,80,8|8,0:0|0:0,0:0:0:0:
20,224,52159,5,0,0:0:0:0:
72,284,52330,1,0,0:0:0:0:
148,304,52502,1,8,0:0:0:0:
224,276,52673,2,0,P|236:196|220:116,1,160,0|8,0:0|0:0,0:0:0:0:
180,52,53187,5,8,0:0:0:0:
100,36,53359,1,0,0:0:0:0:
28,68,53530,1,4,1:0:0:0:
256,352,54387,5,0,0:0:0:0:
188,284,54559,1,0,0:0:0:0:
256,216,54730,1,0,0:0:0:0:
323,284,54902,1,4,0:0:0:0:
64,96,55587,6,0,B|144:116|144:116|156:88|200:64,1,160,0|8,0:0|0:0,0:0:0:0:
228,140,56102,2,0,P|272:152|304:144,1,80
376,108,56444,1,0,0:0:0:0:
432,168,56616,1,8,0:0:0:0:
448,248,56787,1,0,0:0:0:0:
392,304,56959,2,0,P|336:328|248:288,1,160,0|8,0:0|0:0,0:0:0:0:
196,232,57473,1,0,0:0:0:0:
144,292,57644,6,0,P|36:208|152:132,2,320,4|2|2,0:0|0:0|0:0,0:0:0:0:
416,44,59702,1,2,0:0:0:0:
96,44,60044,1,2,0:0:0:0:
256,156,60387,1,2,0:0:0:0:
64,308,61073,6,0,B|104:344|135:313|168:284|224:312,1,160,4|8,0:0|0:0,0:0:0:0:
256,240,61587,1,0,0:0:0:0:
296,308,61759,2,0,B|343:283|376:313|407:343|447:307,1,160,0|8,0:0|0:0,0:0:0:0:
408,240,62273,1,0,0:0:0:0:
336,208,62444,2,0,B|356:160|400:160|400:160|408:120|456:120,1,160,0|8,0:0|0:0,0:0:0:0:
312,48,63130,6,0,B|288:84|256:104|256:104|224:88|196:48,1,160,4|8,0:0|0:0,0:0:0:0:
57,120,63816,2,0,B|104:120|112:160|112:160|156:160|176:208,1,160,0|8,0:0|0:0,0:0:0:0:
100,240,64330,1,0,0:0:0:0:
164,284,64502,2,0,P|240:256|252:184,1,160,2|8,0:0|0:0,0:0:0:0:
316,332,65187,2,0,B|356:356|384:312|384:312|408:352|452:332,1,160,2|2,0:0|0:0,0:0:0:0:
336,220,65873,6,0,P|360:152|440:148,1,160,4|8,0:0|0:0,0:0:0:0:
492,208,66387,1,0,0:0:0:0:
416,228,66559,2,0,L|324:92,1,160,0|8,0:0|0:0,0:0:0:0:
185,95,67244,2,0,L|96:228,1,160,2|8,0:0|0:0,0:0:0:0:
256,240,67930,2,0,L|256:160,2,80,0|0|8,0:0|0:0|0:0,0:0:0:0:
200,296,68444,1,0,0:0:0:0:
132,340,68616,6,0,P|60:340|48:260,1,160,2|8,0:0|0:0,0:0:0:0:
76,192,69130,1,0,0:0:0:0:
44,118,69302,2,0,P|60:44|132:44,1,160,0|8,0:0|0:0,0:0:0:0:
156,120,69816,1,0,0:0:0:0:
192,192,69987,2,0,B|224:236|256:192|256:192|292:236|320:192,1,160,2|8,0:0|0:0,0:0:0:0:
356,124,70502,1,0,0:0:0:0:
380,44,70673,2,0,P|452:44|467:118,1,160,0|8,0:0|0:0,0:0:0:0:
388,260,71359,6,0,B|360:324|296:304|296:304|256:264|216:304|216:304|144:324|124:260,1,320,4|2,0:0|0:0,0:0:0:0:
120,104,72387,2,0,B|160:76|204:104|204:144|204:144|196:188,1,160,8|2,0:0|0:0,0:0:0:0:
392,104,73073,2,0,B|352:76|308:104|308:144|308:144|316:188,1,160,8|0,0:0|0:0,0:0:0:0:
256,364,73759,1,8,0:0:0:0:
256,192,74102,12,4,76844,1:0:0:0:
168,212,87816,6,0,B|208:192|216:152|216:152|216:72,1,160,2|0,0:0|0:0,0:0:0:0:
296,72,88330,2,0,B|296:152|296:152|304:192|344:212,1,160,2|0,0:0|0:0,0:0:0:0:
376,136,88845,2,0,L|440:84,1,80,2|0,0:0|0:0,0:0:0:0:
484,152,89187,2,0,L|424:204,1,80,0|2,0:0|0:0,0:0:0:0:
368,356,89702,6,0,P|328:300|244:312,1,160,2|0,0:0|0:0,0:0:0:0:
176,352,90216,2,0,P|132:352|100:336,1,80,2|2,0:0|0:0,0:0:0:0:
80,260,90559,2,0,P|124:260|156:276,1,80,0|2,0:0|0:0,0:0:0:0:
188,116,91073,2,0,B|228:84|256:128|256:128|280:84|320:112,1,160,2|2,0:0|0:0,0:0:0:0:
308,192,91587,2,0,P|316:232|344:264,1,80,0|2,0:0|0:0,0:0:0:0:
376,332,91930,1,0,0:0:0:0:
440,104,92445,6,0,P|372:64|320:112,1,160,2|2,0:0|0:0,0:0:0:0:
248,144,92959,2,0,P|212:160|176:144,1,80,2|0,0:0|0:0,0:0:0:0:
212,72,93302,1,2,0:0:0:0:
52,304,93816,6,0,P|120:344|172:296,1,160,2|2,0:0|0:0,0:0:0:0:
248,324,94330,2,0,P|284:340|328:324,1,80,2|0,0:0|0:0,0:0:0:0:
363,255,94673,2,0,P|328:240|292:256,1,80,2|0,0:0|0:0,0:0:0:0:
180,140,95187,6,0,P|240:100|328:100,1,160,2|0,0:0|0:0,0:0:0:0:
404,124,95702,2,0,P|332:88|328:16,1,160,2|0,0:0|0:0,0:0:0:0:
400,48,96216,1,2,0:0:0:0:
240,40,96559,2,0,P|164:72|88:80,1,160,2|2,0:0|0:0,0:0:0:0:
52,152,97073,2,0,P|84:168|107:203,1,80,2|0,0:0|0:0,0:0:0:0:
32,228,97416,1,4,0:0:0:0:
448,336,98787,6,0,B|404:316|404:316|384:336|324:336|304:296,1,160,4|0,0:0|0:0,0:0:0:0:
368,248,99302,2,0,B|396:220|396:220|432:228|468:180|448:132,1,160
368,144,99816,2,0,P|372:100|398:80,1,80
332,32,100159,6,0,P|288:104|300:176,1,160
204,252,100673,2,0,P|216:180|172:108,1,160
112,160,101187,2,0,P|136:188|132:232,1,80
56,256,101530,6,0,B|56:304|104:332|144:320|144:320|152:352,1,160,4|0,0:0|0:0,0:0:0:0:
232,336,102045,2,0,L|392:336,1,160
436,268,102559,1,0,0:0:0:0:
460,192,102730,1,0,0:0:0:0:
380,200,102902,6,0,B|332:232|300:196|272:164|228:196,1,160
256,272,103416,2,0,P|180:264|148:192,1,160
188,124,103930,1,0,0:0:0:0:
231,193,104102,1,0,0:0:0:0:
147,195,104273,6,0,P|108:152|136:56,1,160
234,56,104787,2,0,P|267:104|232:192,1,160
192,272,105302,2,0,P|228:284|272:272,1,80
328,220,105645,5,0,0:0:0:0:
404,240,105816,1,0,0:0:0:0:
444,172,105987,1,0,0:0:0:0:
388,120,106159,2,0,B|328:120|328:120|308:72|244:72,1,160
240,152,106673,2,0,P|200:136|176:104,1,80
108,144,107016,6,0,P|160:208|232:240,1,160,4|0,0:0|0:0,0:0:0:0:
308,248,107530,2,0,P|356:300|312:372,1,160
260,316,108045,2,0,P|220:324|180:316,1,80
104,292,108387,2,0,P|44:228|36:152,1,160
28,80,108902,1,0,0:0:0:0:
184,112,109245,21,0,0:0:0:0:
256,48,109416,1,0,0:0:0:0:
328,112,109587,1,0,0:0:0:0:
256,176,109759,1,4,0:0:0:0:
256,192,117987,12,4,119359,0:0:0:0:
328,340,120730,6,0,B|340:284|340:284|352:236|296:200,1,160,4|8,0:0|0:0,0:0:0:0:
216,200,121245,2,0,B|160:236|172:284|172:284|184:340,1,160,0|0,0:0|0:0,0:0:0:0:
104,340,121759,2,0,L|92:256,1,80,8|8,0:0|0:0,0:0:0:0:
116,184,122102,2,0,P|144:152|156:112,1,80
76,108,122445,5,8,0:0:0:0:
124,44,122616,1,0,0:0:0:0:
204,48,122787,1,0,0:0:0:0:
236,120,122959,2,0,P|284:116|312:96,1,80,0|8,0:0|0:0,0:0:0:0:
384,128,123302,1,8,0:0:0:0:
404,208,123473,6,0,B|412:268|348:308|296:276,1,160,4|8,0:0|0:0,0:0:0:0:
216,276,123987,2,0,B|164:308|100:268|108:208,1,160
188,200,124502,2,0,L|208:116,2,80,8|8|0,0:0|0:0|0:0,0:0:0:0:
328,120,125187,1,8,0:0:0:0:
336,40,125359,5,0,0:0:0:0:
256,56,125530,1,0,0:0:0:0:
180,36,125702,1,0,0:0:0:0:
112,76,125873,2,0,P|80:104|68:140,1,80,8|8,0:0|0:0,0:0:0:0:
60,220,126216,6,0,B|108:240|108:240|136:288|208:272,1,160,4|8,0:0|0:0,0:0:0:0:
268,220,126730,2,0,P|292:272|236:352,1,160
203,274,127245,2,0,P|183:238|191:194,1,80,8|8,0:0|0:0,0:0:0:0:
132,144,127587,6,0,P|152:108|196:92,1,80
256,52,127930,1,8,0:0:0:0:
325,92,128102,2,0,P|360:108|380:144,1,80,0|0,0:0|0:0,0:0:0:0:
360,216,128445,2,0,P|368:256|404:280,1,80,0|8,0:0|0:0,0:0:0:0:
448,216,128787,1,8,0:0:0:0:
480,296,128959,6,0,P|448:356|356:352,1,160,4|8,0:0|0:0,0:0:0:0:
284,360,129473,2,0,P|199:358|167:298,1,160
248,288,129987,1,8,0:0:0:0:
200,224,130159,1,8,0:0:0:0:
124,196,130330,6,0,B|140:144|208:124|256:164,1,160,0|8,0:0|0:0,0:0:0:0:
292,92,130845,2,0,P|260:72|216:68,2,80
368,116,131359,1,8,0:0:0:0:
388,40,131530,1,8,0:0:0:0:
448,92,131702,6,0,P|480:152|404:180,1,160,4|8,0:0|0:0,0:0:0:0:
412,264,132216,2,0,L|404:344,1,80
324,348,132559,2,0,L|336:268,1,80,0|8,0:0|0:0,0:0:0:0:
256,252,132902,1,8,0:0:0:0:
208,188,133073,6,0,B|164:216|132:192|100:160|52:188,1,160,0|8,0:0|0:0,0:0:0:0:
84,260,133587,2,0,B|136:232|121:192|108:156|156:124,1,160
176,48,134102,1,8,0:0:0:0:
256,36,134273,1,8,0:0:0:0:
336,48,134445,6,0,P|416:56|476:108,1,160,4|8,0:0|0:0,0:0:0:0:
404,140,134959,2,0,P|428:216|396:288,1,160
336,236,135473,2,0,P|292:220|256:232,1,80,8|8,0:0|0:0,0:0:0:0:
296,300,135816,1,0,0:0:0:0:
216,292,135987,2,0,P|180:268|168:228,1,80,0|8,0:0|0:0,0:0:0:0:
160,156,136330,5,0,0:0:0:0:
256,96,136502,1,0,0:0:0:0:
352,156,136673,1,0,0:0:0:0:
256,212,136845,1,8,0:0:0:0:
160,156,137016,1,8,0:0:0:0:
172,76,137187,6,0,P|196:36|300:28,1,160,4|8,0:0|0:0,0:0:0:0:
364,76,137702,2,0,B|404:68|404:68|444:80,1,80
440,160,138045,2,0,L|440:244,1,80,0|8,0:0|0:0,0:0:0:0:
440,320,138387,2,0,B|402:331|402:331|362:323,1,80,8|0,0:0|0:0,0:0:0:0:
284,320,138730,5,0,0:0:0:0:
232,260,138902,1,8,0:0:0:0:
280,196,139073,1,0,0:0:0:0:
400,92,139416,2,0,L|320:88,1,80,0|8,0:0|0:0,0:0:0:0:
240,72,139759,2,0,P|200:88|176:120,1,80,8|0,0:0|0:0,0:0:0:0:
136,184,140102,2,0,P|132:216|104:260,2,80,0|8|0,0:0|0:0|0:0,0:0:0:0:
56,324,140787,6,0,B|84:348|84:348|126:351,1,80,0|8,0:0|0:0,0:0:0:0:
208,348,141130,1,8,0:0:0:0:
256,284,141302,1,4,0:0:0:0:
296,32,142159,5,0,0:0:0:0:
192,68,142330,1,0,0:0:0:0:
84,40,142502,1,0,0:0:0:0:
52,112,142673,6,0,P|16:176|36:256,1,160,4|8,0:0|0:0,0:0:0:0:
92,196,143187,2,0,B|132:140|132:140|180:124|224:152,1,160,0|0,0:0|0:0,0:0:0:0:
256,220,143702,1,8,0:0:0:0:
296,152,143873,1,0,0:0:0:0:
332,80,144045,2,0,L|412:60,1,80
472,112,144387,1,8,0:0:0:0:
452,188,144559,6,0,P|468:256|396:272,1,160
320,292,145073,2,0,L|240:272,1,80,8|0,0:0|0:0,0:0:0:0:
200,340,145416,2,0,L|120:312,1,80
156,240,145759,5,8,0:0:0:0:
184,164,145930,2,0,P|256:140|336:164,1,160
376,92,146445,2,0,P|340:72|300:64,1,80,8|0,0:0|0:0,0:0:0:0:
209,64,146787,2,0,P|172:72|136:92,1,80
72,140,147130,1,8,0:0:0:0:
20,200,147302,6,0,B|40:248|76:244|76:244|112:280|76:316,1,160
156,332,147816,2,0,P|168:292|164:248,1,80,8|0,0:0|0:0,0:0:0:0:
200,180,148159,2,0,B|232:164|280:164|300:192|300:192|352:192,1,160,4|8,0:0|0:0,0:0:0:0:
432,200,148673,6,0,B|424:136|376:120|376:120|408:68,1,160
480,104,149187,2,0,P|500:140|508:180,1,80,8|0,0:0|0:0,0:0:0:0:
496,256,149530,1,0,0:0:0:0:
436,308,149702,1,0,0:0:0:0:
368,264,149873,1,8,0:0:0:0:
332,192,150045,6,0,P|292:256|324:328,1,160,0|0,0:0|0:0,0:0:0:0:
228,301,150559,2,0,P|236:340|260:372,1,80,8|0,0:0|0:0,0:0:0:0:
228,220,150902,2,0,P|236:180|264:152,1,80
272,72,151245,1,8,0:0:0:0:
196,100,151416,6,0,P|120:112|60:60,1,160
12,124,151930,2,0,L|40:200,1,80,8|0,0:0|0:0,0:0:0:0:
8,272,152273,2,0,B|56:292|116:264|120:196,1,160,0|8,0:0|0:0,0:0:0:0:
192,160,152787,5,0,0:0:0:0:
195,65,152959,1,0,0:0:0:0:
287,38,153130,1,0,0:0:0:0:
341,118,153302,1,8,0:0:0:0:
282,193,153473,1,8,0:0:0:0:
308,268,153645,6,0,P|368:312|448:292,1,160,4|8,0:0|0:0,0:0:0:0:
396,232,154159,2,0,B|408:168|408:168|464:160|472:108,1,160
392,96,154673,2,0,P|364:68|324:64,1,80,8|0,0:0|0:0,0:0:0:0:
272,124,155016,2,0,P|233:119|205:91,1,80,0|0,0:0|0:0,0:0:0:0:
136,52,155359,1,8,0:0:0:0:
120,136,155530,6,0,P|140:228|188:272,1,160
268,280,156045,1,8,0:0:0:0:
348,296,156216,1,0,0:0:0:0:
388,364,156387,2,0,P|424:316|392:228,1,160,0|8,0:0|0:0,0:0:0:0:
468,188,156902,6,0,P|424:120|448:48,1,160
368,40,157416,2,0,L|298:78,1,80,8|8,0:0|0:0,0:0:0:0:
228,116,157759,1,0,0:0:0:0:
152,96,157930,1,0,0:0:0:0:
132,172,158102,1,8,0:0:0:0:
208,196,158273,6,0,P|268:216|296:308,1,160
220,280,158787,2,0,P|197:307|152:312,1,80,8|8,0:0|0:0,0:0:0:0:
84,276,159130,2,0,P|36:208|40:132,1,160,4|8,0:0|0:0,0:0:0:0:
72,60,159645,6,0,P|148:24|224:32,1,160
268,96,160159,2,0,P|284:136|316:152,1,80,8|8,0:0|0:0,0:0:0:0:
368,92,160502,1,0,0:0:0:0:
448,100,160673,2,0,P|496:156|480:236,1,160
412,276,161187,5,0,0:0:0:0:
356,332,161359,1,0,0:0:0:0:
276,328,161530,2,0,P|248:300|240:256,1,80,8|8,0:0|0:0,0:0:0:0:
256,192,161873,12,0,163245,0:0:0:0:
