osu file format v12

[General]
AudioFilename: Feel The Melody Xin.mp3
AudioLeadIn: 0
PreviewTime: 32768
Countdown: 0
SampleSet: Normal
StackLeniency: 0.7
Mode: 0
LetterboxInBreaks: 0
EpilepsyWarning: 1

[Editor]
DistanceSpacing: 1
BeatDivisor: 2
GridSize: 4

[Metadata]
Title:Feel The Melody
TitleUnicode:Feel The Melody
Artist:DJ S3RL feat. Sara
ArtistUnicode:DJ S3RL feat. Sara
Creator:XinCrin
Version:Easy
Source:
Tags:trance rave Kin [Te][Amo]
BeatmapID:197737
BeatmapSetID:68053

[Difficulty]
HPDrainRate:2
CircleSize:3
OverallDifficulty:2
ApproachRate:3
SliderMultiplier:0.8
SliderTickRate:1

[Events]
//Background and Video events
0,0,"BG.jpg",0,0
//Break Periods
2,77045,86376
2,109959,116547
//Storyboard Layer 0 (Background)
Sprite,Background,Centre,"BG.jpg",320,240 F,0,0,,0
Sprite,Background,Centre,"BG.jpg",320,240 M,0,45,,320,240 S,0,45,,0.6269194 F,0,45,1416,0,0.7179147 F,0,1416,10673,0.7179147,0.5576939 F,0,11016,20616,1 F,0,20616,21645,1,0 S,0,21987,,0.625 F,0,21987,31587,1 F,0,31587,32616,1,0 F,0,32959,54902,1 F,0,54902,55587,1 F,0,55587,75473,1,0.9931719 F,0,75473,76845,0.9931719,0 F,0,87816,93302,0.003619404,1 F,0,93302,97416,1,0.9980022 F,0,97416,98445,0.9980022,0 F,0,98787,109759,1 F,0,109759,110787,1,0 F,0,120730,142673,1 F,0,142673,163245,1 F,0,163245,165302,1,0
Sprite,Background,Centre,"SB\Flash.png",320,240 L,0,30 F,0,120730,121416,1,0 L,0,30 F,0,32959,33645,0.8,0 L,0,8 F,0,98787,99473,1,0 S,0,98787,100159,1
Sprite,Background,Centre,"SB\Light.png",320,240 M,0,32959,,176,242 F,0,32959,,1 R,0,32959,53530,0,-5.368721
Sprite,Background,Centre,"SB\Light.png",320,240 M,0,120730,,176,242 F,0,120730,,1 R,0,120730,141301,0,-5.368721
Sprite,Background,Centre,"SB\girlwhite.png",320,240 F,0,32959,53530,1 F,0,53530,53873,1,0 F,0,109759,115245,1 F,0,115245,116616,1,0
Sprite,Background,Centre,"SB\girlwhite.png",320,240 F,0,120730,141302,1
//Storyboard Layer 1 (Fail)
//Storyboard Layer 2 (Pass)
//Storyboard Layer 3 (Foreground)
Sprite,Foreground,Centre,"SB\color.jpg",320,240 L,0,60 F,0,142673,143016,1,0
Sprite,Foreground,Centre,"SB\color.jpg",320,240 L,0,30 F,0,55587,55930,1,0 L,0,23 F,0,66559,66902,1,0
Sprite,Foreground,Centre,"SB\Storyboard.png",320,240 M,0,111130,,398,341 F,0,111130,111473,0,1 V,0,111130,111473,0.1719431,1.072796,0.8362086,1.20019 F,0,111473,112502,1 F,0,112502,112845,1,0
Sprite,Foreground,Centre,"SB\xin.png",320,240 M,0,111473,,504,381 F,0,111473,111816,0,1 V,0,111473,111816,0.4085309,1.063697,1.054597,1.109194 F,0,111816,112845,1 F,0,112845,113187,1,0.008593329
Sprite,Foreground,Centre,"SB\mapped.png",398,341 F,0,113187,113530,0,1 V,0,113187,113530,0.5268244,1.0091,0.8817059,1.063697 F,0,113530,114902,1 F,0,114902,115245,1,0
Sprite,Foreground,Centre,"SB\xin.png",320,240 M,0,113873,,504,381 F,0,113873,114216,0,1 V,0,113873,114216,0.4085309,1.063697,1.054597,1.109194 F,0,114216,115245,1 F,0,115245,115587,1,0.008593329
Sprite,Foreground,Centre,"SB\1.png",531,366 F,0,12730,13073,0,1 V,0,12730,13073,0.5367786,1.919052,0.8097625,1.145593 F,0,13073,14102,1 F,0,14102,14445,1,0
Sprite,Foreground,Centre,"SB\2.png",572,404 F,0,13759,14102,0,1 V,0,13759,14102,1.309384,1.027298,1,1 F,0,14102,15473,1 F,0,15473,15816,1,0
Sprite,Foreground,Centre,"SB\3.png",531,366 F,0,18216,18559,0,1 V,0,18216,18559,0.9909003,1.500474,0.9818009,1.072796 R,0,18559,,0 F,0,18559,19587,1,0.973761 F,0,19587,19930,0.973761,0
Sprite,Foreground,Centre,"SB\4.png",572,404 F,0,19416,19759,0,1 V,0,19416,19759,1.245687,1.027298,0.9818009,0.9818009 F,0,19759,20959,1,0.9708455 F,0,20959,21302,0.9708455,0
Sprite,Foreground,Centre,"SB\5.png",531,366 F,0,23530,23873,0,1 V,0,23530,23873,1.0091,1.418578,1.0091,1.127393 F,0,23873,25073,1 F,0,25073,25416,1,0
Sprite,Foreground,Centre,"SB\6.png",572,404 F,0,24902,25245,0,1 V,0,24902,25245,1.300285,1.027299,1.090996,1.072796 F,0,25245,26787,1 F,0,26787,27130,1,0
Sprite,Foreground,Centre,"SB\7.png",531,366 F,0,29016,29359,0,1 V,0,29016,29359,0.8726068,1.773459,0.9545029,1.227488 F,0,29359,30902,1,0.9650146 F,0,30902,31245,0.9650146,0
Sprite,Foreground,Centre,"SB\8.png",572,404 F,0,30559,30902,0,1 V,0,30559,30902,1.354881,0.9909003,0.9999993,0.9727014 F,0,30902,31930,1 F,0,31930,32616,1,0
Sprite,Foreground,Centre,"SB\1.png",320,240 F,0,78216,78559,0,1 V,0,78216,78559,0.1,0.8271091,1.082749,1.218389 F,0,78559,79930,1,0.9912537 F,0,79930,80273,0.9912537,0
Sprite,Foreground,Centre,"SB\2.png",320,240 M,0,79587,,507,281 F,0,79587,79930,0,1 V,0,79587,79930,1.163792,0.9909006,1.0091,1.054597 F,0,79930,81645,1,0.9883382 F,0,81645,81987,0.9883382,0
Sprite,Foreground,Centre,"SB\3.png",320,240 F,0,84045,84387,0,1 V,0,84045,84387,1,2.428626,1,1 F,0,84387,85759,1,0.9678363 F,0,85759,86102,0.9678363,0
Sprite,Foreground,Centre,"SB\4.png",320,240 M,0,85073,,507,281 F,0,85073,85416,0,1 V,0,85073,85416,1.163792,0.9909006,1.0091,1.054597 F,0,85416,87131,1,0.9883382 F,0,87131,87473,0.9883382,0
Sprite,Foreground,Centre,"SB\5.png",531,366 F,0,89359,89702,0,1 V,0,89359,89702,1.0091,1.418578,1.0091,1.127393 F,0,89702,90902,1 F,0,90902,91245,1,0
Sprite,Foreground,Centre,"SB\6.png",572,404 F,0,90730,91073,0,1 V,0,90730,91073,1.300285,1.027299,1.090996,1.072796 F,0,91073,92615,1 F,0,92615,92958,1,0
Sprite,Foreground,Centre,"SB\7.png",531,366 F,0,94845,95188,0,1 V,0,94845,95188,0.8726068,1.773459,0.9545029,1.227488 F,0,95188,96731,1,0.9650146 F,0,96731,97074,0.9650146,0
Sprite,Foreground,Centre,"SB\8.png",572,404 F,0,96216,96559,0,1 V,0,96216,96559,1.354881,0.9909003,0.9999993,0.9727014 F,0,96559,97587,1 F,0,97587,98273,1,0
Sprite,Foreground,Centre,"SB\layer.jpg",320,240 F,0,21987,22673,1,0 F,0,32959,33645,1,0 F,0,43930,44616,1,0 F,0,53530,54216,1,0 F,0,54902,55587,1,0 F,0,65873,66559,0.8453081,0 F,0,109759,110445,1,0 F,0,117987,119359,0.007852645,0.8134597 F,0,119359,120045,0.8134597,0 F,0,120730,121416,1,0.01185802 F,0,131702,132387,1,0 F,0,141302,141987,1,0 F,0,142673,143359,1,0 F,0,153645,154330,0.558673,0
//Storyboard Sound Samples
//Background Colour Transformations
3,100,163,162,255

[TimingPoints]
45,342.857142857143,4,1,0,60,1,0
32959,-100,4,1,1,70,0,1
43845,-100,4,1,1,70,0,0
43930,-100,4,1,1,70,0,1
51387,-100,4,1,0,70,0,1
51645,-100,4,1,1,70,0,1
53530,-100,4,1,1,70,0,0
55073,-100,4,2,1,70,0,0
69902,-100,4,2,0,70,0,0
70073,-100,4,2,1,70,0,0
75473,-100,4,2,1,30,0,0
87730,-100,4,2,0,70,0,0
98702,-100,4,1,0,70,0,0
120730,-100,4,1,1,70,0,1
121330,-100,4,1,0,70,0,1
121502,-100,4,1,1,70,0,1
131616,-100,4,1,1,70,0,0
131702,-100,4,1,1,70,0,1
141302,-100,4,1,1,70,0,0
163245,-100,4,2,1,5,0,0

[Colours]
Combo1 : 128,255,255
Combo2 : 255,94,94
Combo3 : 177,100,255
SliderBorder : 180,180,180

[HitObjects]
112,240,21987,6,0,P|72:204|72:140,2,120,4|0|0,0:0|0:0|0:0,0:0:0:0:
144,168,23359,2,0,L|192:52,1,120
308,48,24387,1,0,0:0:0:0:
388,56,24730,6,0,L|336:164,1,120
236,232,25759,1,0,0:0:0:0:
296,288,26102,2,0,B|336:260|336:260|408:300|472:268|480:192,1,240
396,196,27473,5,4,0:0:0:0:
368,120,27816,2,0,B|324:152|324:152|268:144|244:84,1,160
180,136,28845,2,0,P|212:188|260:220,2,120
100,128,30216,2,0,P|84:72|40:28,2,120,0|0|0,0:0|0:0|0:0,0:0:0:0:
120,204,31587,1,4,0:0:0:0:
296,344,32959,6,0,B|344:376|372:352|404:324|448:348,1,160,4|0,0:0|0:0,0:0:0:0:
476,272,33987,2,0,L|428:208,1,80,8|0,0:0|0:0,0:0:0:0:
380,144,34673,1,8,0:0:0:0:
332,80,35016,1,0,0:0:0:0:
256,60,35359,1,8,0:0:0:0:
176,52,35702,6,0,P|144:116|64:144,1,160
184,256,37073,2,0,B|224:300|256:156|288:300|328:256,1,160
408,244,38102,1,8,0:0:0:0:
372,324,38445,6,8,P|336:344|296:344,1,80,4|8,0:0|0:0,0:0:0:0:
216,344,39130,2,8,P|177:343|141:323,1,80,0|8,0:0|0:0,0:0:0:0:
92,260,39816,2,0,P|124:212|56:156,1,160,0|0,0:0|0:0,0:0:0:0:
32,80,40845,1,8,0:0:0:0:
112,76,41187,5,0,0:0:0:0:
256,144,41873,1,0,0:0:0:0:
228,216,42216,1,8,0:0:0:0:
220,296,42559,2,0,B|272:296|296:260|296:260|368:260,1,160
352,340,43587,2,0,L|432:340,1,80,8|4,0:0|0:0,0:0:0:0:
484,188,44616,5,0,0:0:0:0:
416,144,44959,1,8,0:0:0:0:
336,156,45302,2,0,P|260:120|260:48,1,160
120,132,46673,6,0,P|192:168|200:240,1,160
124,212,47702,1,8,0:0:0:0:
52,176,48045,2,0,P|44:100|108:52,1,160
184,44,49073,1,8,0:0:0:0:
256,76,49416,5,4,0:0:0:0:
256,232,50102,1,0,0:0:0:0:
292,304,50445,1,8,0:0:0:0:
344,244,50787,2,0,P|280:148|180:188,1,240,0|8,0:0|0:0,0:0:0:0:
132,124,52159,5,0,0:0:0:0:
280,60,52845,1,0,0:0:0:0:
412,152,53530,1,4,0:0:0:0:
196,292,54902,6,0,P|256:248|316:292,1,160,4|0,0:0|0:0,0:0:0:0:
392,320,55930,2,0,P|432:308|456:276,1,80,8|0,0:0|0:0,0:0:0:0:
384,240,56616,2,0,P|364:204|328:184,1,80,8|0,0:0|0:0,0:0:0:0:
256,160,57302,1,8,0:0:0:0:
180,188,57645,2,0,P|120:236|108:316,2,160,4|0|2,0:0|0:0|0:0,0:0:0:0:
200,28,59702,5,2,0:0:0:0:
256,84,60045,1,2,0:0:0:0:
312,28,60387,1,2,0:0:0:0:
432,136,61073,6,0,P|408:208|328:212,1,160,4|0,0:0|0:0,0:0:0:0:
256,184,62102,1,8,0:0:0:0:
184,148,62445,2,0,P|144:144|104:160,1,80,0|8,0:0|0:0,0:0:0:0:
56,220,63130,2,0,P|28:164|76:84,2,160,4|2|2,0:0|0:0|0:0,0:0:0:0:
216,236,65187,1,0,0:0:0:0:
256,304,65530,1,2,0:0:0:0:
176,312,65873,6,0,B|144:272|144:272|84:276|56:220,1,160,4|0,0:0|0:0,0:0:0:0:
132,192,66902,2,0,P|168:176|184:140,1,80,8|2,0:0|0:0,0:0:0:0:
188,60,67587,1,8,0:0:0:0:
256,20,67930,1,0,0:0:0:0:
324,60,68273,1,8,0:0:0:0:
336,140,68616,6,0,P|352:176|388:192,1,80,2|8,0:0|0:0,0:0:0:0:
420,264,69302,2,0,P|464:208|436:128,2,160,0|2|0,0:0|0:0|0:0,0:0:0:0:
340,280,71016,1,8,0:0:0:0:
260,284,71359,1,2,0:0:0:0:
144,176,72045,6,0,P|180:188|220:176,1,80,2|8,0:0|0:0,0:0:0:0:
288,140,72730,2,0,P|336:76|412:84,1,160,0|0,0:0|0:0,0:0:0:0:
368,152,73759,1,8,0:0:0:0:
256,192,74102,12,4,76844,1:0:0:0:
296,92,87816,6,0,P|340:192|296:308,1,240,2|0,0:0|0:0,0:0:0:0:
216,308,89187,2,0,P|172:192|216:92,1,240,2|0,0:0|0:0,0:0:0:0:
160,36,90559,6,0,B|128:80|128:80|72:56|28:100,1,160,2|0,0:0|0:0,0:0:0:0:
92,152,91587,1,2,0:0:0:0:
84,232,91930,2,0,L|52:348,2,120,0|2|2,0:0|0:0|0:0,0:0:0:0:
160,208,93302,6,0,P|184:256|248:268,2,120,0|2|2,0:0|0:0|0:0,0:0:0:0:
236,188,94673,2,0,P|296:204|324:252,2,120,0|2|0,0:0|0:0|0:0,0:0:0:0:
160,208,96044,6,0,P|80:220|28:168,1,160,2|2,0:0|0:0,0:0:0:0:
40,88,97073,1,0,0:0:0:0:
108,132,97416,1,4,0:0:0:0:
300,236,98787,6,0,B|332:268|376:208|412:240,2,120,4|0|0,0:0|0:0|0:0,0:0:0:0:
220,236,100159,2,0,B|188:268|144:208|108:240,2,120
216,156,101530,6,0,L|188:40,2,120
296,156,102902,2,0,L|324:40,2,120
344,220,104273,2,0,P|404:199|435:141,2,120
264,208,105644,6,0,P|217:163|152:161,2,120
296,280,107016,2,0,B|316:324|368:316|388:356,2,120
216,280,108387,2,0,B|196:324|144:316|124:354,2,120
256,212,109759,1,4,2:0:0:0:
256,192,117987,12,4,119359,0:0:0:0:
144,272,120730,6,4,B|176:320|224:304|224:272|256:260|288:272|288:304|336:320|360:272,1,240,4|8,0:0|0:0,0:0:0:0:
364,196,122102,2,0,P|348:156|312:128,1,80,0|8,0:0|0:0,0:0:0:0:
244,108,122787,1,0,0:0:0:0:
164,124,123130,1,8,0:0:0:0:
112,184,123473,6,0,P|64:224|72:328,2,160,4|0|0,0:0|0:0|0:0,0:0:0:0:
260,120,125530,2,0,B|324:96|324:96|312:44|356:4,1,160,0|4,0:0|0:0,0:0:0:0:
400,72,126559,6,0,P|416:108|456:132,1,80,8|0,0:0|0:0,0:0:0:0:
504,188,127244,1,8,0:0:0:0:
452,248,127587,1,0,0:0:0:0:
324,344,128273,1,0,0:0:0:0:
244,328,128616,1,8,0:0:0:0:
184,276,128959,6,0,P|156:200|188:132,1,160,4|0,0:0|0:0,0:0:0:0:
348,132,130330,2,0,P|380:200|352:276,1,160
412,332,131359,2,0,P|440:300|456:264,1,80,8|4,0:0|0:0,0:0:0:0:
432,108,132387,5,0,0:0:0:0:
372,52,132730,1,8,0:0:0:0:
292,60,133073,2,0,P|224:20|156:52,1,160,0|0,0:0|0:0,0:0:0:0:
220,100,134102,1,8,0:0:0:0:
148,140,134444,6,0,P|216:180|284:148,1,160,4|0,0:0|0:0,0:0:0:0:
304,308,135816,2,0,P|229:278|173:322,1,160
92,336,136844,2,0,P|56:356|18:354,1,80,8|4,0:0|0:0,0:0:0:0:
132,240,137873,5,0,0:0:0:0:
208,216,138216,1,8,0:0:0:0:
256,152,138559,1,4,0:0:0:0:
320,104,138902,2,0,P|340:60|376:40,1,80,8|0,0:0|0:0,0:0:0:0:
400,116,139587,2,0,P|425:132|445:176,1,80,8|0,0:0|0:0,0:0:0:0:
364,188,140273,5,8,0:0:0:0:
324,256,140616,2,0,P|252:288|180:256,1,160,0|4,0:0|0:0,0:0:0:0:
412,76,142673,6,0,P|376:96|336:96,1,80,4|8,0:0|0:0,0:0:0:0:
260,108,143359,2,0,P|192:64|124:96,1,160
188,144,144387,1,8,0:0:0:0:
164,220,144730,6,0,P|184:256|220:276,1,80,0|8,0:0|0:0,0:0:0:0:
296,276,145416,2,0,P|328:256|348:220,1,80,0|8,0:0|0:0,0:0:0:0:
428,236,146102,2,0,B|418:270|404:296|404:296|460:304|472:356,1,160
312,360,147473,6,0,P|232:368|160:332,1,160
140,256,148502,2,0,P|124:216|92:192,1,80,8|0,0:0|0:0,0:0:0:0:
60,264,149187,1,8,0:0:0:0:
12,200,149530,2,0,P|36:132|116:112,1,160
192,140,150559,5,8,0:0:0:0:
196,220,150902,1,0,0:0:0:0:
284,352,151587,5,0,0:0:0:0:
219,297,151930,2,0,P|180:300|144:284,1,80,8|0,0:0|0:0,0:0:0:0:
196,220,152616,2,0,P|168:196|156:152,2,80,8|0|8,0:0|0:0|0:0,0:0:0:0:
244,148,153644,6,0,P|320:148|363:212,1,160,4|0,0:0|0:0,0:0:0:0:
380,292,154673,2,0,P|404:324|444:340,1,80,8|0,0:0|0:0,0:0:0:0:
448,180,155702,5,0,0:0:0:0:
408,112,156044,2,0,P|388:76|352:48,2,80,8|0|8,0:0|0:0|0:0,0:0:0:0:
328,124,157073,2,0,P|252:152|180:124,1,160
184,280,158444,6,0,P|260:252|332:276,1,160
296,348,159473,2,0,P|260:332|224:348,1,80,8|0,0:0|0:0,0:0:0:0:
148,368,160159,1,8,0:0:0:0:
104,300,160502,2,0,P|124:224|200:192,1,160
268,216,161530,1,8,0:0:0:0:
256,192,161873,12,0,163245,0:0:0:0:
