osu file format v12

[General]
AudioFilename: Request - S3RL feat Mixie Moon.mp3
AudioLeadIn: 1000
PreviewTime: 23344
Countdown: 0
SampleSet: Soft
StackLeniency: 0.7
Mode: 0
LetterboxInBreaks: 0
WidescreenStoryboard: 0

[Editor]
DistanceSpacing: 1
BeatDivisor: 2
GridSize: 8

[Metadata]
Title:Request
TitleUnicode:Request
Artist:DJ S3RL feat. Mixie Moon
ArtistUnicode:DJ S3RL feat. Mixie Moon
Creator:veeowo
Version:Easy
Source:
Tags:happy hardcore XinCrin Trance
BeatmapID:240675
BeatmapSetID:81430

[Difficulty]
HPDrainRate:0
CircleSize:2
OverallDifficulty:0
ApproachRate:2
SliderMultiplier:1
SliderTickRate:1

[Events]
//Background and Video events
0,0,"bg.jpg",0,0
//Break Periods
2,34596,43807
2,116539,120607
2,133167,145293
//Storyboard Layer 0 (Background)
//Storyboard Layer 1 (Fail)
//Storyboard Layer 2 (Pass)
//Storyboard Layer 3 (Foreground)
//Storyboard Sound Samples
//Background Colour Transformations
3,100,163,162,255

[TimingPoints]
1482,342.857142857143,4,2,0,5,1,0
1585,-100,4,2,0,60,0,0
67310,-100,4,2,0,60,0,1
87882,-100,4,2,0,60,0,0
100910,-100,4,2,0,60,0,1
109824,-200,4,2,0,10,0,0
111196,-100,4,2,0,60,0,0
131767,-200,4,2,0,5,0,0
133482,-100,4,2,0,60,0,0
140682,-100,4,2,0,5,0,0
157824,-100,4,2,0,60,0,0
169139,-100,4,2,0,60,0,1
190739,-100,4,2,0,60,0,0

[Colours]
Combo1 : 145,9,255
Combo2 : 255,89,81
Combo3 : 0,0,255
Combo4 : 137,255,81
SliderBorder : 0,0,0

[HitObjects]
96,144,1482,2,0,P|144:88|280:112,1,200
152,264,2853,2,0,B|224:288|272:232|272:232|344:312|448:256,1,300
368,184,4224,6,0,L|368:64,2,100
272,144,5253,2,0,L|272:16,2,100
40,336,6967,6,0,B|88:272|168:256|168:256|240:296|320:272,1,300
144,160,8682,2,0,P|280:92|368:200,1,300
408,280,10053,2,0,L|424:336,2,50
312,264,10739,1,0,0:0:0:0:
224,312,11082,6,0,B|96:352|40:256|40:256|40:144,1,300
416,48,13824,6,0,B|312:32|312:32|296:104|224:120,2,200
416,152,15539,2,0,P|400:216|360:256,1,100
280,272,16224,1,0,0:0:0:0:
184,272,16567,5,0,0:0:0:0:
88,240,16910,2,0,P|67:214|51:150,2,100
152,160,17939,2,0,P|256:70|360:160,1,300
408,248,19310,2,0,P|384:304|320:328,1,100
256,320,19996,2,0,P|272:256|256:208,1,100
168,264,20682,6,0,P|23:191|168:120,1,400
432,200,23424,6,0,P|464:120|296:104,1,300
206,84,24796,2,0,P|48:120|80:200,1,300
128,288,26167,2,0,B|208:288|258:354|258:354|304:288|384:288,1,300
448,208,27539,2,0,P|416:144|416:80,1,100
336,48,28224,2,0,L|224:48,1,100
144,64,28910,6,0,P|96:96|80:160,1,100
96,224,29596,2,0,L|176:288,1,100
272,320,30282,2,0,P|384:320|384:144,1,300
448,64,31653,2,0,P|336:64|336:240,1,300
256,192,33024,12,0,34396,0:0:0:0:
480,128,45367,6,0,B|480:48|384:48|384:48|336:128,1,200
160,96,46739,2,0,B|130:47|130:47|34:47|34:127,1,200
128,304,48110,2,0,P|256:176|384:304,2,400
42,355,51196,1,0,0:0:0:0:
26,256,51539,2,0,P|45:195|99:133,1,100
144,96,52224,6,0,P|256:12|368:96,1,300
447,165,53596,2,0,P|467:195|486:256,1,100
470,355,54281,1,0,0:0:0:0:
371,338,54624,2,0,P|313:299|286:237,1,100
256,176,55310,2,0,L|256:48,2,100
256,192,56339,12,0,65939,0:0:0:0:
48,208,67310,6,0,P|112:160|160:160,1,100
192,240,67996,2,0,L|176:368,1,100
272,336,68682,2,0,B|288:224|288:224|352:240|400:192,1,200
320,128,69710,1,0,0:0:0:0:
416,96,70053,2,0,P|352:32|224:176,1,300
208,240,71424,6,0,L|208:352,2,100
112,192,72453,1,0,0:0:0:0:
80,96,72796,2,0,B|144:80|176:32|176:32|224:64|288:48,1,200
336,112,73824,1,0,0:0:0:0:
368,208,74167,2,0,P|352:272|320:320,1,100
272,224,74853,2,0,P|224:288|176:304,1,100
176,208,75539,6,0,B|64:208|64:208|96:144|96:96,1,200
160,48,76567,1,0,0:0:0:0:
256,48,76910,2,0,B|352:48|352:48|336:112|384:160,1,200
400,240,77939,1,0,0:0:0:0:
352,320,78282,6,0,P|256:336|224:320,1,100
176,272,78967,2,0,L|128:176,1,100
128,80,79653,2,0,P|257:26|400:80,1,300
400,176,81024,6,0,L|272:176,1,100
320,272,81710,2,0,B|256:272|256:272|226:291,1,100
128,320,82396,2,0,P|64:240|144:160,1,200
208,144,83424,1,0,0:0:0:0:
304,144,83767,2,0,B|384:192|304:288|416:320,2,200
244,62,85482,2,0,P|164:30|116:46,1,100
96,112,86167,1,0,0:0:0:0:
96,208,86510,6,0,P|256:268|416:208,1,350
74,134,88910,5,0,0:0:0:0:
123,221,89253,2,0,B|161:282|161:282|229:236|289:273,2,200
197,154,90967,2,0,P|254:150|336:173,2,100
98,136,91996,6,0,P|145:57|355:69,1,300
382,138,93367,2,0,P|420:187|465:211,1,100
415,299,94053,2,0,P|336:324|305:349,1,100
256,256,94739,2,0,L|256:128,2,100
192,336,95767,1,0,0:0:0:0:
96,288,96110,6,0,P|96:144|224:48,1,300
302,51,97482,2,0,P|416:144|416:288,1,300
256,192,98853,12,0,100224,0:0:0:0:
72,160,100910,6,0,P|40:96|64:32,1,100
144,88,101596,2,0,B|208:88|208:152|208:152|208:264,1,200
256,336,102624,1,0,0:0:0:0:
304,248,102967,2,0,B|304:152|304:152|304:88|368:88,1,200
456,136,103996,1,0,0:0:0:0:
456,240,104339,6,0,P|440:304|392:344,1,100
320,336,105024,1,0,0:0:0:0:
216,336,105367,1,0,0:0:0:0:
112,336,105710,2,0,B|80:192|80:192|176:192|216:96,1,300
307,118,107082,2,0,B|336:192|432:192|432:192|400:336,1,300
304,328,108453,2,0,B|304:272|304:272|248:232,1,100
192,184,109139,2,0,P|144:120|144:64,1,100
208,32,109824,1,0,0:0:0:0:
432,120,111539,5,0,0:0:0:0:
344,168,111882,2,0,P|280:200|256:248,1,100
208,304,112567,1,0,0:0:0:0:
112,272,112910,2,0,P|56:176|120:128,1,200
200,96,113939,5,0,0:0:0:0:
296,96,114282,2,0,L|432:96,2,100
288,192,115310,2,0,L|424:192,2,100
272,288,116339,1,0,0:0:0:0:
72,136,122167,5,0,0:0:0:0:
176,136,122510,2,0,B|280:136|280:136|296:216|360:240,1,200
424,208,123539,1,0,0:0:0:0:
488,136,123882,2,0,P|464:72|440:56,1,100
344,40,124567,1,0,0:0:0:0:
240,40,124910,6,0,L|112:40,2,100
208,136,125939,1,0,0:0:0:0:
160,224,126282,2,0,B|120:304|120:304|184:360|264:336|312:256,1,300
352,184,127653,6,0,L|416:80,1,100
328,32,128339,1,0,0:0:0:0:
256,96,128682,1,0,0:0:0:0:
184,32,129024,2,0,L|80:32,1,100
72,128,129710,2,0,P|136:176|144:208,1,100
208,272,130396,6,0,L|208:376,1,100
304,336,131082,2,0,L|304:224,1,100
304,136,131767,2,0,P|280:56|200:24,1,175
16,80,146853,6,0,P|112:72|176:152,1,200
144,240,147882,1,0,0:0:0:0:
112,336,148224,2,0,P|176:336|224:304,1,100
305,319,148910,2,0,P|336:336|400:336,1,100
368,240,149594,5,0,0:0:0:0:
440,48,150282,1,0,0:0:0:0:
256,128,150967,1,0,0:0:0:0:
72,48,151653,1,0,0:0:0:0:
144,240,152339,6,0,B|88:264|112:336|112:336|208:352,1,200
256,272,153367,1,0,0:0:0:0:
314,350,153710,2,0,B|400:336|400:336|424:264|368:240,1,200
328,152,154739,1,0,0:0:0:0:
400,80,155082,6,0,P|336:48|224:144,2,200
80,136,157824,6,0,P|72:240|232:208,1,300
286,154,159196,2,0,P|440:144|432:248,1,300
368,320,160567,2,0,L|240:320,1,100
160,320,161253,2,0,P|96:288|64:240,1,100
64,160,161939,2,0,L|64:48,1,100
160,48,162624,2,0,L|160:160,1,100
256,160,163310,6,0,P|304:64|448:224,2,400
256,192,166396,12,0,167424,0:0:0:0:
176,168,168110,5,0,0:0:0:0:
160,272,168453,1,0,0:0:0:0:
232,352,168796,1,0,0:0:0:0:
336,352,169139,6,0,L|448:336,1,100
448,240,169824,1,0,0:0:0:0:
389,163,170167,2,0,B|351:102|351:102|283:148|223:111,2,200
315,230,171881,2,0,P|258:234|176:211,2,100
414,248,172910,6,0,P|367:327|157:315,1,300
130,246,174281,2,0,P|92:197|47:173,1,100
97,85,174967,2,0,P|176:60|207:35,1,100
256,128,175653,2,0,L|256:256,2,100
320,48,176681,1,0,0:0:0:0:
416,96,177024,6,0,P|416:240|288:336,1,300
210,333,178396,2,0,P|96:240|96:96,1,300
192,80,179767,6,0,B|192:192|192:192|272:272,2,200
288,48,181482,2,0,L|288:160,1,100
368,208,182167,1,0,0:0:0:0:
464,240,182510,2,0,P|424:296|376:312,1,100
296,320,183196,2,0,L|176:320,1,100
112,264,183882,5,0,0:0:0:0:
72,176,184224,1,0,0:0:0:0:
96,80,184567,1,0,0:0:0:0:
176,24,184910,1,0,0:0:0:0:
280,24,185253,2,0,B|384:24|384:24|448:80|424:152,2,200
280,128,186967,2,0,L|280:256,1,100
216,312,187653,1,0,0:0:0:0:
120,304,187996,6,0,P|48:200|136:72,1,300
232,72,189367,2,0,L|296:72,8,50
440,224,191424,6,0,P|472:288|448:352,1,100
368,296,192110,2,0,B|304:296|304:232|304:232|304:120,1,200
256,48,193138,1,0,0:0:0:0:
208,136,193481,2,0,B|208:232|208:232|208:296|144:296,1,200
56,248,194510,1,0,0:0:0:0:
56,144,194853,6,0,P|72:80|120:40,1,100
192,48,195538,1,0,0:0:0:0:
296,48,195881,1,0,0:0:0:0:
400,48,196224,2,0,B|432:192|432:192|336:192|296:288,1,300
205,266,197596,2,0,B|176:192|80:192|80:192|112:48,1,300
208,56,198967,6,0,B|208:112|208:112|264:152,1,100
320,200,199653,2,0,P|368:264|368:320,1,100
288,336,200339,2,0,L|168:336,1,100
88,312,201024,2,0,P|48:272|40:200,1,100
80,144,201710,5,0,0:0:0:0:
160,80,202053,1,0,0:0:0:0:
256,56,202396,1,0,0:0:0:0:
352,80,202739,1,0,0:0:0:0:
432,144,203082,2,0,B|400:192|408:288|408:288|328:256|240:312,1,300
168,328,204453,6,0,L|96:256,1,100
128,160,205139,2,0,L|224:256,1,100
288,192,205824,2,0,L|232:136,2,50
328,104,206510,2,0,L|280:56,2,50
392,184,207196,6,0,B|456:296|456:296|360:280|304:352,1,300
208,352,208567,2,0,B|152:280|56:296|56:296|120:184,1,300
192,112,209939,1,0,0:0:0:0:
