osu file format v9

[General]
AudioFilename: Little Kandi Raver.mp3
AudioLeadIn: 0
PreviewTime: 46648
Countdown: 0
SampleSet: Normal
StackLeniency: 0.7
Mode: 0
LetterboxInBreaks: 0
EpilepsyWarning: 1

[Editor]
Bookmarks: 57620
DistanceSpacing: 1.1
BeatDivisor: 4
GridSize: 4

[Metadata]
Title:Little Kandi Raver
Artist:DJ S3RL
Creator:ztrot
Version:LILYPOP RAVE!
Source:
Tags:Trance boy girl CDFA Lilac

[Difficulty]
HPDrainRate:4
CircleSize:4
OverallDifficulty:6
ApproachRate:7
SliderMultiplier:1.6
SliderTickRate:2

[Events]
//Background and Video events
0,0,"BG.jpg"
//Break Periods
2,68781,78652
2,90724,95110
//Storyboard Layer 0 (Background)
//Storyboard Layer 1 (Fail)
//Storyboard Layer 2 (Pass)
//Storyboard Layer 3 (Foreground)
//Storyboard Sound Samples
//Background Colour Transformations
3,100,163,162,255

[TimingPoints]
10,342.857142857143,4,2,1,76,1,0
21791,-200,4,2,1,76,0,0
24534,-100,4,1,1,66,0,0
45191,-200,4,1,1,66,0,0
46638,-100,4,1,1,66,0,1
68581,-100,4,1,1,66,0,0
79222,-100,4,2,1,76,0,0
82477,-100,4,2,1,55,0,0
85219,-100,4,2,1,35,0,0
87277,-100,4,2,1,0,0,0
95934,-100,4,2,1,65,0,0
106820,-100,4,2,1,80,0,0
115134,-200,4,1,1,65,0,0
115305,-100,4,2,1,65,0,0
117952,-100,4,2,1,65,0,1
139895,-100,4,1,1,65,0,0
160648,-100,4,1,1,0,0,0
160991,-100,4,1,1,64,0,0
162005,-100,4,2,1,0,0,0
164762,-100,4,2,1,0,0,0

[Colours]
Combo1 : 125,213,255
Combo2 : 182,108,255
Combo3 : 255,176,255
Combo4 : 113,185,185

[HitObjects]
208,64,2752,1,0
304,64,2924,1,0
360,144,3095,1,2
304,224,3267,1,0
208,224,3438,2,0,B|104:224|88:336,1,160,0|2
184,336,3952,6,0,B|224:384|312:376|336:320,1,160
416,304,4467,1,2
472,224,4638,1,0
440,136,4809,1,0
344,48,4981,5,0
344,48,5152,1,2
344,48,5324,1,0
256,88,5495,2,0,B|216:120|152:104,1,80
256,184,5838,2,0,B|296:216|352:208,1,80,2|0
256,288,6181,1,0
256,288,6352,1,0
256,288,6524,1,2
160,304,6695,6,0,B|192:368|256:384|328:368|360:288,1,240,2|2
400,224,7381,1,0
400,224,7552,1,2
256,192,7895,5,0
256,96,8067,1,0
256,0,8238,2,0,B|168:0,1,80
256,0,8581,2,0,B|344:0,1,80,2|0
352,96,8924,1,0
160,96,9267,1,2
88,160,9438,6,0,B|56:256|144:304,1,160
200,232,9952,1,2
256,152,10124,1,0
312,232,10295,1,2
464,40,10810,5,0
368,32,10981,2,0,B|312:32|272:80,1,80
200,32,11324,2,0,B|144:40|112:80,1,80,2|0
64,136,11667,1,0
48,240,11838,1,0
48,240,12010,1,2
123,299,12181,2,0,B|155:355|243:355|267:283,1,160
304,224,12695,1,2
208,224,12867,1,0
256,304,13038,2,0,B|288:360|376:360|400:288,2,160,2|0|4
256,112,14067,5,0
432,32,14410,2,0,B|488:56|496:96,1,80,2|0
480,320,14924,2,0,B|432:272|384:376|320:296,1,160,2|0
304,216,15438,1,2
216,264,15610,1,0
128,312,15781,1,0
72,232,15952,5,0
136,160,16124,1,2
208,96,16295,1,0
280,32,16467,2,0,B|328:64|368:24,1,80
440,120,16810,2,0,B|400:144|344:112,1,80,2|0
280,168,17152,2,0,B|312:264|416:256,1,160,0|2
472,336,17667,5,0
280,360,18010,1,0
200,304,18181,1,2
104,328,18352,1,0
40,256,18524,1,0
40,256,18695,1,0
48,160,18867,5,2
88,72,19038,1,0
188,56,19210,2,0,B|220:104|300:104|324:56,2,160,0|2|0
256,0,20067,1,0
332,176,20410,6,0,B|256:220|180:176,1,160
176,272,20924,1,2
256,328,21095,1,0
336,272,21267,2,0,B|408:272|448:200|408:128,1,160,0|2
272,40,21952,6,0,B|176:0|48:32|8:152|8:256|88:352|192:360,1,560
256,168,24695,5,0
212,244,24867,1,0
300,244,25038,1,8
376,334,25381,2,0,B|472:326|488:230,1,160,0|8
487,151,25895,6,0,B|495:55|407:23,1,160
328,48,26410,1,8
256,96,26581,1,0
184,48,26752,1,0
112,96,26924,5,0
112,96,27095,1,8
112,96,27267,1,0
48,152,27438,2,0,B|112:224,1,80,0|0
168,160,27781,2,0,B|224:224,1,80,8|0
296,168,28124,2,0,B|352:232,1,80
416,160,28467,5,8
472,232,28638,2,0,B|496:304|416:392|320:336,1,240,0|8
256,272,29324,1,0
256,272,29495,1,0
96,336,29838,5,8
96,336,30010,1,0
48,264,30181,2,0,B|16:168|112:128,1,160,0|8
176,88,30695,1,0
256,48,30867,1,0
256,224,31210,5,8
256,136,31381,2,0,B|440:136,1,160
456,216,31895,1,8
400,280,32067,1,0
336,336,32238,2,0,B|160:336,1,160,0|8
120,272,32752,5,0
80,192,32924,1,0
120,112,33095,1,0
200,152,33267,1,8
256,80,33438,1,0
304,152,33610,2,0,B|384:112|384:112|432:152|400:200,1,160,0|8
392,256,34124,1,2
256,368,34467,5,2
212,291,34638,1,8
300,291,34810,1,2
256,216,34981,1,2
256,216,35152,1,2
256,216,35324,1,10
40,40,35667,5,0
72,120,35838,1,0
144,168,36010,2,0,B|160:120|240:96|288:128,1,160,10|2
360,168,36524,1,0
496,264,36867,6,0,B|520:312|464:392|384:344,1,160
344,296,37381,1,8
256,272,37552,1,0
168,296,37724,1,0
216,368,37895,2,0,B|304:368,2,80,0|8|0
136,376,38409,5,0
56,352,38581,1,0
24,272,38752,1,8
48,192,38924,1,0
128,160,39095,2,0,B|192:144|240:224|192:272,1,160,0|8
288,240,39609,2,0,B|300:150|226:102,2,160,2|0|2
256,320,40467,1,0
407,115,40809,5,8
407,115,40981,1,0
483,156,41152,2,0,B|455:204|402:200,1,80
338,164,41495,2,0,B|304:119|323:41|396:33,1,160,8|2
467,58,42009,1,2
496,245,42352,6,0,B|452:322|349:299,1,160
288,240,42867,1,8
232,176,43038,1,0
184,104,43209,2,0,B|88:104|48:192,1,160,0|8
142,342,43895,6,0,B|185:366|238:334,1,80,2|0
375,343,44238,2,0,B|332:367|279:335,1,80,10|0
256,272,44581,1,2
176,232,44752,1,2
184,144,44924,1,8
256,192,45095,1,0
336,232,45267,2,4,B|408:176|408:64|304:8|216:56,1,320
80,192,46981,5,2
256,192,47324,1,2
432,192,47667,1,2
336,344,48009,2,0,B|256:376|160:336,4,160,2|2|2|2|2
256,192,49724,5,2
120,232,50067,1,0
88,104,50409,1,2
224,64,50752,2,0,B|240:-16|408:-8|288:120|472:120|480:24,2,320,2|2|2
352,184,52467,5,2
464,312,52809,1,0
288,336,53152,1,2
136,264,53495,2,0,B|40:216,1,80,2|0
160,192,53838,2,0,B|104:128,1,80,2|0
200,128,54181,2,0,B|184:48,1,80,2|0
256,24,54524,5,0
344,40,54695,1,0
472,160,55038,1,0
416,224,55209,1,0
336,256,55381,1,0
256,292,55552,6,0,B|256:348,24,40,2|0|2|0|2|0|2|0|2|0|2|0|2|0|2|0|2|0|2|0|2|0|2|0|2
256,112,57952,5,2
411,213,58295,2,0,B|472:199|488:122|436:86,1,160
256,40,58981,5,0
400,144,59324,1,0
344,312,59667,1,2
168,312,60009,1,2
112,144,60352,1,2
256,40,60695,5,0
216,168,61038,2,0,B|304:168,1,80,2|0
296,256,61381,2,0,B|208:256,1,80,2|0
191,326,61724,2,0,B|217:377|304:383|327:310,1,160,2|0
376,157,62409,2,0,B|342:40|165:40|134:160,1,320,2|2
152,240,63267,5,2
216,176,63438,1,0
296,176,63609,1,2
352,240,63781,1,0
296,304,63952,1,0
216,304,64124,1,2
136,144,64467,6,0,B|102:81|160:25|216:49,1,160,2|0
376,144,65152,2,0,B|410:81|352:25|296:49,1,160,2|0
256,120,65667,5,8
392,224,66009,1,0
400,312,66181,1,8
328,360,66352,1,0
256,328,66524,2,0,B|256:80,1,240
256,16,67209,5,2
256,16,67552,1,2
216,188,67895,5,2
296,188,68067,1,2
176,252,68238,1,2
336,252,68409,1,2
256,292,68581,1,6
256,240,79552,5,4
400,136,79895,2,0,B|441:75|384:16|336:32,1,160
256,72,80409,1,0
256,72,80581,1,2
128,24,80924,2,0,B|32:48|16:144,3,160,0|2|0|2
56,304,82295,1,0
192,192,82638,5,2
344,288,82981,1,0
464,160,83324,1,2
336,40,83667,2,0,B|256:0|256:72|168:24,1,160,0|2
216,200,84352,2,0,B|256:216|296:200,3,80,2|0|2|0
424,320,85209,5,2
256,376,85552,1,0
88,320,85895,1,2
88,144,86238,1,0
256,104,86581,1,2
424,144,86924,1,0
296,264,87267,2,0,B|256:280|216:264,2,80,2|0|2
392,40,87952,5,2
136,40,88295,1,0
16,192,88638,1,2
128,368,88981,1,0
384,368,89324,1,2
480,192,89667,1,0
256,192,90010,1,2
256,192,90352,5,0
256,192,90524,1,4
240,32,96010,6,0,B|272:72|336:64,1,80,0|0
288,160,96352,2,0,B|262:129|213:126,1,80,2|0
128,136,96695,2,0,B|56:192|88:288,1,160,0|2
152,336,97210,5,0
360,336,97552,1,0
336,248,97724,1,2
256,216,97895,1,0
176,248,98067,1,0
152,336,98238,1,0
256,360,98410,1,2
256,360,98581,1,0
256,360,98752,6,0,B|256:32,1,320
456,192,99781,5,0
456,192,99952,2,0,B|56:192,1,400
256,192,101152,5,0
256,96,101324,1,0
256,0,101495,2,0,B|344:0,1,80
256,0,101838,2,0,B|168:0,1,80,2|0
160,96,102181,1,0
352,96,102524,1,2
424,160,102695,6,0,B|456:256|368:304,1,160
312,232,103210,1,2
256,152,103381,1,0
200,232,103552,1,2
48,40,104067,5,0
144,32,104238,2,0,B|200:32|240:80,1,80
312,32,104581,2,0,B|368:40|400:80,1,80,2|0
448,136,104924,1,0
464,240,105095,5,0
464,240,105267,1,2
389,299,105438,2,0,B|357:355|269:355|245:283,1,160
208,224,105952,1,2
304,224,106124,1,0
256,304,106295,2,0,B|224:360|136:360|112:288,2,160,2|0|4
256,112,107324,5,0
80,32,107667,2,0,B|24:56|16:96,1,80,2|0
32,320,108181,2,0,B|80:272|128:376|192:296,1,160,2|0
208,216,108695,1,2
296,264,108867,1,0
384,312,109038,1,0
440,232,109210,5,0
376,160,109381,1,2
304,96,109552,1,0
232,32,109724,2,0,B|184:64|144:24,1,80
72,120,110067,2,0,B|112:144|168:112,1,80,2|0
232,168,110410,2,0,B|200:264|96:256,1,160,0|2
40,336,110924,5,0
232,360,111267,1,0
312,304,111438,1,2
408,328,111610,1,0
472,256,111781,1,0
472,256,111952,1,0
464,160,112124,5,2
424,72,112295,1,0
324,56,112467,2,0,B|292:104|212:104|188:56,2,160,0|2|0
256,0,113324,1,0
180,176,113667,6,0,B|256:220|332:176,1,160
336,272,114181,1,2
256,328,114352,1,0
176,272,114524,2,0,B|104:272|64:200|104:128,1,160,0|2
240,40,115210,6,0,B|336:0|464:32|504:152|504:256|424:352|320:360,1,560,4|0
256,192,117952,5,4
100,108,118295,2,0,B|69:190|126:257,1,160,8|0
212,296,118810,1,0
300,296,118981,1,8
385,257,119152,2,0,B|442:190|412:108,1,160,0|0
332,68,119667,2,0,B|256:24|180:68,2,160,8|0|8
256,120,120524,1,0
208,192,120695,6,0,B|166:207|156:249|156:249|121:223|80:238,2,160,4|8|0
304,192,121552,2,0,B|345:207|355:249|355:249|390:223|431:238,2,160,0|0|0
256,120,122410,1,8
152,260,122752,1,0
212,328,122924,1,0
300,328,123095,1,8
360,260,123267,1,8
304,192,123438,6,0,B|388:169|411:84,2,160,4|8|0
208,192,124295,2,0,B|123:169|100:84,2,160,0|0|0
288,228,125152,1,8
220,284,125324,1,0
292,336,125495,1,0
256,144,125838,1,8
364,276,126181,6,0,B|341:360|256:383,2,160,4|8|0
300,216,127038,1,0
212,216,127210,1,8
148,276,127381,2,0,B|170:360|255:383,1,160,0|0
256,296,127895,1,8
332,136,128238,2,0,B|256:92|180:136,1,160,0|8
88,272,128924,5,4
172,300,129095,1,0
256,268,129267,1,8
340,300,129438,1,0
424,272,129610,1,0
384,192,129781,2,0,B|216:192,2,160,0|8|0
424,120,130638,1,8
340,84,130810,1,0
256,116,130981,1,0
172,84,131152,1,0
92,112,131324,1,8
140,284,131667,5,4
220,320,131838,1,0
304,300,132010,1,8
388,272,132181,1,0
464,228,132352,1,0
384,192,132524,2,0,B|224:192,2,160,0|8|0
464,156,133381,1,8
388,112,133552,1,0
304,84,133724,1,0
220,64,133895,1,0
140,100,134067,1,8
192,268,134410,6,0,B|152:290|109:265|84:222|107:183,1,160,4|8
140,100,134924,1,0
188,28,135095,1,0
256,84,135267,2,0,B|256:248,2,160,0|0|0
324,28,136124,1,8
372,100,136295,1,0
404,182,136467,2,0,B|427:222|402:265|359:290|320:268,1,160,0|8
256,144,137152,6,0,B|256:304,1,160,4|8
184,248,137667,1,0
168,160,137838,1,0
256,144,138010,1,0
464,36,138352,2,0,B|400:28|348:40|312:80,1,160,8|0
344,160,138867,1,8
328,248,139038,1,0
256,304,139210,2,0,B|256:344,6,40,0|0|0|0|8|0|8
256,216,139895,5,0
300,140,140067,1,0
212,140,140238,1,8
136,50,140581,2,0,B|40:58|24:154,1,160,0|8
25,233,141095,2,0,B|17:329|105:361,1,160
184,336,141610,1,8
256,288,141781,1,0
328,336,141952,1,0
400,288,142124,5,0
400,288,142295,1,8
400,288,142467,1,0
464,232,142638,2,0,B|400:160,1,80,0|0
344,224,142981,2,0,B|288:160,1,80,8|0
216,216,143324,2,0,B|160:152,1,80
96,224,143667,1,8
40,152,143838,6,0,B|16:80|96:-8|192:48,1,240,0|8
256,112,144524,1,0
256,112,144695,1,0
416,48,145038,5,8
416,48,145210,1,0
464,120,145381,2,0,B|496:216|400:256,1,160,0|8
336,296,145895,1,0
256,336,146067,1,0
256,160,146410,1,8
256,248,146581,6,0,B|72:248,1,160
56,168,147095,1,8
112,104,147267,1,0
176,48,147438,2,0,B|352:48,1,160,0|8
392,112,147952,5,0
432,192,148124,1,0
392,272,148295,1,0
312,232,148467,1,8
256,304,148638,1,0
208,232,148810,2,0,B|128:272|128:272|80:232|112:184,1,160,0|8
120,128,149324,1,2
256,16,149667,5,2
300,93,149838,1,8
212,93,150010,1,2
256,168,150181,1,2
256,168,150352,1,2
256,168,150524,1,10
472,344,150867,5,0
440,264,151038,1,0
368,216,151210,2,0,B|352:264|272:288|224:256,1,160,10|2
152,216,151724,1,0
16,120,152067,6,0,B|-8:72|48:-8|128:40,1,160
168,88,152581,1,8
256,112,152752,1,0
344,88,152924,1,0
296,16,153095,2,0,B|208:16,2,80,0|8|0
376,8,153610,5,0
456,32,153781,1,0
488,112,153952,1,8
464,192,154124,1,0
384,224,154295,2,0,B|320:240|272:160|320:112,1,160,0|8
224,144,154810,2,0,B|212:234|286:282,2,160,2|0|2
256,64,155667,1,0
105,269,156010,5,8
105,269,156181,1,0
29,228,156352,2,0,B|57:180|110:184,1,80
174,220,156695,2,0,B|208:265|189:343|116:351,1,160,8|2
45,326,157210,1,2
16,139,157552,6,0,B|60:62|163:85,1,160
224,144,158067,1,8
280,208,158238,1,0
328,280,158410,2,0,B|424:280|464:192,1,160,0|8
370,42,159095,6,0,B|327:18|274:50,1,80,2|0
137,41,159438,2,0,B|180:17|233:49,1,80,10|0
256,112,159781,1,2
336,152,159952,1,2
328,240,160124,1,8
256,192,160295,1,0
176,152,160467,2,4,B|104:208|104:320|208:376|296:328,1,320
288,332,161667,5,0
288,332,161838,1,4
256,192,162181,12,0,164581
256,192,164924,12,0,167324
