osu file format v9

[General]
AudioFilename: Little Kandi Raver.mp3
AudioLeadIn: 0
PreviewTime: 46648
Countdown: 0
SampleSet: Normal
StackLeniency: 0.4
Mode: 0
LetterboxInBreaks: 0
EpilepsyWarning: 1

[Editor]
Bookmarks: 57620
DistanceSpacing: 0.7
BeatDivisor: 2
GridSize: 32

[Metadata]
Title:Little Kandi Raver
Artist:DJ S3RL
Creator:ztrot
Version:CDFRAVE!
Source:
Tags:Trance boy girl CDFA Lilac

[Difficulty]
HPDrainRate:2
CircleSize:3
OverallDifficulty:2
ApproachRate:3
SliderMultiplier:1
SliderTickRate:1

[Events]
//Background and Video events
0,0,"BG.jpg"
//Break Periods
2,68780,78112
2,87981,94569
//Storyboard Layer 0 (Background)
//Storyboard Layer 1 (Fail)
//Storyboard Layer 2 (Pass)
//Storyboard Layer 3 (Foreground)
//Storyboard Sound Samples
//Background Colour Transformations
3,100,163,162,255

[TimingPoints]
10,342.857142857143,4,2,1,76,1,0
24534,-100,4,1,1,66,0,0
45277,-100,4,2,1,6,0,0
46638,-100,4,1,1,66,0,1
68581,-100,4,1,1,66,0,0
79222,-100,4,2,1,76,0,0
82134,-100,4,2,1,3,0,0
82206,-100,4,2,1,76,0,0
82477,-100,4,2,1,55,0,0
85219,-100,4,2,1,35,0,0
87277,-100,4,2,1,0,0,0
95934,-100,4,2,1,65,0,0
106820,-100,4,2,1,80,0,0
115134,-100,4,1,1,65,0,0
115305,-100,4,2,1,65,0,0
117952,-100,4,2,1,65,0,1
118134,-100,4,1,1,65,0,1
139210,-100,4,2,1,4,0,1
139895,-100,4,1,1,65,0,0

[Colours]
Combo1 : 125,213,255
Combo2 : 182,108,255
Combo3 : 255,176,255
Combo4 : 113,185,185

[HitObjects]
128,192,2752,2,0,B|128:128|256:15|384:128|384:192,2,350
128,262,5495,6,0,B|229:298|329:265,1,200
394,266,6524,2,0,B|453:287|496:273|526:211|472:152,1,200
428,109,7552,1,0
394,267,8238,6,0,B|298:267|234:331|234:331|170:267|73:268,2,350
256,192,10981,12,0,13038
108,192,13724,6,2,B|206:142|256:241|256:241|305:142|403:192,2,350,2|2|2
103,262,16467,6,2,B|103:312|255:363|408:312|408:262,2,350
96,192,19209,6,2,B|69:135|80:83|134:39|216:51,1,200
229,99,20238,1,2
278,148,20581,2,2,B|453:292,1,200
482,324,21610,1,2
256,192,21952,12,0,24010
256,64,24695,5,0
256,134,25038,1,8
256,204,25381,1,0
256,274,25724,1,8
256,344,26067,2,0,B|355:382|461:344,1,200
451,277,27095,1,8
451,206,27438,6,0,B|458:108|357:35,1,200
290,37,28467,1,8
219,37,28810,2,0,B|160:160|192:256|288:288|320:256,1,300,0|8
375,264,30181,5,0
424,214,30524,1,8
473,164,30867,2,0,B|481:109|444:50|378:28|306:44,2,200
384,256,32924,6,0,B|384:320|252:429|128:320|128:256,2,350,0|0|8
384,185,35667,5,4
334,135,36010,1,8
284,184,36352,2,0,B|186:248|94:186,1,200
46,138,37381,1,8
46,67,37724,1,0
116,67,38067,5,8
186,67,38410,2,0,B|271:7|403:250|491:216,2,350,0|0|8
136,116,41152,6,0,B|138:328,1,200
187,365,42181,1,8
236,315,42524,2,0,B|456:316,1,200
485,266,43552,1,8
256,192,43895,12,0,45267
32,192,46638,6,0,B|128:256,3,100,0|8|0|8
185,247,48010,2,0,B|364:346,2,200
185,176,49724,5,8
185,105,50067,1,0
185,34,50410,1,8
254,34,50752,2,0,B|304:77|362:7|453:34,2,200
183,34,52467,6,0,B|129:35,4,50,8|0|0|0|8
232,83,53495,1,0
281,132,53838,2,0,B|330:132,4,50,8|0|0|0|8
256,192,54867,6,0,B|275:252|209:339|254:393,1,200
320,384,55895,1,8
384,352,56238,2,0,B|448:352|559:253|448:160|384:160,1,300,0|8
313,127,57610,6,0,B|212:126,1,100,4|8
213,196,58295,2,0,B|324:197,1,100,0|8
312,267,58981,2,0,B|205:267,1,100,0|8
212,337,59667,2,0,B|311:339,1,100,0|8
382,339,60352,5,0
431,289,60695,1,8
381,239,61038,2,0,B|379:124,1,100,0|8
329,89,61724,1,0
258,89,62067,2,0,B|259:141,4,50,8|0|0|0|8
187,89,63095,6,0,B|89:72|26:136|29:218,2,200
187,159,64810,1,8
256,159,65152,1,0
326,159,65495,1,8
326,88,65838,6,0,B|424:71|487:135|484:217,2,200,0|0|0
256,96,67552,2,0,B|256:224,1,100,8|0
256,266,68238,2,0,B|256:298,4,25,8|0|0|0|4
15,71,79552,6,0,B|105:71|256:350|256:350|406:71|496:71,2,750
256,192,85038,12,0,87781
128,192,96009,6,0,B|201:192|254:298|254:298|298:192|384:192,2,350
128,128,98752,2,0,B|128:64|259:-52|384:64|384:128,2,350
78,177,101495,6,0,B|46:273|110:369|206:401|302:369,2,350
32,128,104238,2,0,B|32:64|160:0|256:256|256:256|352:0|480:64|480:128,1,700
430,176,106981,6,2,B|462:272|398:368|302:400|206:368,2,350
380,126,109724,2,2,B|284:94|172:127,1,200
133,173,110752,1,2
83,222,111095,2,2,B|178:269|285:222,1,200
256,192,112467,12,0,115209
0,224,117952,6,0,B|0:128|256:-183|512:128|512:224,1,700,4|8
512,293,120695,5,0
462,342,121038,1,8
412,292,121381,2,0,B|231:289,2,150,0|0|8
461,242,122752,2,0,B|461:192,2,50,0|0|8
416,288,123438,6,0,B|288:288,1,100,0|8
247,265,124124,2,0,B|169:287|109:258|88:207|86:177|110:129,2,250,0|0|8
256,192,126181,5,0
256,121,126524,1,8
256,50,126867,2,0,B|406:49,2,150,0|0|8
185,50,128238,2,0,B|89:29|-16:52,1,200
2,119,129267,5,8
39,178,129609,2,0,B|79:217|139:217|185:177,2,150,0|0|8
88,128,130981,2,0,B|141:111|187:125,1,100,0|8
256,124,131667,5,0
305,173,132009,1,8
255,222,132352,2,0,B|256:393,2,150,0|0|8
255,151,133724,2,0,B|254:101,2,50,0|0|8
205,200,134409,5,0
254,249,134752,1,8
303,199,135095,2,0,B|357:209|406:198|447:159|447:100,2,200
253,149,136809,1,8
253,149,137152,1,0
256,192,137495,12,0,139209
256,32,139895,6,0,B|256:160,1,100,0|8
185,132,140581,2,0,B|156:231|182:341,1,200
229,379,141609,1,8
278,329,141952,1,0
327,378,142295,1,8
376,328,142638,6,0,B|472:328|492:200|472:72|376:72,2,350,0|0|8
326,278,145381,5,0
276,327,145724,1,8
226,277,146067,2,0,B|126:245|14:279,1,200
28,344,147095,1,8
98,344,147438,2,0,B|124:245|102:138,1,200
103,75,148467,5,8
103,75,148809,1,0
256,64,149495,2,0,B|256:384,1,300,0|8
320,352,150867,6,0,B|352:256|255:101|160:256|192:352,2,350,0|0|8
256,320,153609,6,0,B|256:96,1,200
256,49,154638,1,8
326,49,154981,2,0,B|423:29|505:96|521:179|509:244,1,300,0|8
461,277,156352,5,0
411,326,156695,1,8
361,276,157038,1,0
361,135,157724,2,0,B|361:77|428:46|491:77|491:135,1,200
490,204,158752,1,8
490,274,159095,1,0
256,192,159438,12,4,161838
