osu file format v9

[General]
AudioFilename: Little Kandi Raver.mp3
AudioLeadIn: 0
PreviewTime: 46648
Countdown: 0
SampleSet: Normal
StackLeniency: 0.4
Mode: 0
LetterboxInBreaks: 0
EpilepsyWarning: 1

[Editor]
Bookmarks: 57620
DistanceSpacing: 0.7
BeatDivisor: 2
GridSize: 8

[Metadata]
Title:Little Kandi Raver
Artist:DJ S3RL
Creator:ztrot
Version:BUBBLEGUM RAVE!
Source:
Tags:Trance boy girl CDFA Lilac

[Difficulty]
HPDrainRate:3
CircleSize:3
OverallDifficulty:3
ApproachRate:5
SliderMultiplier:1.3
SliderTickRate:1

[Events]
//Background and Video events
0,0,"BG.jpg"
//Break Periods
2,68781,78352
//Storyboard Layer 0 (Background)
//Storyboard Layer 1 (Fail)
//Storyboard Layer 2 (Pass)
//Storyboard Layer 3 (Foreground)
//Storyboard Sound Samples
//Background Colour Transformations
3,100,163,162,255

[TimingPoints]
10,342.857142857143,4,2,1,76,1,0
24534,-100,4,1,1,66,0,0
46638,-100,4,1,1,66,0,1
68581,-100,4,1,1,66,0,0
79222,-100,4,2,1,76,0,0
82477,-100,4,2,1,55,0,0
85219,-100,4,2,1,35,0,0
87277,-100,4,2,1,0,0,0
95934,-100,4,2,1,65,0,0
106820,-100,4,2,1,80,0,0
115134,-100,4,1,1,65,0,0
115305,-100,4,2,1,65,0,0
117952,-100,4,2,1,65,0,1
118134,-100,4,1,1,65,0,1
139895,-100,4,1,1,65,0,0
160648,-100,4,1,1,0,0,0
160991,-100,4,1,1,64,0,0
162005,-100,4,2,1,0,0,0
164762,-100,4,2,1,0,0,0

[Colours]
Combo1 : 125,213,255
Combo2 : 182,108,255
Combo3 : 255,176,255
Combo4 : 113,185,185

[HitObjects]
256,344,2752,6,0,B|176:288|88:368|32:232,1,260,0|2
24,56,4124,1,0
112,56,4467,1,0
168,128,4810,1,2
256,104,5152,5,0
344,128,5495,1,0
400,56,5838,1,0
488,56,6181,1,2
488,192,6695,2,0,B|488:312|368:312,1,195
368,224,7552,1,2
256,80,8238,6,0,B|224:144|296:200|240:320|256:336,1,260,0|2
120,344,9438,2,0,B|16:296|48:176,1,195
48,96,10295,1,2
160,240,10981,5,0
256,88,11667,1,2
352,240,12352,1,0
256,88,13038,1,2
256,272,13724,6,0,B|368:352,1,130,2|0
424,280,14409,2,0,B|312:200,1,130,2|0
256,136,15095,1,2
192,208,15438,2,0,B|96:304,1,130,0|2
32,240,16124,1,0
32,152,16467,6,0,B|104:32|264:48,1,260
256,184,17667,2,0,B|256:304|376:304,1,195,2|0
376,216,18524,1,2
256,80,19209,5,2
168,80,19552,1,0
80,112,19895,2,0,B|96:176,1,65,2|0
40,248,20409,2,0,B|120:360,1,130
115,353,20924,1,0
208,352,21267,1,0
256,176,21952,5,4
256,264,22295,1,0
336,304,22638,1,0
424,304,22981,1,0
424,304,23152,2,0,B|472:248|368:192|440:120,1,195
440,32,24010,1,0
256,40,24695,6,0,B|128:32,2,130
256,128,25724,1,0
256,176,25895,1,0
256,312,26410,2,0,B|392:320,2,130
168,312,27438,5,0
88,280,27781,1,0
56,192,28124,1,0
88,104,28467,1,0
88,104,28638,2,0,B|184:48|272:104,1,195
336,176,29495,1,0
256,216,29838,5,0
256,304,30181,2,0,B|304:352|392:336,1,130
456,288,30867,2,0,B|496:232|456:160,1,130
424,136,31381,1,0
336,240,31895,1,0
336,240,32238,1,0
336,240,32581,1,0
256,288,32924,6,0,B|184:304|160:368,1,130
256,288,33610,2,0,B|328:304|352:368,1,130
351,367,34124,2,0,B|400:320|472:312,1,130
464,312,34638,1,0
464,224,34981,1,0
464,136,35324,1,0
400,72,35667,5,4
312,72,36010,1,0
344,160,36352,1,0
256,144,36695,1,0
256,144,36867,1,0
256,280,37381,5,0
256,280,37724,1,0
168,280,38067,1,0
168,280,38410,2,0,B|40:280,1,130
40,192,39095,2,0,B|176:192,1,130
170,192,39610,1,0
40,104,40124,1,0
40,192,40467,1,0
40,280,40810,5,0
128,280,41152,2,0,B|192:280|240:336,2,130
128,280,42010,1,0
128,192,42352,2,0,B|128:72|248:48,1,195
328,48,43210,1,0
400,104,43552,1,0
400,192,43895,6,0,B|400:264|480:296,2,130
336,312,45095,1,0
256,200,45610,1,0
256,288,45952,1,0
256,288,46295,1,0
256,376,46638,5,4
176,336,46981,1,2
88,336,47324,1,0
40,256,47667,1,0
88,176,48010,2,0,B|160:176|192:256,2,130,2|0|2
256,256,49381,5,0
344,256,49724,1,2
344,256,49895,1,0
448,168,50410,1,2
448,168,50581,1,0
320,128,51095,5,2
320,128,51267,1,0
344,256,51781,1,2
344,256,51952,1,0
344,256,52124,1,0
256,240,52467,5,2
168,256,52810,1,0
80,240,53152,1,2
80,152,53495,2,0,B|80:24,2,130
160,200,54524,5,0
256,352,55210,1,2
256,352,55381,1,0
368,272,55895,1,0
256,128,56581,5,2
256,128,56752,1,0
256,264,57267,1,0
256,264,57610,1,0
168,264,57952,6,0,B|104:288|72:360,1,130,2|0
16,288,58638,2,0,B|16:216|72:168,1,130,2|0
32,88,59324,2,0,B|96:48|160:80,1,130,2|0
192,160,60010,2,0,B|224:216,2,65
136,232,60695,5,2
168,320,61038,1,0
256,328,61381,1,0
344,320,61724,2,0,B|472:248|440:88,1,260,2|0
184,192,63438,5,2
256,248,63781,1,0
328,192,64124,1,2
256,136,64467,2,0,B|200:80|304:80|256:8,2,130
256,224,65495,5,2
256,272,65667,1,2
256,320,65838,2,0,B|192:336|136:280,1,130
256,320,66524,2,0,B|320:336|376:280,1,130
376,192,67210,5,0
376,192,67381,1,0
256,128,67895,1,0
256,128,68067,1,0
136,192,68581,1,4
256,24,79552,5,0
256,208,80238,1,0
256,296,80581,1,0
168,320,80924,2,0,B|32:256|32:112,2,260
256,160,82981,5,2
256,72,83324,1,0
336,32,83667,2,0,B|472:88|464:256,2,260,0|2|0
256,80,85381,5,0
256,168,85724,1,2
256,256,86067,1,0
256,344,86409,2,0,B|320:296|320:368|384:336,2,130
256,192,87438,12,0,90524
256,192,92924,12,0,95667
256,352,96009,5,0
256,264,96352,1,0
256,176,96695,2,0,B|328:224|304:136|392:192,1,130
376,182,97209,2,0,B|496:160|464:32,1,195,2|0
376,40,98067,1,2
472,192,98752,6,0,B|440:336|272:352,1,260,0|2
256,216,99952,2,0,B|176:168|120:248|40:208,1,195
64,128,100809,1,2
64,40,101152,5,0
152,16,101495,1,0
240,40,101838,1,0
256,128,102181,2,0,B|200:216|256:320,1,195,2|0
384,352,103209,1,0
384,352,103552,1,2
456,192,104238,5,0
400,120,104581,1,0
312,120,104924,1,2
256,192,105267,1,0
200,120,105609,5,0
112,120,105952,1,0
56,192,106295,1,2
56,280,106638,1,0
144,280,106981,5,4
144,280,107152,1,0
232,280,107495,1,0
320,280,107838,1,0
320,192,108181,1,0
408,192,108524,5,0
408,280,108867,1,0
320,280,109209,1,0
320,192,109552,1,0
232,192,109895,5,0
232,280,110238,1,0
144,280,110581,1,0
144,192,110924,1,0
144,104,111267,5,0
232,104,111609,1,0
320,104,111952,1,0
408,104,112295,1,0
408,192,112638,5,0
408,280,112981,1,0
320,280,113324,1,0
320,192,113667,1,0
232,192,114009,5,0
232,280,114352,1,0
144,280,114695,1,0
144,192,115038,1,0
144,192,115209,1,0
256,192,115381,12,0,117952
256,352,118295,5,0
168,320,118638,1,0
96,264,118981,1,0
128,176,119324,1,0
112,88,119667,2,0,B|32:88|32:168,2,130
200,88,120695,5,0
256,264,121381,1,0
312,88,122067,1,0
392,128,122409,1,0
432,208,122752,1,0
392,288,123095,1,0
320,344,123438,6,0,B|272:320|272:320|288:280|256:248|256:248|224:280|240:320|240:320|192:344,2,260,2|2|2
392,288,125152,1,0
432,208,125495,1,0
392,128,125838,1,0
304,128,126181,5,2
256,56,126524,1,0
208,128,126867,2,0,B|184:192,1,65,2|2
256,248,127381,1,0
312,320,127724,2,0,B|384:320,1,65
432,248,128238,1,0
432,160,128581,1,0
360,104,128924,5,0
336,192,129267,1,0
272,128,129609,2,0,B|232:184,1,65
152,216,130124,1,0
64,192,130467,2,0,B|8:224,1,65
48,304,130981,1,0
128,344,131324,1,0
208,296,131667,5,0
304,296,132009,1,0
256,224,132352,2,0,B|256:160,1,65
256,64,132867,1,0
336,112,133209,2,0,B|400:64,1,65
440,144,133724,1,0
440,232,134067,1,0
352,232,134409,5,0
264,232,134752,1,0
176,232,135095,2,0,B|120:200,1,65
192,144,135609,1,0
128,80,135952,2,0,B|72:112,1,65
24,192,136467,1,0
24,280,136809,1,0
80,352,137152,5,0
168,360,137495,1,0
256,360,137838,1,0
256,360,138009,1,0
344,360,138352,1,0
432,360,138695,1,0
432,360,138867,1,0
488,280,139209,1,0
488,192,139552,1,0
400,192,139895,5,4
312,192,140238,1,0
312,192,140581,2,0,B|248:232|280:304,1,130
360,264,141267,1,0
416,336,141609,1,0
328,352,141952,1,0
256,296,142295,5,0
184,352,142638,1,0
152,264,142981,1,0
88,328,143324,1,0
24,208,143838,2,0,B|24:88|144:88,1,195
144,176,144695,1,0
256,320,145381,6,0,B|288:256|216:200|272:80|256:64,1,260
392,40,146581,2,0,B|496:88|464:208,1,195
464,288,147438,1,0
352,144,148124,5,0
256,296,148809,1,0
160,144,149495,1,0
256,296,150181,1,0
256,112,150867,6,0,B|144:32,1,130
88,104,151552,2,0,B|200:184,1,130
256,248,152238,1,0
320,176,152581,2,0,B|416:80,1,130
480,144,153267,1,0
480,232,153609,6,0,B|408:352|248:336,1,260
256,200,154809,2,0,B|256:80|136:80,1,195
136,168,155667,1,0
256,304,156352,5,0
344,304,156695,1,0
432,272,157038,2,0,B|416:208,1,65
472,136,157552,2,0,B|392:24,1,130
397,31,158067,1,0
304,32,158409,1,0
256,208,159095,5,0
256,120,159438,1,0
176,80,159781,1,0
88,80,160124,1,0
88,80,160295,2,0,B|40:136|144:192|72:264,1,195
72,352,161152,1,0
160,352,161495,1,0
160,352,161667,1,0
160,352,161838,1,4
256,192,162181,12,0,164238
256,192,164924,12,0,167324
