osu file format v12

[General]
AudioFilename: Dj S3rl - Bass Slut.mp3
AudioLeadIn: 0
PreviewTime: -1
Countdown: 0
SampleSet: None
StackLeniency: 0.7
Mode: 0
LetterboxInBreaks: 1

[Editor]
Bookmarks: 36597,49626,203569,205626
DistanceSpacing: 0.6
BeatDivisor: 4
GridSize: 16

[Metadata]
Title:Bass Slut
TitleUnicode:Bass Slut
Artist:DJ S3RL
ArtistUnicode:DJ S3RL
Creator:Swatty
Version:Normal
Source:
Tags:
BeatmapID:245396
BeatmapSetID:53954

[Difficulty]
HPDrainRate:4
CircleSize:3
OverallDifficulty:4
ApproachRate:4
SliderMultiplier:1.5
SliderTickRate:1

[Events]
//Background and Video events
0,0,"BG.jpg",0,0
//Break Periods
2,11082,14706
2,16712,19506
2,93540,103163
2,214398,218363
//Storyboard Layer 0 (Background)
//Storyboard Layer 1 (Fail)
//Storyboard Layer 2 (Pass)
//Storyboard Layer 3 (Foreground)
//Storyboard Sound Samples
//Background Colour Transformations
3,100,163,162,255

[TimingPoints]
255,342.857586206896,4,2,1,100,1,0
20826,-133.333333333333,4,2,1,100,0,0
22197,-100,4,2,1,100,0,0
81169,-66.6666666666667,4,1,1,100,0,0
82540,-100,4,2,1,100,0,0
92140,-66.6666666666667,4,1,1,100,0,0
93512,-100,4,1,1,100,0,0
115112,-100,4,2,1,100,0,0
137398,-100,4,1,1,100,0,0
142883,-100,4,2,1,100,0,0
142969,-100,4,1,1,100,0,0
144255,-66.6666666666667,4,1,1,100,0,0
148369,-100,4,1,1,100,0,1
164826,-66.6666666666667,4,1,1,100,0,1
170316,-100,4,2,1,100,0,0
181626,-100,4,1,1,100,0,0
182483,-100,4,2,1,100,0,0
192255,-66.6666666666667,4,1,1,100,0,1
214198,-100,4,2,1,100,0,0
234769,-100,4,1,1,100,0,0
235969,-100,4,2,1,100,0,0
247112,-100,4,2,1,10,0,0
247798,-66.6666666666667,4,2,1,100,0,0
249512,-100,4,2,1,100,0,0
267683,-100,4,1,1,100,0,0
269055,-100,4,2,1,100,0,0
274541,-100,4,1,1,100,0,0
278655,-100,4,2,1,100,0,0

[Colours]
Combo1 : 255,128,0
Combo2 : 5,240,5
Combo3 : 5,5,240
Combo4 : 240,5,5

[HitObjects]
192,192,5055,2,2,B|224:192|240:176|256:152|256:152|272:176|288:192|328:192,1,150,0|0,0:0|0:0,0:0:0:0:
176,112,9855,6,0,L|336:112,1,150
336,272,10540,2,0,L|176:272,1,150
320,192,16026,6,0,B|288:192|272:176|256:152|256:152|240:176|224:192|184:192,1,150
64,288,20826,6,8,B|88:288|88:288|104:264|104:264|120:288|120:288|136:264|136:264|152:288|152:288|168:264|168:264|184:288|184:288|200:264|200:264|216:288|216:288|232:264|232:264|248:288|248:288|288:288,1,337.499989941716
368,288,22197,5,8,0:0:0:0:
368,192,22540,1,8,0:0:0:0:
272,192,22883,1,8,0:0:0:0:
272,288,23226,1,8,0:0:0:0:
176,288,23569,2,0,L|48:192,1,150
128,144,24255,2,0,L|224:16,1,150
304,32,24940,5,8,0:0:0:0:
400,32,25283,1,8,0:0:0:0:
400,128,25626,1,8,0:0:0:0:
304,128,25969,1,8,0:0:0:0:
304,224,26312,2,0,P|256:304|192:304,1,150
208,224,26997,2,0,P|128:176|128:112,1,150
176,48,27683,6,0,B|368:48|368:48|400:48|400:48|432:80|432:80|432:112|432:112|432:272,1,450
352,288,29055,2,0,L|352:128,1,150
272,112,29740,2,0,L|272:272,1,150
176,272,30426,5,8,0:0:0:0:
80,272,30769,1,0,0:0:0:0:
80,176,31112,1,0,0:0:0:0:
80,80,31455,1,8,0:0:0:0:
256,192,31797,12,0,32826,0:0:0:0:
112,64,33169,5,0,0:0:0:0:
208,64,33512,2,0,L|368:64,2,150
208,160,34540,1,8,0:0:0:0:
208,256,34883,1,8,0:0:0:0:
304,256,35226,1,8,0:0:0:0:
400,256,35568,1,8,0:0:0:0:
400,160,35912,6,0,B|424:128|400:88,2,75
256,128,36597,2,0,B|288:104|328:128,2,75
160,128,37283,1,8,0:0:0:0:
64,128,37626,2,0,B|36:164|64:200,1,75,8|0,0:0|0:0,0:0:0:0:
64,240,37969,1,8,0:0:0:0:
160,240,38312,1,8,0:0:0:0:
160,336,38655,6,0,B|352:336|352:336|384:336|384:336|416:304|416:304|416:272|416:272|416:112,1,450
336,96,40026,2,0,L|336:256,1,150
256,272,40712,2,0,L|256:112,1,150
256,32,41397,5,8,0:0:0:0:
320,96,41740,1,8,0:0:0:0:
256,160,42083,1,8,0:0:0:0:
192,96,42426,1,8,0:0:0:0:
256,192,42769,12,8,43797,0:0:0:0:
256,192,43969,6,0,B|256:152,2,37.5,0|0|8,0:0|0:0|0:0,0:0:0:0:
256,192,44312,1,0,0:0:0:0:
328,192,44483,2,0,B|416:192,1,75,8|0,0:0|0:0,0:0:0:0:
256,264,44826,2,0,B|256:344,1,75,8|0,0:0|0:0,0:0:0:0:
184,192,45169,1,8,0:0:0:0:
112,192,45340,5,0,0:0:0:0:
112,120,45512,1,8,0:0:0:0:
184,120,45683,1,0,0:0:0:0:
184,48,45855,1,8,0:0:0:0:
112,48,46026,1,0,0:0:0:0:
40,48,46197,1,8,0:0:0:0:
40,120,46369,1,0,0:0:0:0:
40,192,46540,1,8,0:0:0:0:
40,264,46712,5,0,0:0:0:0:
40,264,46883,2,0,B|72:288|72:288|104:264,1,75,8|0,0:0|0:0,0:0:0:0:
232,264,47226,2,0,B|200:288|200:288|168:264,1,75,8|0,0:0|0:0,0:0:0:0:
40,336,47569,2,0,B|72:360|72:360|104:336,1,75,8|0,0:0|0:0,0:0:0:0:
176,336,47912,1,8,0:0:0:0:
400,296,48083,5,0,0:0:0:0:
460,184,48255,1,8,0:0:0:0:
316,232,48426,1,0,0:0:0:0:
352,108,48597,1,8,0:0:0:0:
196,232,48769,1,0,0:0:0:0:
160,108,48940,1,8,0:0:0:0:
112,296,49112,1,0,0:0:0:0:
52,184,49284,1,8,0:0:0:0:
112,48,49626,6,0,B|148:24|184:48,1,75,8|0,0:0|0:0,0:0:0:0:
272,48,49968,2,0,B|348:8|416:64,1,150,8|8,0:0|0:0,0:0:0:0:
384,172,50483,1,0,0:0:0:0:
344,276,50655,1,8,0:0:0:0:
228,324,50826,6,0,B|140:316,1,75,0|8,0:0|0:0,0:0:0:0:
192,236,51169,2,0,B|88:204,1,75,0|8,0:0|0:0,0:0:0:0:
184,148,51512,2,0,B|136:84,1,75,0|8,0:0|0:0,0:0:0:0:
276,136,51855,2,0,B|260:56,1,75,0|8,0:0|0:0,0:0:0:0:
128,64,52369,5,8,0:0:0:0:
384,64,52712,1,8,0:0:0:0:
384,320,53055,1,8,0:0:0:0:
128,320,53397,1,8,0:0:0:0:
168,280,53740,5,8,0:0:0:0:
256,192,53912,1,0,0:0:0:0:
344,104,54083,1,8,0:0:0:0:
256,192,54255,1,0,0:0:0:0:
344,280,54426,1,8,0:0:0:0:
256,192,54597,1,0,0:0:0:0:
168,104,54769,1,8,0:0:0:0:
32,64,55112,6,0,B|32:152,1,75,8|0,0:0|0:0,0:0:0:0:
112,60,55455,1,8,0:0:0:0:
336,32,55797,1,8,0:0:0:0:
220,224,56140,1,8,0:0:0:0:
108,228,56312,5,0,0:0:0:0:
164,296,56483,1,8,0:0:0:0:
256,296,56655,1,0,0:0:0:0:
312,224,56826,1,8,0:0:0:0:
372,292,56997,1,0,0:0:0:0:
464,292,57169,1,8,0:0:0:0:
372,292,57340,1,0,0:0:0:0:
420,224,57512,1,8,0:0:0:0:
420,136,57683,5,0,0:0:0:0:
420,136,57855,2,0,B|420:96|364:80,1,75,8|0,0:0|0:0,0:0:0:0:
292,52,58197,1,8,0:0:0:0:
180,28,58369,1,0,0:0:0:0:
164,156,58540,1,8,0:0:0:0:
144,28,58712,1,0,0:0:0:0:
204,156,58883,1,8,0:0:0:0:
64,192,59055,5,0,0:0:0:0:
36,276,59226,1,8,0:0:0:0:
124,256,59397,1,0,0:0:0:0:
96,344,59569,1,8,0:0:0:0:
176,300,59740,1,0,0:0:0:0:
256,260,59912,1,8,0:0:0:0:
336,300,60083,1,0,0:0:0:0:
412,348,60254,1,8,0:0:0:0:
484,184,60597,6,0,B|484:104,1,75,8|0,0:0|0:0,0:0:0:0:
484,24,60940,2,0,P|416:60|328:28,1,150,8|8,0:0|0:0,0:0:0:0:
316,152,61455,1,0,0:0:0:0:
288,260,61626,1,8,0:0:0:0:
180,312,61797,5,0,0:0:0:0:
136,192,61969,1,8,0:0:0:0:
88,312,62140,1,0,0:0:0:0:
208,232,62312,1,8,0:0:0:0:
60,232,62483,1,0,0:0:0:0:
180,312,62655,1,8,0:0:0:0:
136,192,62826,1,0,0:0:0:0:
88,312,62997,1,8,0:0:0:0:
256,144,63340,5,8,0:0:0:0:
304,192,63683,1,8,0:0:0:0:
256,240,64026,1,8,0:0:0:0:
208,192,64369,1,8,0:0:0:0:
192,128,64712,5,8,0:0:0:0:
320,128,65055,1,8,0:0:0:0:
320,256,65397,1,8,0:0:0:0:
192,256,65740,1,8,0:0:0:0:
144,192,66083,5,10,0:0:0:0:
256,80,66426,1,8,0:0:0:0:
368,192,66769,1,8,0:0:0:0:
256,304,67112,1,8,0:0:0:0:
128,320,67455,5,10,0:0:0:0:
128,64,67797,1,8,0:0:0:0:
384,64,68140,1,8,0:0:0:0:
384,320,68483,1,8,0:0:0:0:
256,368,68826,5,4,0:0:0:0:
256,368,68997,1,0,0:0:0:0:
80,192,69169,1,4,0:0:0:0:
80,192,69340,1,0,0:0:0:0:
256,16,69512,1,4,0:0:0:0:
256,16,69683,1,0,0:0:0:0:
432,192,69855,1,4,0:0:0:0:
256,192,70197,12,8,71226,0:0:0:0:
32,80,71569,5,8,0:0:0:0:
56,80,71655,1,0,0:0:0:0:
80,80,71740,1,0,0:0:0:0:
144,32,71912,2,0,B|184:96,1,75,8|0,0:0|0:0,0:0:0:0:
240,32,72255,1,8,0:0:0:0:
336,24,72426,2,0,B|376:88,2,75,0|8|0,0:0|0:0|0:0,0:0:0:0:
448,32,72940,5,8,0:0:0:0:
448,104,73112,1,0,0:0:0:0:
448,176,73283,1,8,0:0:0:0:
448,192,73369,1,0,0:0:0:0:
448,208,73455,2,0,B|448:288,1,75,0|8,0:0|0:0,0:0:0:0:
368,176,73797,1,0,0:0:0:0:
368,192,73883,1,0,0:0:0:0:
368,208,73969,2,0,B|368:312,1,75,8|0,0:0|0:0,0:0:0:0:
368,352,74312,5,8,0:0:0:0:
344,352,74397,1,0,0:0:0:0:
320,352,74483,1,0,0:0:0:0:
240,352,74655,2,0,B|200:280,1,75,8|0,0:0|0:0,0:0:0:0:
160,352,74997,1,8,0:0:0:0:
80,352,75169,2,0,B|40:280,2,75,0|8|0,0:0|0:0|0:0,0:0:0:0:
48,216,75683,5,8,0:0:0:0:
104,160,75855,1,0,0:0:0:0:
160,104,76026,1,8,0:0:0:0:
176,88,76112,1,0,0:0:0:0:
192,72,76197,2,0,B|240:16,1,75,0|8,0:0|0:0,0:0:0:0:
232,136,76540,1,0,0:0:0:0:
248,120,76626,1,0,0:0:0:0:
264,104,76711,2,0,B|312:48,1,75,8|0,0:0|0:0,0:0:0:0:
480,304,77055,5,8,0:0:0:0:
456,304,77141,1,0,0:0:0:0:
432,304,77226,1,0,0:0:0:0:
368,352,77398,2,0,B|328:288,1,75,8|0,0:0|0:0,0:0:0:0:
272,352,77741,1,8,0:0:0:0:
176,360,77912,2,0,B|136:296,2,75,0|8|0,0:0|0:0|0:0,0:0:0:0:
64,352,78426,5,8,0:0:0:0:
64,280,78598,1,0,0:0:0:0:
64,208,78769,1,8,0:0:0:0:
64,192,78855,1,0,0:0:0:0:
64,176,78941,2,0,B|64:96,1,75,0|8,0:0|0:0,0:0:0:0:
144,208,79283,1,0,0:0:0:0:
144,192,79369,1,0,0:0:0:0:
144,176,79455,2,0,B|144:72,1,75,8|0,0:0|0:0,0:0:0:0:
144,32,79798,5,8,0:0:0:0:
168,32,79883,1,0,0:0:0:0:
192,32,79969,1,0,0:0:0:0:
224,32,80055,1,0,0:0:0:0:
248,32,80141,2,0,B|288:104,1,75,8|0,0:0|0:0,0:0:0:0:
328,32,80483,1,8,0:0:0:0:
352,32,80568,1,0,0:0:0:0:
376,32,80654,1,0,0:0:0:0:
408,32,80740,1,0,0:0:0:0:
432,32,80826,2,0,B|472:104,1,75,8|0,0:0|0:0,0:0:0:0:
352,184,81169,6,0,L|276:272,1,112.500004291535,2|0,0:0|0:0,0:0:0:0:
220,232,81512,2,0,L|296:144,1,112.500004291535,2|0,0:0|0:0,0:0:0:0:
240,104,81855,2,0,L|164:192,1,112.500004291535,2|0,0:0|0:0,0:0:0:0:
132,60,82197,1,2,0:0:0:0:
132,60,82369,1,0,0:0:0:0:
328,48,82540,5,8,0:0:0:0:
328,48,82626,1,0,0:0:0:0:
328,48,82712,1,0,0:0:0:0:
416,48,82883,2,0,B|416:128,1,75,8|0,0:0|0:0,0:0:0:0:
340,128,83226,1,8,0:0:0:0:
264,128,83397,2,0,B|264:208,2,75,0|8|0,0:0|0:0|0:0,0:0:0:0:
340,200,83912,5,8,0:0:0:0:
340,200,84083,1,0,0:0:0:0:
416,200,84255,1,8,0:0:0:0:
416,200,84340,1,0,0:0:0:0:
416,200,84426,2,0,B|416:280,1,75,0|8,0:0|0:0,0:0:0:0:
492,200,84769,1,0,0:0:0:0:
492,200,84855,1,0,0:0:0:0:
492,200,84940,2,0,B|492:280,1,75,8|0,0:0|0:0,0:0:0:0:
408,288,85283,5,8,0:0:0:0:
384,312,85369,1,0,0:0:0:0:
360,336,85455,1,0,0:0:0:0:
304,288,85626,2,0,B|248:344,1,75,8|0,0:0|0:0,0:0:0:0:
180,340,85969,1,8,0:0:0:0:
108,340,86140,2,0,B|56:288,2,75,0|8|0,0:0|0:0|0:0,0:0:0:0:
56,216,86655,5,8,0:0:0:0:
56,216,86826,1,0,0:0:0:0:
56,144,86997,1,8,0:0:0:0:
88,144,87083,1,0,0:0:0:0:
120,144,87169,2,0,B|200:144,1,75,0|8,0:0|0:0,0:0:0:0:
56,72,87512,1,0,0:0:0:0:
88,72,87598,1,0,0:0:0:0:
120,72,87684,2,0,B|200:72,1,75,8|0,0:0|0:0,0:0:0:0:
264,72,88026,5,8,0:0:0:0:
296,72,88112,1,0,0:0:0:0:
328,72,88197,1,0,0:0:0:0:
336,144,88369,2,0,B|256:144,1,75,8|0,0:0|0:0,0:0:0:0:
264,216,88712,1,8,0:0:0:0:
320,272,88883,2,0,B|376:328,2,75,0|8|0,0:0|0:0|0:0,0:0:0:0:
264,216,89397,5,8,0:0:0:0:
336,216,89569,1,0,0:0:0:0:
408,216,89740,1,8,0:0:0:0:
440,216,89826,1,0,0:0:0:0:
472,216,89912,2,0,B|472:128,1,75,0|8,0:0|0:0,0:0:0:0:
408,136,90255,1,0,0:0:0:0:
408,104,90340,1,0,0:0:0:0:
408,72,90426,2,0,B|320:72,1,75,8|0,0:0|0:0,0:0:0:0:
256,72,90769,5,8,0:0:0:0:
232,96,90855,1,0,0:0:0:0:
208,120,90940,1,0,0:0:0:0:
184,144,91026,1,0,0:0:0:0:
160,168,91112,2,0,B|104:224,1,75,8|0,0:0|0:0,0:0:0:0:
152,72,91455,1,8,0:0:0:0:
128,96,91540,1,0,0:0:0:0:
104,120,91626,1,0,0:0:0:0:
80,144,91712,1,0,0:0:0:0:
56,168,91797,2,0,B|0:224,1,75,8|0,0:0|0:0,0:0:0:0:
160,184,92140,6,0,L|236:272,1,112.500004291535,2|0,0:0|0:0,0:0:0:0:
292,232,92483,2,0,L|216:144,1,112.500004291535,2|0,0:0|0:0,0:0:0:0:
272,104,92826,2,0,L|348:192,1,112.500004291535,2|0,0:0|0:0,0:0:0:0:
380,60,93168,1,2,0:0:0:0:
380,60,93340,1,0,0:0:0:0:
144,56,104483,6,0,B|160:56|160:56|168:40|168:40|176:56|176:56|184:40|184:40|192:56|192:56|200:40|200:40|208:56|208:56|216:40|216:40|224:56|224:56|232:40|232:40|240:56|240:56|248:40|248:40|256:56|256:56|264:40|264:40|272:56|272:56|280:40|280:40|288:56|288:56|296:40|296:40|304:56|304:56|312:40|312:40|320:56|320:56|328:40|328:40|336:56|336:56|344:40|344:40|352:56|352:56|368:56,1,450,2|4,0:0|0:0,0:0:0:0:
476,56,105855,1,2,0:0:0:0:
480,328,106883,1,4,0:0:0:0:
368,328,107226,6,0,B|352:328|352:328|344:344|344:344|336:328|336:328|328:344|328:344|320:328|320:328|312:344|312:344|304:328|304:328|296:344|296:344|288:328|288:328|280:344|280:344|272:328|272:328|264:344|264:344|256:328|256:328|248:344|248:344|240:328|240:328|232:344|232:344|224:328|224:328|216:344|216:344|208:328|208:328|200:344|200:344|192:328|192:328|184:344|184:344|176:328|176:328|168:344|168:344|160:328|160:328|144:328,1,450,2|4,0:0|0:0,0:0:0:0:
36,332,108597,1,2,0:0:0:0:
36,56,109626,1,4,0:0:0:0:
144,56,109969,6,0,B|160:56|160:56|168:40|168:40|176:56|176:56|184:40|184:40|192:56|192:56|200:40|200:40|208:56|208:56|216:40|216:40|224:56|224:56|232:40|232:40|240:56|240:56|248:40|248:40|256:56|256:56|264:40|264:40|272:56|272:56|280:40|280:40|288:56|288:56|296:40|296:40|304:56|304:56|312:40|312:40|320:56|320:56|328:40|328:40|336:56|336:56|344:40|344:40|352:56|352:56|368:56,1,450,2|4,0:0|0:0,0:0:0:0:
476,48,111340,1,2,0:0:0:0:
480,328,112369,1,4,0:0:0:0:
368,328,112712,6,0,B|352:328|352:328|344:344|344:344|336:328|336:328|328:344|328:344|320:328|320:328|312:344|312:344|304:328|304:328|296:344|296:344|288:328|288:328|280:344|280:344|272:328|272:328|264:344|264:344|256:328|256:328|248:344|248:344|240:328|240:328|232:344|232:344|224:328|224:328|216:344|216:344|208:328|208:328|200:344|200:344|192:328|192:328|184:344|184:344|176:328|176:328|168:344|168:344|160:328|160:328|144:328,1,450,2|4,0:0|0:0,0:0:0:0:
36,332,114083,1,2,0:0:0:0:
396,316,115112,5,2,0:0:0:0:
96,164,115626,1,2,0:0:0:0:
412,44,116140,1,2,0:0:0:0:
176,288,116655,1,2,0:0:0:0:
500,196,117169,1,2,0:0:0:0:
208,32,117683,1,2,0:0:0:0:
256,192,118198,12,8,120255,0:0:0:0:
476,296,120598,5,2,0:0:0:0:
140,252,121112,1,2,0:0:0:0:
420,64,121626,1,2,0:0:0:0:
268,364,122140,1,2,0:0:0:0:
48,108,122655,1,2,0:0:0:0:
376,192,123169,1,2,0:0:0:0:
256,192,123683,12,4,126083,0:0:0:0:
112,24,126426,5,8,0:0:0:0:
156,84,126598,1,0,0:0:0:0:
216,40,126769,1,8,0:0:0:0:
268,96,126940,1,0,0:0:0:0:
328,52,127112,1,8,0:0:0:0:
380,108,127283,1,0,0:0:0:0:
380,108,127455,1,8,0:0:0:0:
440,64,127626,1,0,0:0:0:0:
460,136,127798,5,8,0:0:0:0:
460,212,127969,1,0,0:0:0:0:
396,176,128140,1,8,0:0:0:0:
396,252,128312,1,0,0:0:0:0:
332,212,128483,1,8,0:0:0:0:
332,288,128655,1,0,0:0:0:0:
264,252,128826,1,8,0:0:0:0:
264,252,128998,1,0,0:0:0:0:
240,324,129169,5,8,0:0:0:0:
180,276,129341,1,0,0:0:0:0:
116,316,129512,1,8,0:0:0:0:
40,308,129683,1,0,0:0:0:0:
92,252,129855,1,8,0:0:0:0:
28,212,130026,1,0,0:0:0:0:
28,212,130198,1,8,0:0:0:0:
72,152,130369,1,0,0:0:0:0:
148,140,130540,5,8,0:0:0:0:
104,80,130712,1,0,0:0:0:0:
148,140,130883,1,8,0:0:0:0:
172,72,131055,1,0,0:0:0:0:
148,140,131226,1,8,0:0:0:0:
216,112,131398,1,0,0:0:0:0:
284,148,131569,2,0,B|308:164|308:204|268:236,1,75,8|0,0:0|0:0,0:0:0:0:
216,188,131912,5,8,0:0:0:0:
156,232,132083,1,0,0:0:0:0:
212,280,132255,1,8,0:0:0:0:
272,236,132426,1,0,0:0:0:0:
332,188,132598,1,8,0:0:0:0:
388,240,132769,1,0,0:0:0:0:
388,240,132940,1,8,0:0:0:0:
448,192,133112,1,0,0:0:0:0:
472,120,133283,6,0,B|472:40,1,75,8|0,0:0|0:0,0:0:0:0:
428,104,133626,2,0,B|428:16,1,75,8|0,0:0|0:0,0:0:0:0:
380,88,133969,2,0,B|380:8,1,75,8|0,0:0|0:0,0:0:0:0:
308,32,134312,1,8,0:0:0:0:
312,108,134483,1,0,0:0:0:0:
148,32,134655,5,8,0:0:0:0:
92,160,134826,1,0,0:0:0:0:
228,80,134998,1,8,0:0:0:0:
68,80,135169,1,0,0:0:0:0:
204,160,135340,1,8,0:0:0:0:
148,104,135512,1,0,0:0:0:0:
148,104,135683,1,8,0:0:0:0:
148,184,135855,1,0,0:0:0:0:
48,240,136026,5,8,0:0:0:0:
160,240,136197,1,0,0:0:0:0:
68,304,136369,1,8,0:0:0:0:
180,304,136540,1,0,0:0:0:0:
256,220,136712,1,8,0:0:0:0:
256,108,136883,1,0,0:0:0:0:
332,192,137055,1,8,0:0:0:0:
332,80,137226,1,0,0:0:0:0:
96,192,137398,5,8,0:0:0:0:
256,192,137740,1,8,0:0:0:0:
256,32,138083,1,8,0:0:0:0:
256,192,138426,1,8,0:0:0:0:
416,192,138769,1,8,0:0:0:0:
256,192,139112,1,8,0:0:0:0:
256,352,139455,1,8,0:0:0:0:
256,192,139798,1,8,0:0:0:0:
96,32,140140,5,8,0:0:0:0:
256,192,140483,1,8,0:0:0:0:
416,32,140826,1,8,0:0:0:0:
256,192,141169,1,8,0:0:0:0:
416,352,141512,1,8,0:0:0:0:
256,192,141855,1,8,0:0:0:0:
96,352,142198,1,8,0:0:0:0:
256,192,142540,1,8,0:0:0:0:
128,64,142883,5,4,0:0:0:0:
384,64,143226,1,8,0:0:0:0:
384,320,143569,1,8,0:0:0:0:
128,320,143912,1,8,0:0:0:0:
196,136,144255,6,0,L|104:64,3,112.500004291535,8|0|8|0,0:0|0:0|0:0|0:0,0:0:0:0:
84,232,144940,6,0,L|220:232,3,112.500004291535,8|0|8|0,0:0|0:0|0:0|0:0,0:0:0:0:
332,132,145626,6,0,L|292:256,3,112.500004291535,8|0|8|0,0:0|0:0|0:0|0:0,0:0:0:0:
172,128,146312,6,0,L|72:64,2,112.500004291535,8|0|8,0:0|0:0|0:0,0:0:0:0:
256,192,146998,12,4,148026,0:0:0:0:
56,144,148369,5,8,0:0:0:0:
104,64,148540,1,2,0:0:0:0:
136,64,148626,1,0,0:0:0:0:
168,64,148712,1,8,0:0:0:0:
208,144,148883,1,2,0:0:0:0:
240,144,148969,1,0,0:0:0:0:
272,144,149055,1,8,0:0:0:0:
312,64,149226,1,2,0:0:0:0:
440,144,149569,5,2,0:0:0:0:
464,232,149740,1,2,0:0:0:0:
360,200,150083,1,2,0:0:0:0:
384,288,150426,1,2,0:0:0:0:
280,320,150769,1,2,0:0:0:0:
208,352,150940,1,2,0:0:0:0:
136,320,151112,5,8,0:0:0:0:
48,280,151283,1,2,0:0:0:0:
48,248,151369,1,0,0:0:0:0:
48,216,151455,1,8,0:0:0:0:
136,184,151626,1,2,0:0:0:0:
136,152,151712,1,0,0:0:0:0:
136,120,151798,1,8,0:0:0:0:
48,88,151969,1,2,0:0:0:0:
224,48,152312,5,2,0:0:0:0:
288,80,152483,1,2,0:0:0:0:
472,192,152826,1,2,0:0:0:0:
288,304,153169,1,2,0:0:0:0:
288,192,153512,1,2,0:0:0:0:
224,232,153683,1,2,0:0:0:0:
104,336,153855,5,8,0:0:0:0:
32,288,154026,1,2,0:0:0:0:
56,264,154112,1,0,0:0:0:0:
80,240,154198,1,8,0:0:0:0:
176,224,154369,1,2,0:0:0:0:
152,200,154455,1,0,0:0:0:0:
128,176,154541,1,8,0:0:0:0:
64,120,154712,1,2,0:0:0:0:
152,48,155055,5,2,0:0:0:0:
224,48,155226,1,2,0:0:0:0:
344,48,155569,1,2,0:0:0:0:
464,48,155912,1,2,0:0:0:0:
400,160,156255,1,2,0:0:0:0:
400,232,156426,1,2,0:0:0:0:
400,336,156598,5,8,0:0:0:0:
352,288,156769,1,2,0:0:0:0:
328,264,156855,1,0,0:0:0:0:
304,240,156940,1,8,0:0:0:0:
248,192,157112,1,2,0:0:0:0:
224,168,157198,1,0,0:0:0:0:
200,144,157283,1,8,0:0:0:0:
152,96,157455,1,2,0:0:0:0:
40,96,157798,5,2,0:0:0:0:
40,168,157969,2,4,B|24:224|48:264|112:272,1,150
192,272,158655,1,2,0:0:0:0:
320,328,158998,1,2,0:0:0:0:
376,280,159169,1,2,0:0:0:0:
432,232,159340,5,8,0:0:0:0:
432,128,159512,1,2,0:0:0:0:
432,96,159598,1,0,0:0:0:0:
432,64,159683,1,8,0:0:0:0:
344,64,159855,1,2,0:0:0:0:
344,96,159940,1,0,0:0:0:0:
344,128,160026,1,8,0:0:0:0:
248,152,160198,1,2,0:0:0:0:
248,152,160369,1,8,0:0:0:0:
208,80,160540,1,2,0:0:0:0:
64,168,160712,5,8,0:0:0:0:
160,192,160883,1,2,0:0:0:0:
80,248,161055,1,8,0:0:0:0:
160,192,161226,1,2,0:0:0:0:
152,288,161398,1,8,0:0:0:0:
160,192,161569,1,2,0:0:0:0:
232,256,161740,1,8,0:0:0:0:
304,312,161912,1,2,0:0:0:0:
384,312,162083,5,8,0:0:0:0:
472,312,162255,1,2,0:0:0:0:
448,288,162340,1,0,0:0:0:0:
424,264,162426,1,8,0:0:0:0:
488,224,162598,1,2,0:0:0:0:
464,200,162683,1,0,0:0:0:0:
440,176,162769,1,8,0:0:0:0:
384,128,162940,1,2,0:0:0:0:
384,128,163112,1,8,0:0:0:0:
320,168,163283,1,2,0:0:0:0:
248,192,163455,5,8,0:0:0:0:
240,96,163626,1,2,0:0:0:0:
160,160,163798,1,8,0:0:0:0:
240,96,163969,1,2,0:0:0:0:
144,64,164140,1,8,0:0:0:0:
240,96,164312,1,2,0:0:0:0:
336,64,164483,1,8,0:0:0:0:
424,96,164655,1,2,0:0:0:0:
352,200,164826,5,8,0:0:0:0:
440,200,164998,2,0,B|464:256|440:280|400:280,1,112.500004291535,2|8,0:0|0:0,0:0:0:0:
360,360,165340,2,0,B|336:304|360:280|400:280,1,112.500004291535,2|8,0:0|0:0,0:0:0:0:
352,200,165683,1,2,0:0:0:0:
352,200,165855,1,8,0:0:0:0:
280,240,166026,1,2,0:0:0:0:
192,232,166198,5,8,0:0:0:0:
192,232,166369,1,2,0:0:0:0:
192,336,166540,1,8,0:0:0:0:
192,336,166712,1,2,0:0:0:0:
112,192,166883,1,8,0:0:0:0:
112,192,167055,1,2,0:0:0:0:
112,368,167226,1,8,0:0:0:0:
112,368,167398,1,2,0:0:0:0:
112,280,167569,5,8,0:0:0:0:
32,280,167740,2,0,B|32:168,1,112.500004291535,2|8,0:0|0:0,0:0:0:0:
32,56,168083,2,0,B|32:168,1,112.500004291535,2|8,0:0|0:0,0:0:0:0:
112,176,168426,1,2,0:0:0:0:
112,176,168598,1,8,0:0:0:0:
192,176,168769,1,2,0:0:0:0:
256,48,168940,5,8,0:0:0:0:
336,64,169112,1,2,0:0:0:0:
408,96,169283,1,8,0:0:0:0:
464,152,169455,1,2,0:0:0:0:
464,232,169626,1,8,0:0:0:0:
408,288,169798,1,2,0:0:0:0:
336,320,169969,1,8,0:0:0:0:
256,336,170140,1,2,0:0:0:0:
256,240,170312,5,8,0:0:0:0:
200,176,170483,1,0,0:0:0:0:
288,160,170655,1,8,0:0:0:0:
288,160,170826,1,0,0:0:0:0:
376,168,170998,2,0,B|416:176|432:208|424:264|376:256|320:232,1,150,8|8,0:0|0:0,0:0:0:0:
280,240,171512,5,0,0:0:0:0:
192,248,171683,1,8,0:0:0:0:
104,256,171855,1,0,0:0:0:0:
88,224,171940,1,0,0:0:0:0:
72,192,172026,1,8,0:0:0:0:
64,104,172198,2,0,B|48:64,2,37.5,0|0|8,0:0|0:0|0:0,0:0:0:0:
112,32,172540,2,0,B|168:56|120:104,1,75,0|8,0:0|0:0,0:0:0:0:
224,96,172883,5,0,0:0:0:0:
312,80,173055,2,0,B|400:56,2,75,8|0|8,0:0|0:0|0:0,0:0:0:0:
288,168,173569,1,0,0:0:0:0:
464,216,173740,1,8,0:0:0:0:
344,184,173912,1,0,0:0:0:0:
376,192,173998,1,0,0:0:0:0:
408,200,174083,1,8,0:0:0:0:
392,272,174255,5,0,0:0:0:0:
392,272,174340,1,0,0:0:0:0:
392,272,174426,1,8,0:0:0:0:
320,328,174598,1,0,0:0:0:0:
256,264,174769,1,8,0:0:0:0:
320,328,174940,1,0,0:0:0:0:
392,272,175112,1,8,0:0:0:0:
320,328,175283,1,0,0:0:0:0:
256,264,175455,1,8,0:0:0:0:
256,192,175798,5,8,0:0:0:0:
328,160,175969,1,0,0:0:0:0:
400,128,176140,1,8,0:0:0:0:
400,128,176312,1,0,0:0:0:0:
472,192,176483,1,8,0:0:0:0:
360,240,176655,1,0,0:0:0:0:
256,288,176826,1,8,0:0:0:0:
136,272,176998,5,0,0:0:0:0:
64,216,177169,1,8,0:0:0:0:
136,152,177341,1,0,0:0:0:0:
144,136,177427,1,0,0:0:0:0:
152,120,177512,1,8,0:0:0:0:
176,48,177684,1,0,0:0:0:0:
240,48,177855,1,8,0:0:0:0:
232,72,177941,1,0,0:0:0:0:
248,96,178027,1,0,0:0:0:0:
272,104,178112,1,0,0:0:0:0:
296,96,178198,1,8,0:0:0:0:
368,48,178370,5,0,0:0:0:0:
368,48,178455,1,0,0:0:0:0:
368,48,178541,1,8,0:0:0:0:
368,48,178712,1,0,0:0:0:0:
448,80,178884,2,0,B|480:48,2,37.5,8|0|0,0:0|0:0|0:0,0:0:0:0:
320,120,179227,1,8,0:0:0:0:
320,120,179398,1,0,0:0:0:0:
400,152,179570,1,8,0:0:0:0:
256,304,179912,5,8,0:0:0:0:
288,288,179998,1,0,0:0:0:0:
272,256,180083,1,0,0:0:0:0:
248,232,180169,1,0,0:0:0:0:
264,200,180255,1,8,0:0:0:0:
248,120,180426,1,0,0:0:0:0:
224,96,180512,1,0,0:0:0:0:
200,120,180598,1,8,0:0:0:0:
144,200,180769,1,0,0:0:0:0:
120,224,180855,1,0,0:0:0:0:
144,248,180940,1,8,0:0:0:0:
160,336,181112,2,0,B|192:352,2,37.5,0|0|8,0:0|0:0|0:0,0:0:0:0:
72,336,181455,5,0,0:0:0:0:
72,40,181626,1,2,0:0:0:0:
256,40,181969,1,2,0:0:0:0:
440,40,182312,1,2,0:0:0:0:
440,128,182483,5,0,0:0:0:0:
440,216,182655,1,8,0:0:0:0:
440,304,182826,1,0,0:0:0:0:
352,304,182998,1,8,0:0:0:0:
264,304,183169,1,0,0:0:0:0:
264,216,183340,1,8,0:0:0:0:
264,128,183512,1,0,0:0:0:0:
352,128,183683,1,8,0:0:0:0:
352,216,183855,5,0,0:0:0:0:
352,216,184026,2,0,B|336:168|280:168,2,75,8|0|8,0:0|0:0|0:0,0:0:0:0:
352,304,184540,1,0,0:0:0:0:
176,232,184712,1,8,0:0:0:0:
352,304,184883,1,0,0:0:0:0:
176,232,185055,1,8,0:0:0:0:
120,176,185226,5,0,0:0:0:0:
208,160,185398,1,8,0:0:0:0:
256,232,185569,1,0,0:0:0:0:
216,304,185740,1,8,0:0:0:0:
136,296,185912,1,0,0:0:0:0:
96,224,186083,1,8,0:0:0:0:
144,160,186255,1,0,0:0:0:0:
224,176,186426,1,8,0:0:0:0:
392,96,186769,6,0,B|336:160,1,75,8|0,0:0|0:0,0:0:0:0:
464,136,187112,2,0,B|360:256,1,150,8|8,0:0|0:0,0:0:0:0:
296,208,187626,1,0,0:0:0:0:
224,272,187798,1,8,0:0:0:0:
136,272,187969,1,0,0:0:0:0:
76,204,188140,1,8,0:0:0:0:
136,272,188312,1,0,0:0:0:0:
108,164,188483,1,8,0:0:0:0:
136,272,188655,1,0,0:0:0:0:
140,136,188826,1,8,0:0:0:0:
136,272,188998,1,0,0:0:0:0:
176,112,189169,1,8,0:0:0:0:
256,264,189512,5,4,0:0:0:0:
256,120,189855,1,4,0:0:0:0:
328,192,190198,1,4,0:0:0:0:
184,192,190540,1,4,0:0:0:0:
256,192,190883,12,4,191912,0:0:0:0:
376,56,192255,6,0,B|424:56|448:80|448:144,1,112.500004291535,8|2,0:0|0:0,0:0:0:0:
296,128,192598,2,0,B|248:128|224:104|224:40,1,112.500004291535,8|2,0:0|0:0,0:0:0:0:
296,56,192940,1,8,0:0:0:0:
376,128,193112,2,0,B|376:176|352:200|288:200,1,112.500004291535,2|8,0:0|0:0,0:0:0:0:
306,199,193455,1,2,0:0:0:0:
136,272,193626,6,0,B|32:200,1,112.500004291535,10|4,0:0|0:0,0:0:0:0:
376,272,193969,2,0,B|480:200,1,112.500004291535,10|4,0:0|0:0,0:0:0:0:
256,144,194312,2,0,B|256:32,1,112.500004291535,10|4,0:0|0:0,0:0:0:0:
256,216,194655,1,10,0:0:0:0:
256,288,194826,1,2,0:0:0:0:
120,120,194998,6,0,B|72:120|48:96|48:32,1,112.500004291535,8|2,0:0|0:0,0:0:0:0:
192,48,195340,2,0,B|240:48|264:72|264:136,1,112.500004291535,8|2,0:0|0:0,0:0:0:0:
192,120,195683,1,8,0:0:0:0:
192,192,195855,2,0,B|192:240|168:264|104:264,1,112.500004291535,2|8,0:0|0:0,0:0:0:0:
122,263,196198,1,2,0:0:0:0:
376,272,196369,6,0,B|480:200,1,112.500004291535,10|4,0:0|0:0,0:0:0:0:
424,152,196712,2,0,B|320:224,1,112.500004291535,2|4,0:0|0:0,0:0:0:0:
136,272,197055,2,0,B|32:200,1,112.500004291535,2|4,0:0|0:0,0:0:0:0:
88,152,197398,2,0,B|192:224,1,112.500004291535,2|2,0:0|0:0,0:0:0:0:
256,136,197740,5,8,0:0:0:0:
312,192,197912,1,2,0:0:0:0:
256,248,198083,1,8,0:0:0:0:
200,192,198255,1,2,0:0:0:0:
256,136,198426,1,8,0:0:0:0:
312,192,198598,2,0,B|328:272|252:248,1,112.500004291535,2|8,0:0|0:0,0:0:0:0:
200,192,198940,1,2,0:0:0:0:
64,128,199112,5,2,0:0:0:0:
64,128,199283,1,4,0:0:0:0:
176,64,199455,1,2,0:0:0:0:
176,64,199626,1,4,0:0:0:0:
336,64,199798,1,2,0:0:0:0:
336,64,199969,1,4,0:0:0:0:
448,128,200140,1,2,0:0:0:0:
448,128,200311,1,2,0:0:0:0:
256,248,200483,5,8,0:0:0:0:
200,192,200655,1,2,0:0:0:0:
256,136,200826,1,8,0:0:0:0:
312,192,200998,1,2,0:0:0:0:
256,248,201169,1,8,0:0:0:0:
200,192,201340,2,0,B|184:112|260:136,1,112.500004291535,2|8,0:0|0:0,0:0:0:0:
312,192,201683,1,2,0:0:0:0:
340,300,201855,6,0,P|316:200|388:112,2,225.000008583069,4|4|2,0:0|0:0|0:0,0:0:0:0:
176,320,202712,1,4,0:0:0:0:
64,256,202883,1,2,0:0:0:0:
64,256,203054,1,2,0:0:0:0:
256,72,203226,5,8,0:0:0:0:
256,312,203398,1,2,0:0:0:0:
176,112,203569,1,8,0:0:0:0:
336,272,203740,1,2,0:0:0:0:
136,192,203912,1,8,0:0:0:0:
376,192,204083,1,2,0:0:0:0:
376,192,204255,1,8,0:0:0:0:
336,112,204426,1,2,0:0:0:0:
448,48,204598,6,0,B|448:160,1,112.500004291535,2|4,0:0|0:0,0:0:0:0:
320,48,204940,2,0,B|320:160,1,112.500004291535,2|4,0:0|0:0,0:0:0:0:
192,48,205283,2,0,B|192:160,1,112.500004291535,2|4,0:0|0:0,0:0:0:0:
64,48,205626,1,2,0:0:0:0:
64,160,205798,1,2,0:0:0:0:
176,272,205969,5,8,0:0:0:0:
336,112,206140,1,2,0:0:0:0:
256,312,206312,1,8,0:0:0:0:
256,72,206483,1,2,0:0:0:0:
336,272,206655,1,8,0:0:0:0:
176,112,206826,1,2,0:0:0:0:
176,112,206998,1,8,0:0:0:0:
136,192,207169,1,2,0:0:0:0:
64,336,207340,6,0,B|64:224,1,112.500004291535,2|4,0:0|0:0,0:0:0:0:
192,336,207682,2,0,B|192:224,1,112.500004291535,2|4,0:0|0:0,0:0:0:0:
320,336,208025,2,0,B|320:224,1,112.500004291535,2|4,0:0|0:0,0:0:0:0:
448,336,208368,1,2,0:0:0:0:
448,224,208540,1,2,0:0:0:0:
256,312,208712,5,8,0:0:0:0:
256,72,208883,1,2,0:0:0:0:
376,192,209055,1,8,0:0:0:0:
136,192,209226,1,2,0:0:0:0:
176,272,209398,1,8,0:0:0:0:
336,112,209569,1,2,0:0:0:0:
336,272,209740,1,8,0:0:0:0:
176,112,209912,1,2,0:0:0:0:
256,192,210083,12,4,214198,0:0:0:0:
56,96,219683,5,8,0:0:0:0:
124,36,219855,1,0,0:0:0:0:
188,96,220026,2,0,L|120:156,2,75,8|0|8,0:0|0:0|0:0,0:0:0:0:
368,92,220712,1,8,0:0:0:0:
436,152,220883,5,0,0:0:0:0:
436,244,221055,1,8,0:0:0:0:
360,200,221226,1,0,0:0:0:0:
328,168,221312,1,0,0:0:0:0:
296,136,221398,1,8,0:0:0:0:
236,72,221569,2,0,L|208:52,4,18.75,0|0|0|0|8,0:0|0:0|0:0|0:0|0:0,0:0:0:0:
176,136,221912,2,0,L|120:204,1,75,0|8,0:0|0:0,0:0:0:0:
40,176,222255,5,0,0:0:0:0:
68,80,222426,2,0,L|152:80,2,75,8|0|8,0:0|0:0|0:0,0:0:0:0:
228,80,222941,1,0,0:0:0:0:
316,80,223112,1,8,0:0:0:0:
404,80,223283,1,0,0:0:0:0:
448,80,223369,1,0,0:0:0:0:
492,80,223455,1,8,0:0:0:0:
480,168,223626,5,0,0:0:0:0:
404,252,223798,1,8,0:0:0:0:
296,280,223969,1,0,0:0:0:0:
184,264,224141,1,8,0:0:0:0:
84,212,224312,2,0,P|96:176|144:148,3,75,0|8|0|8,0:0|0:0|0:0|0:0,0:0:0:0:
24,36,225169,5,8,0:0:0:0:
136,60,225341,1,0,0:0:0:0:
196,156,225512,1,8,0:0:0:0:
196,156,225683,1,0,0:0:0:0:
324,168,225855,1,8,0:0:0:0:
444,212,226026,1,0,0:0:0:0:
480,336,226198,1,8,0:0:0:0:
392,336,226369,5,0,0:0:0:0:
348,256,226541,1,8,0:0:0:0:
276,308,226712,1,0,0:0:0:0:
240,336,226798,1,0,0:0:0:0:
276,360,226883,1,8,0:0:0:0:
172,288,227055,1,0,0:0:0:0:
135,230,227226,1,8,0:0:0:0:
135,185,227312,1,0,0:0:0:0:
92,171,227398,1,0,0:0:0:0:
66,207,227483,1,0,0:0:0:0:
92,244,227569,1,8,0:0:0:0:
96,336,227741,6,0,L|52:332,2,37.5,0|0|8,0:0|0:0|0:0,0:0:0:0:
184,336,228083,1,0,0:0:0:0:
256,284,228255,2,0,L|272:260,4,18.75,8|0|0|0|0,0:0|0:0|0:0|0:0|0:0,0:0:0:0:
220,200,228598,1,8,0:0:0:0:
220,200,228769,1,0,0:0:0:0:
352,124,228941,1,8,0:0:0:0:
64,44,229283,5,8,0:0:0:0:
64,136,229455,2,0,L|64:204,2,37.5,0|0|8,0:0|0:0|0:0,0:0:0:0:
64,44,229798,1,0,0:0:0:0:
64,44,229969,1,8,0:0:0:0:
160,44,230141,2,0,L|232:44,2,37.5,0|0|8,0:0|0:0|0:0,0:0:0:0:
160,136,230483,5,0,0:0:0:0:
160,136,230655,2,0,L|244:136,1,75,8|0,0:0|0:0,0:0:0:0:
352,44,230998,1,8,0:0:0:0:
444,200,231341,1,8,0:0:0:0:
320,328,231683,1,8,0:0:0:0:
380,264,231855,1,0,0:0:0:0:
444,200,232026,1,8,0:0:0:0:
320,328,232369,1,8,0:0:0:0:
380,264,232541,2,0,L|396:252,4,18.75,0|0|0|0|8,0:0|0:0|0:0|0:0|0:0,0:0:0:0:
256,192,233055,1,8,0:0:0:0:
128,260,233226,1,0,0:0:0:0:
128,224,233312,1,0,0:0:0:0:
128,192,233398,5,8,0:0:0:0:
256,64,233741,1,8,0:0:0:0:
384,192,234083,1,8,0:0:0:0:
256,320,234426,1,8,0:0:0:0:
256,192,234769,12,2,235798,0:0:0:0:
256,48,235969,6,0,B|256:8,2,37.5,0|0|8,0:0|0:0|0:0,0:0:0:0:
256,48,236312,1,0,0:0:0:0:
340,80,236483,2,0,B|428:112,1,75,8|0,0:0|0:0,0:0:0:0:
264,136,236826,2,0,B|312:216,1,75,8|0,0:0|0:0,0:0:0:0:
180,112,237169,1,8,0:0:0:0:
96,336,237341,5,0,0:0:0:0:
44,236,237512,1,8,0:0:0:0:
200,304,237684,1,0,0:0:0:0:
164,200,237855,1,8,0:0:0:0:
312,304,238026,1,0,0:0:0:0:
348,200,238197,1,8,0:0:0:0:
416,336,238369,1,0,0:0:0:0:
468,236,238540,1,8,0:0:0:0:
296,192,238712,5,0,0:0:0:0:
296,192,238798,1,0,0:0:0:0:
296,192,238884,2,0,B|320:160|320:160|288:120,1,75,8|0,0:0|0:0,0:0:0:0:
216,192,239226,2,0,B|192:160|192:160|224:120,1,75,8|0,0:0|0:0,0:0:0:0:
232,112,239484,1,0,0:0:0:0:
256,88,239569,1,8,0:0:0:0:
256,296,239741,1,0,0:0:0:0:
256,88,239912,1,8,0:0:0:0:
384,84,240084,5,0,0:0:0:0:
384,172,240255,1,8,0:0:0:0:
384,260,240426,1,0,0:0:0:0:
384,172,240598,1,8,0:0:0:0:
384,84,240769,1,0,0:0:0:0:
292,88,240941,1,8,0:0:0:0:
204,92,241112,1,0,0:0:0:0:
292,88,241283,1,8,0:0:0:0:
408,40,241626,6,0,B|432:72|432:72|416:112,1,75,8|0,0:0|0:0,0:0:0:0:
420,136,241969,2,0,P|464:200|432:264,1,150,8|8,0:0|0:0,0:0:0:0:
352,236,242484,1,0,0:0:0:0:
280,292,242655,1,8,0:0:0:0:
196,320,242826,6,0,B|116:336,1,75,0|8,0:0|0:0,0:0:0:0:
148,248,243169,2,0,B|76:232,1,75,0|8,0:0|0:0,0:0:0:0:
128,160,243512,2,0,B|56:120,1,75,0|8,0:0|0:0,0:0:0:0:
132,68,243854,2,0,B|100:-4,1,75,0|8,0:0|0:0,0:0:0:0:
384,64,244369,5,4,0:0:0:0:
384,320,244712,1,4,0:0:0:0:
128,320,245055,1,4,0:0:0:0:
128,64,245398,1,4,0:0:0:0:
112,192,245741,5,8,0:0:0:0:
164,248,245912,1,0,0:0:0:0:
220,300,246084,1,8,0:0:0:0:
272,248,246255,1,0,0:0:0:0:
324,192,246426,1,8,0:0:0:0:
380,244,246598,1,0,0:0:0:0:
436,296,246769,1,8,0:0:0:0:
472,152,247112,6,0,P|456:112|416:104,1,75
392,184,247455,1,0,0:0:0:0:
264,60,247798,2,0,P|152:52|104:148,1,225.000008583069,8|8,0:0|0:0,0:0:0:0:
192,124,248312,1,0,0:0:0:0:
136,212,248483,1,8,0:0:0:0:
200,296,248655,1,0,0:0:0:0:
284,360,248826,1,8,0:0:0:0:
360,296,248998,2,0,P|420:276|440:232,2,112.500004291535,0|8|0,0:0|0:0|0:0,0:0:0:0:
439,234,249512,1,8,0:0:0:0:
440,144,249683,5,0,0:0:0:0:
368,196,249855,1,8,0:0:0:0:
300,256,250026,1,0,0:0:0:0:
236,196,250198,1,8,0:0:0:0:
236,108,250369,1,0,0:0:0:0:
304,48,250541,1,8,0:0:0:0:
368,112,250712,1,0,0:0:0:0:
368,196,250883,1,8,0:0:0:0:
404,280,251055,6,0,L|456:348,1,75,0|8,0:0|0:0,0:0:0:0:
336,328,251398,2,0,L|280:256,2,75,0|8|0,0:0|0:0|0:0,0:0:0:0:
224,336,251912,1,8,0:0:0:0:
112,324,252083,1,0,0:0:0:0:
20,256,252255,1,8,0:0:0:0:
80,40,252598,6,0,L|80:144,1,75,8|0,0:0|0:0,0:0:0:0:
80,204,252941,1,8,0:0:0:0:
216,92,253283,1,8,0:0:0:0:
312,152,253455,1,0,0:0:0:0:
260,252,253626,1,8,0:0:0:0:
188,308,253798,2,0,L|124:256,3,75,0|8|0|8,0:0|0:0|0:0|0:0,0:0:0:0:
68,196,254483,2,0,L|148:132,3,75,0|8|0|8,0:0|0:0|0:0|0:0,0:0:0:0:
256,192,255341,12,4,256369,0:0:0:0:
68,40,256712,5,8,0:0:0:0:
148,116,256883,1,0,0:0:0:0:
228,192,257055,1,8,0:0:0:0:
312,116,257226,1,0,0:0:0:0:
228,192,257398,1,8,0:0:0:0:
148,272,257569,1,0,0:0:0:0:
72,356,257741,1,8,0:0:0:0:
72,356,258083,5,8,0:0:0:0:
72,320,258169,1,0,0:0:0:0:
72,284,258255,1,0,0:0:0:0:
108,204,258426,2,0,L|8:204,1,75,8|0,0:0|0:0,0:0:0:0:
68,120,258769,1,8,0:0:0:0:
36,36,258941,2,0,L|112:36,2,75,0|8|0,0:0|0:0|0:0,0:0:0:0:
188,36,259455,5,8,0:0:0:0:
188,36,259626,1,0,0:0:0:0:
256,96,259798,1,8,0:0:0:0:
284,72,259883,1,0,0:0:0:0:
312,48,259969,2,0,L|388:48,1,75,0|8,0:0|0:0,0:0:0:0:
288,160,260312,1,0,0:0:0:0:
316,136,260397,1,0,0:0:0:0:
344,112,260483,2,0,L|420:112,1,75,8|0,0:0|0:0,0:0:0:0:
448,180,260826,5,8,0:0:0:0:
424,208,260912,1,0,0:0:0:0:
400,236,260998,1,0,0:0:0:0:
432,304,261169,2,0,L|380:372,1,75,8|0,0:0|0:0,0:0:0:0:
344,296,261512,1,8,0:0:0:0:
252,288,261683,2,0,L|308:224,2,75,0|8|0,0:0|0:0|0:0,0:0:0:0:
148,292,262198,5,8,0:0:0:0:
148,292,262369,1,0,0:0:0:0:
80,232,262541,1,8,0:0:0:0:
52,208,262626,1,0,0:0:0:0:
24,184,262712,2,0,L|68:108,1,75,0|8,0:0|0:0,0:0:0:0:
168,216,263055,1,0,0:0:0:0:
140,192,263140,1,0,0:0:0:0:
112,168,263226,2,0,L|156:92,1,75,8|0,0:0|0:0,0:0:0:0:
192,24,263569,5,8,0:0:0:0:
228,24,263655,1,0,0:0:0:0:
264,24,263741,1,0,0:0:0:0:
188,88,263912,2,0,L|268:88,1,75,8|0,0:0|0:0,0:0:0:0:
264,164,264255,1,8,0:0:0:0:
264,240,264426,2,0,L|184:240,2,75,0|8|0,0:0|0:0|0:0,0:0:0:0:
192,316,264941,5,8,0:0:0:0:
192,316,265112,1,0,0:0:0:0:
268,316,265283,1,8,0:0:0:0:
304,316,265369,1,0,0:0:0:0:
340,316,265455,2,0,L|420:316,1,75,0|8,0:0|0:0,0:0:0:0:
416,240,265798,1,0,0:0:0:0:
380,240,265883,1,0,0:0:0:0:
344,240,265969,2,0,L|260:240,1,75,8|0,0:0|0:0,0:0:0:0:
120,244,266312,5,8,0:0:0:0:
100,212,266398,1,0,0:0:0:0:
116,180,266483,1,0,0:0:0:0:
152,176,266569,1,0,0:0:0:0:
184,192,266655,2,0,L|248:248,1,75,8|0,0:0|0:0,0:0:0:0:
392,140,266998,1,8,0:0:0:0:
412,172,267084,1,0,0:0:0:0:
396,204,267169,1,0,0:0:0:0:
360,208,267255,1,0,0:0:0:0:
328,192,267341,2,0,L|264:136,1,75,8|0,0:0|0:0,0:0:0:0:
256,192,267683,12,2,268712,0:0:0:0:
256,28,268883,5,2,0:0:0:0:
72,28,269055,5,8,0:0:0:0:
72,64,269141,1,0,0:0:0:0:
72,100,269227,1,0,0:0:0:0:
108,180,269398,2,0,L|8:180,1,75,8|0,0:0|0:0,0:0:0:0:
68,264,269741,1,8,0:0:0:0:
36,348,269913,2,0,L|112:348,2,75,0|8|0,0:0|0:0|0:0,0:0:0:0:
188,348,270427,5,8,0:0:0:0:
188,348,270598,1,0,0:0:0:0:
256,288,270770,1,8,0:0:0:0:
284,312,270855,1,0,0:0:0:0:
312,336,270941,2,0,L|388:336,1,75,0|8,0:0|0:0,0:0:0:0:
288,224,271284,1,0,0:0:0:0:
316,248,271369,1,0,0:0:0:0:
344,272,271455,2,0,L|420:272,1,75,8|0,0:0|0:0,0:0:0:0:
448,204,271798,5,8,0:0:0:0:
424,176,271884,1,0,0:0:0:0:
400,148,271970,1,0,0:0:0:0:
432,80,272141,2,0,L|380:12,1,75,8|0,0:0|0:0,0:0:0:0:
344,88,272484,1,8,0:0:0:0:
252,96,272655,2,0,L|308:160,2,75,0|8|0,0:0|0:0|0:0,0:0:0:0:
148,92,273170,5,8,0:0:0:0:
148,92,273341,1,0,0:0:0:0:
80,152,273513,1,8,0:0:0:0:
52,176,273598,1,0,0:0:0:0:
24,200,273684,2,0,L|68:276,1,75,0|8,0:0|0:0,0:0:0:0:
168,168,274027,1,0,0:0:0:0:
140,192,274112,1,0,0:0:0:0:
112,216,274198,2,0,L|156:292,1,75,8|0,0:0|0:0,0:0:0:0:
240,288,274541,5,10,0:0:0:0:
328,272,274712,1,8,0:0:0:0:
408,232,274883,1,10,0:0:0:0:
460,160,275055,1,8,0:0:0:0:
436,72,275226,1,10,0:0:0:0:
352,40,275398,1,8,0:0:0:0:
264,32,275569,1,10,0:0:0:0:
308,108,275741,1,8,0:0:0:0:
356,184,275912,5,10,0:0:0:0:
416,252,276083,1,8,0:0:0:0:
348,312,276255,1,10,0:0:0:0:
260,296,276426,1,8,0:0:0:0:
196,232,276598,1,10,0:0:0:0:
132,292,276769,1,8,0:0:0:0:
48,256,276941,1,10,0:0:0:0:
36,168,277112,1,8,0:0:0:0:
28,92,277283,5,10,0:0:0:0:
64,76,277369,1,8,0:0:0:0:
100,64,277455,1,8,0:0:0:0:
136,52,277541,1,8,0:0:0:0:
172,40,277626,1,10,0:0:0:0:
204,56,277712,1,8,0:0:0:0:
232,80,277798,1,8,0:0:0:0:
256,108,277883,1,8,0:0:0:0:
284,132,277969,1,10,0:0:0:0:
316,112,278055,1,8,0:0:0:0:
348,92,278141,1,10,0:0:0:0:
384,100,278226,1,8,0:0:0:0:
420,112,278312,1,10,0:0:0:0:
452,132,278398,1,8,0:0:0:0:
480,160,278483,1,10,0:0:0:0:
500,192,278569,1,8,0:0:0:0:
256,192,278655,12,4,280026,0:0:0:0:
