osu file format v12

[General]
AudioFilename: Dj S3rl - Bass Slut.mp3
AudioLeadIn: 0
PreviewTime: -1
Countdown: 0
SampleSet: Soft
StackLeniency: 0.7
Mode: 0
LetterboxInBreaks: 1

[Editor]
Bookmarks: 36597,49626,203569,205626
DistanceSpacing: 1
BeatDivisor: 4
GridSize: 4

[Metadata]
Title:Bass Slut
TitleUnicode:Bass Slut
Artist:DJ S3RL
ArtistUnicode:DJ S3RL
Creator:Swatty
Version:Insane
Source:
Tags:
BeatmapID:164374
BeatmapSetID:53954

[Difficulty]
HPDrainRate:7
CircleSize:4
OverallDifficulty:8
ApproachRate:9
SliderMultiplier:1.5
SliderTickRate:1

[Events]
//Background and Video events
0,0,"BG.jpg",0,0
//Break Periods
2,5740,9169
2,11226,15340
2,16712,20140
2,93560,103797
2,214418,219103
//Storyboard Layer 0 (Background)
//Storyboard Layer 1 (Fail)
//Storyboard Layer 2 (Pass)
//Storyboard Layer 3 (Foreground)
//Storyboard Sound Samples
//Background Colour Transformations
3,100,163,162,255

[TimingPoints]
275,342.857586206896,4,2,1,100,1,0
20826,-133.333333333333,4,2,1,100,0,0
22197,-100,4,2,1,100,0,0
81169,-66.6666666666667,4,1,1,100,0,0
82540,-100,4,2,1,100,0,0
92140,-66.6666666666667,4,1,1,100,0,0
93512,-100,4,1,1,100,0,0
115112,-100,4,2,1,100,0,0
137398,-100,4,1,1,100,0,0
142883,-100,4,2,1,100,0,0
142969,-100,4,1,1,100,0,0
144255,-66.6666666666667,4,1,1,100,0,0
148369,-100,4,1,1,100,0,1
164826,-66.6666666666667,4,1,1,100,0,1
170316,-100,4,2,1,100,0,0
181626,-100,4,1,1,100,0,0
182483,-100,4,2,1,100,0,0
192255,-66.6666666666667,4,1,1,100,0,1
214198,-100,4,2,1,100,0,0
234769,-100,4,1,1,100,0,0
235969,-100,4,2,1,100,0,0
247112,-100,4,2,1,10,0,0
247798,-66.6666666666667,4,2,1,100,0,0
249512,-100,4,2,1,100,0,0
267683,-100,4,1,1,100,0,0
269055,-100,4,2,1,100,0,0
274541,-100,4,1,1,100,0,0
278655,-100,4,2,1,100,0,0

[Colours]
Combo1 : 255,128,0
Combo2 : 5,240,5
Combo3 : 5,5,240
Combo4 : 240,5,5

[HitObjects]
192,192,5075,2,2,B|224:192|240:176|256:152|256:152|272:176|288:192|328:192,1,150,0|0,0:0|0:0,0:0:0:0:
128,64,9875,5,8,0:0:0:0:
384,64,10217,1,8,0:0:0:0:
384,320,10560,1,8,0:0:0:0:
128,320,10903,1,8,0:0:0:0:
320,192,16046,6,0,B|288:192|272:176|256:152|256:152|240:176|224:192|184:192,1,150
64,288,20846,6,8,B|88:288|88:288|104:264|104:264|120:288|120:288|136:264|136:264|152:288|152:288|168:264|168:264|184:288|184:288|200:264|200:264|216:288|216:288|232:264|232:264|248:288|248:288|288:288,1,337.499989941716
72,112,22217,5,8,0:0:0:0:
136,56,22389,1,0,0:0:0:0:
192,120,22560,1,8,0:0:0:0:
192,120,22732,1,0,0:0:0:0:
256,56,22903,1,8,0:0:0:0:
440,56,23246,1,8,0:0:0:0:
352,56,23417,5,0,0:0:0:0:
400,128,23589,1,8,0:0:0:0:
456,200,23760,1,0,0:0:0:0:
456,200,23846,1,0,0:0:0:0:
456,200,23932,2,0,B|456:240,2,37.5,8|0|0,0:0|0:0|0:0,0:0:0:0:
384,256,24275,1,8,0:0:0:0:
300,292,24446,2,8,L|192:304,1,75,0|8,0:0|0:0,0:0:0:0:
156,328,24960,5,8,0:0:0:0:
84,272,25132,1,0,0:0:0:0:
84,272,25303,1,8,0:0:0:0:
156,220,25475,1,0,0:0:0:0:
156,220,25646,1,8,0:0:0:0:
76,180,25817,1,0,0:0:0:0:
76,180,25989,1,8,0:0:0:0:
144,120,26160,5,0,0:0:0:0:
144,28,26332,1,8,0:0:0:0:
232,120,26503,1,0,0:0:0:0:
232,32,26675,1,8,0:0:0:0:
320,120,26846,1,0,0:0:0:0:
320,32,27017,1,8,0:0:0:0:
408,120,27189,1,0,0:0:0:0:
408,32,27360,1,8,0:0:0:0:
464,288,27703,6,0,B|440:288|416:272|416:232,1,75,8|0,0:0|0:0,0:0:0:0:
416,239,28046,1,8,0:0:0:0:
416,239,28217,1,0,0:0:0:0:
344,184,28389,1,8,0:0:0:0:
256,256,28560,1,0,0:0:0:0:
168,328,28732,1,8,0:0:0:0:
104,264,28903,5,0,0:0:0:0:
48,200,29075,1,8,0:0:0:0:
132,172,29246,1,0,0:0:0:0:
140,156,29332,1,0,0:0:0:0:
148,140,29417,1,8,0:0:0:0:
140,48,29589,1,0,0:0:0:0:
228,48,29760,1,8,0:0:0:0:
220,72,29846,1,0,0:0:0:0:
236,96,29932,1,0,0:0:0:0:
260,104,30017,1,0,0:0:0:0:
284,96,30103,1,8,0:0:0:0:
360,48,30275,5,0,0:0:0:0:
360,48,30360,1,0,0:0:0:0:
360,48,30446,1,8,0:0:0:0:
360,48,30617,1,0,0:0:0:0:
440,84,30789,2,0,B|472:52,2,37.5,8|0|0,0:0|0:0|0:0,0:0:0:0:
364,132,31132,1,8,0:0:0:0:
364,132,31303,1,0,0:0:0:0:
448,168,31475,1,8,0:0:0:0:
472,348,31817,5,8,0:0:0:0:
388,320,31989,1,0,0:0:0:0:
356,312,32075,1,0,0:0:0:0:
324,304,32160,1,8,0:0:0:0:
240,272,32332,1,0,0:0:0:0:
156,244,32503,1,8,0:0:0:0:
68,220,32675,1,0,0:0:0:0:
36,212,32760,1,0,0:0:0:0:
4,204,32846,1,8,0:0:0:0:
40,120,33017,6,0,B|48:80,2,37.5,0|0|8,0:0|0:0|0:0,0:0:0:0:
116,72,33360,1,0,0:0:0:0:
196,28,33532,2,0,B|236:4|268:36,1,75,8|0,0:0|0:0,0:0:0:0:
196,92,33875,2,0,B|228:124|268:92,1,75,8|0,0:0|0:0,0:0:0:0:
344,52,34217,1,8,0:0:0:0:
400,168,34389,5,0,0:0:0:0:
460,264,34560,1,8,0:0:0:0:
316,216,34732,1,0,0:0:0:0:
344,324,34903,1,8,0:0:0:0:
196,216,35075,1,0,0:0:0:0:
168,324,35246,1,8,0:0:0:0:
112,168,35417,1,0,0:0:0:0:
52,264,35588,1,8,0:0:0:0:
56,56,35760,5,0,0:0:0:0:
56,56,35932,2,0,B|88:32|128:56,1,75,8|0,0:0|0:0,0:0:0:0:
92,124,36275,2,0,B|124:148|164:124,1,75,8|0,0:0|0:0,0:0:0:0:
128,56,36617,2,0,B|160:32|200:56,1,75,8|0,0:0|0:0,0:0:0:0:
200,56,36960,1,8,0:0:0:0:
328,56,37132,5,0,0:0:0:0:
388,124,37303,1,8,0:0:0:0:
448,192,37475,1,0,0:0:0:0:
468,280,37646,2,0,B|432:308|396:280,1,75,8|0,0:0|0:0,0:0:0:0:
352,192,37989,1,8,0:0:0:0:
292,124,38160,1,0,0:0:0:0:
232,56,38332,1,8,0:0:0:0:
48,320,38675,6,0,B|80:344|120:320,1,75,8|0,0:0|0:0,0:0:0:0:
208,312,39017,2,8,B|288:360|360:296,1,150
392,200,39532,1,0,0:0:0:0:
412,88,39703,1,8,0:0:0:0:
320,88,39875,5,0,0:0:0:0:
232,88,40046,1,8,0:0:0:0:
144,88,40217,1,0,0:0:0:0:
52,88,40389,1,8,0:0:0:0:
52,176,40560,2,0,B|88:148|124:176,1,75,0|8,0:0|0:0,0:0:0:0:
236,176,40903,2,0,B|272:148|308:176,1,75,0|8,0:0|0:0,0:0:0:0:
256,64,41417,5,8,0:0:0:0:
384,192,41760,1,8,0:0:0:0:
256,320,42103,1,8,0:0:0:0:
128,192,42446,1,8,0:0:0:0:
256,192,42789,12,8,43817,0:0:0:0:
256,192,43989,6,0,B|256:152,2,37.5,0|0|8,0:0|0:0|0:0,0:0:0:0:
256,192,44332,1,0,0:0:0:0:
328,192,44503,2,0,B|416:192,1,75,8|0,0:0|0:0,0:0:0:0:
256,264,44846,2,0,B|256:344,1,75,8|0,0:0|0:0,0:0:0:0:
184,192,45189,1,8,0:0:0:0:
112,192,45360,5,0,0:0:0:0:
112,120,45532,1,8,0:0:0:0:
184,120,45703,1,0,0:0:0:0:
184,48,45875,1,8,0:0:0:0:
112,48,46046,1,0,0:0:0:0:
40,48,46217,1,8,0:0:0:0:
40,120,46389,1,0,0:0:0:0:
40,192,46560,1,8,0:0:0:0:
40,264,46732,5,0,0:0:0:0:
40,264,46903,2,0,B|72:288|72:288|104:264,1,75,8|0,0:0|0:0,0:0:0:0:
232,264,47246,2,0,B|200:288|200:288|168:264,1,75,8|0,0:0|0:0,0:0:0:0:
40,336,47589,2,0,B|72:360|72:360|104:336,1,75,8|0,0:0|0:0,0:0:0:0:
176,336,47932,1,8,0:0:0:0:
400,296,48103,5,0,0:0:0:0:
460,184,48275,1,8,0:0:0:0:
316,232,48446,1,0,0:0:0:0:
352,108,48617,1,8,0:0:0:0:
196,232,48789,1,0,0:0:0:0:
160,108,48960,1,8,0:0:0:0:
112,296,49132,1,0,0:0:0:0:
52,184,49304,1,8,0:0:0:0:
112,48,49646,6,0,B|148:24|184:48,1,75,8|0,0:0|0:0,0:0:0:0:
272,48,49988,2,0,B|348:8|416:64,1,150,8|8,0:0|0:0,0:0:0:0:
384,172,50503,1,0,0:0:0:0:
344,276,50675,1,8,0:0:0:0:
228,324,50846,6,0,B|140:316,1,75,0|8,0:0|0:0,0:0:0:0:
192,236,51189,2,0,B|88:204,1,75,0|8,0:0|0:0,0:0:0:0:
184,148,51532,2,0,B|136:84,1,75,0|8,0:0|0:0,0:0:0:0:
276,136,51875,2,0,B|260:56,1,75,0|8,0:0|0:0,0:0:0:0:
128,64,52389,5,8,0:0:0:0:
384,64,52732,1,8,0:0:0:0:
384,320,53075,1,8,0:0:0:0:
128,320,53417,1,8,0:0:0:0:
168,280,53760,5,8,0:0:0:0:
256,192,53932,1,0,0:0:0:0:
344,104,54103,1,8,0:0:0:0:
256,192,54275,1,0,0:0:0:0:
344,280,54446,1,8,0:0:0:0:
256,192,54617,1,0,0:0:0:0:
168,104,54789,1,8,0:0:0:0:
32,64,55132,6,0,B|32:152,1,75,8|0,0:0|0:0,0:0:0:0:
112,60,55475,1,8,0:0:0:0:
336,32,55817,1,8,0:0:0:0:
220,224,56160,1,8,0:0:0:0:
108,228,56332,5,0,0:0:0:0:
164,296,56503,1,8,0:0:0:0:
256,296,56675,1,0,0:0:0:0:
312,224,56846,1,8,0:0:0:0:
372,292,57017,1,0,0:0:0:0:
464,292,57189,1,8,0:0:0:0:
372,292,57360,1,0,0:0:0:0:
420,224,57532,1,8,0:0:0:0:
420,136,57703,5,0,0:0:0:0:
420,136,57875,2,0,B|420:96|364:80,1,75,8|0,0:0|0:0,0:0:0:0:
292,52,58217,1,8,0:0:0:0:
180,28,58389,1,0,0:0:0:0:
164,156,58560,1,8,0:0:0:0:
144,28,58732,1,0,0:0:0:0:
204,156,58903,1,8,0:0:0:0:
64,192,59075,5,0,0:0:0:0:
36,276,59246,1,8,0:0:0:0:
124,256,59417,1,0,0:0:0:0:
96,344,59589,1,8,0:0:0:0:
176,300,59760,1,0,0:0:0:0:
256,260,59932,1,8,0:0:0:0:
336,300,60103,1,0,0:0:0:0:
412,348,60274,1,8,0:0:0:0:
484,184,60617,6,0,B|484:104,1,75,8|0,0:0|0:0,0:0:0:0:
484,24,60960,2,0,P|416:60|328:28,1,150,8|8,0:0|0:0,0:0:0:0:
316,152,61475,1,0,0:0:0:0:
288,260,61646,1,8,0:0:0:0:
180,312,61817,5,0,0:0:0:0:
136,192,61989,1,8,0:0:0:0:
88,312,62160,1,0,0:0:0:0:
208,232,62332,1,8,0:0:0:0:
60,232,62503,1,0,0:0:0:0:
180,312,62675,1,8,0:0:0:0:
136,192,62846,1,0,0:0:0:0:
88,312,63017,1,8,0:0:0:0:
256,144,63360,5,8,0:0:0:0:
304,192,63703,1,8,0:0:0:0:
256,240,64046,1,8,0:0:0:0:
208,192,64389,1,8,0:0:0:0:
192,128,64732,5,8,0:0:0:0:
320,128,65075,1,8,0:0:0:0:
320,256,65417,1,8,0:0:0:0:
192,256,65760,1,8,0:0:0:0:
144,192,66103,5,10,0:0:0:0:
256,80,66446,1,8,0:0:0:0:
368,192,66789,1,8,0:0:0:0:
256,304,67132,1,8,0:0:0:0:
128,320,67475,5,10,0:0:0:0:
128,64,67817,1,8,0:0:0:0:
384,64,68160,1,8,0:0:0:0:
384,320,68503,1,8,0:0:0:0:
256,368,68846,5,4,0:0:0:0:
256,368,69017,1,0,0:0:0:0:
80,192,69189,1,4,0:0:0:0:
80,192,69360,1,0,0:0:0:0:
256,16,69532,1,4,0:0:0:0:
256,16,69703,1,0,0:0:0:0:
432,192,69875,1,4,0:0:0:0:
256,192,70217,12,8,71246,0:0:0:0:
32,80,71589,5,8,0:0:0:0:
56,80,71675,1,0,0:0:0:0:
80,80,71760,1,0,0:0:0:0:
144,32,71932,2,0,B|184:96,1,75,8|0,0:0|0:0,0:0:0:0:
240,32,72275,1,8,0:0:0:0:
336,24,72446,2,0,B|376:88,2,75,0|8|0,0:0|0:0|0:0,0:0:0:0:
448,32,72960,5,8,0:0:0:0:
448,104,73132,1,0,0:0:0:0:
448,176,73303,1,8,0:0:0:0:
448,192,73389,1,0,0:0:0:0:
448,208,73475,2,0,B|448:288,1,75,0|8,0:0|0:0,0:0:0:0:
368,176,73817,1,0,0:0:0:0:
368,192,73903,1,0,0:0:0:0:
368,208,73989,2,0,B|368:312,1,75,8|0,0:0|0:0,0:0:0:0:
368,352,74332,5,8,0:0:0:0:
344,352,74417,1,0,0:0:0:0:
320,352,74503,1,0,0:0:0:0:
240,352,74675,2,0,B|200:280,1,75,8|0,0:0|0:0,0:0:0:0:
160,352,75017,1,8,0:0:0:0:
80,352,75189,2,0,B|40:280,2,75,0|8|0,0:0|0:0|0:0,0:0:0:0:
48,216,75703,5,8,0:0:0:0:
104,160,75875,1,0,0:0:0:0:
160,104,76046,1,8,0:0:0:0:
176,88,76132,1,0,0:0:0:0:
192,72,76217,2,0,B|240:16,1,75,0|8,0:0|0:0,0:0:0:0:
232,136,76560,1,0,0:0:0:0:
248,120,76646,1,0,0:0:0:0:
264,104,76731,2,0,B|312:48,1,75,8|0,0:0|0:0,0:0:0:0:
480,304,77075,5,8,0:0:0:0:
456,304,77161,1,0,0:0:0:0:
432,304,77246,1,0,0:0:0:0:
368,352,77418,2,0,B|328:288,1,75,8|0,0:0|0:0,0:0:0:0:
272,352,77761,1,8,0:0:0:0:
176,360,77932,2,0,B|136:296,2,75,0|8|0,0:0|0:0|0:0,0:0:0:0:
64,352,78446,5,8,0:0:0:0:
64,280,78618,1,0,0:0:0:0:
64,208,78789,1,8,0:0:0:0:
64,192,78875,1,0,0:0:0:0:
64,176,78961,2,0,B|64:96,1,75,0|8,0:0|0:0,0:0:0:0:
144,208,79303,1,0,0:0:0:0:
144,192,79389,1,0,0:0:0:0:
144,176,79475,2,0,B|144:72,1,75,8|0,0:0|0:0,0:0:0:0:
144,32,79818,5,8,0:0:0:0:
168,32,79903,1,0,0:0:0:0:
192,32,79989,1,0,0:0:0:0:
224,32,80075,1,0,0:0:0:0:
248,32,80161,2,0,B|288:104,1,75,8|0,0:0|0:0,0:0:0:0:
328,32,80503,1,8,0:0:0:0:
352,32,80588,1,0,0:0:0:0:
376,32,80674,1,0,0:0:0:0:
408,32,80760,1,0,0:0:0:0:
432,32,80846,2,0,B|472:104,1,75,8|0,0:0|0:0,0:0:0:0:
352,184,81189,6,0,L|276:272,1,112.500004291535,2|0,0:0|0:0,0:0:0:0:
220,232,81532,2,0,L|296:144,1,112.500004291535,2|0,0:0|0:0,0:0:0:0:
240,104,81875,2,0,L|164:192,1,112.500004291535,2|0,0:0|0:0,0:0:0:0:
132,60,82217,1,2,0:0:0:0:
132,60,82389,1,0,0:0:0:0:
328,48,82560,5,8,0:0:0:0:
328,48,82646,1,0,0:0:0:0:
328,48,82732,1,0,0:0:0:0:
416,48,82903,2,0,B|416:128,1,75,8|0,0:0|0:0,0:0:0:0:
340,128,83246,1,8,0:0:0:0:
264,128,83417,2,0,B|264:208,2,75,0|8|0,0:0|0:0|0:0,0:0:0:0:
340,200,83932,5,8,0:0:0:0:
340,200,84103,1,0,0:0:0:0:
416,200,84275,1,8,0:0:0:0:
416,200,84360,1,0,0:0:0:0:
416,200,84446,2,0,B|416:280,1,75,0|8,0:0|0:0,0:0:0:0:
492,200,84789,1,0,0:0:0:0:
492,200,84875,1,0,0:0:0:0:
492,200,84960,2,0,B|492:280,1,75,8|0,0:0|0:0,0:0:0:0:
408,288,85303,5,8,0:0:0:0:
384,312,85389,1,0,0:0:0:0:
360,336,85475,1,0,0:0:0:0:
304,288,85646,2,0,B|248:344,1,75,8|0,0:0|0:0,0:0:0:0:
180,340,85989,1,8,0:0:0:0:
108,340,86160,2,0,B|56:288,2,75,0|8|0,0:0|0:0|0:0,0:0:0:0:
56,216,86675,5,8,0:0:0:0:
56,216,86846,1,0,0:0:0:0:
56,144,87017,1,8,0:0:0:0:
88,144,87103,1,0,0:0:0:0:
120,144,87189,2,0,B|200:144,1,75,0|8,0:0|0:0,0:0:0:0:
56,72,87532,1,0,0:0:0:0:
88,72,87618,1,0,0:0:0:0:
120,72,87704,2,0,B|200:72,1,75,8|0,0:0|0:0,0:0:0:0:
264,72,88046,5,8,0:0:0:0:
296,72,88132,1,0,0:0:0:0:
328,72,88217,1,0,0:0:0:0:
336,144,88389,2,0,B|256:144,1,75,8|0,0:0|0:0,0:0:0:0:
264,216,88732,1,8,0:0:0:0:
320,272,88903,2,0,B|376:328,2,75,0|8|0,0:0|0:0|0:0,0:0:0:0:
264,216,89417,5,8,0:0:0:0:
336,216,89589,1,0,0:0:0:0:
408,216,89760,1,8,0:0:0:0:
440,216,89846,1,0,0:0:0:0:
472,216,89932,2,0,B|472:128,1,75,0|8,0:0|0:0,0:0:0:0:
408,136,90275,1,0,0:0:0:0:
408,104,90360,1,0,0:0:0:0:
408,72,90446,2,0,B|320:72,1,75,8|0,0:0|0:0,0:0:0:0:
256,72,90789,5,8,0:0:0:0:
232,96,90875,1,0,0:0:0:0:
208,120,90960,1,0,0:0:0:0:
184,144,91046,1,0,0:0:0:0:
160,168,91132,2,0,B|104:224,1,75,8|0,0:0|0:0,0:0:0:0:
152,72,91475,1,8,0:0:0:0:
128,96,91560,1,0,0:0:0:0:
104,120,91646,1,0,0:0:0:0:
80,144,91732,1,0,0:0:0:0:
56,168,91817,2,0,B|0:224,1,75,8|0,0:0|0:0,0:0:0:0:
160,184,92160,6,0,L|236:272,1,112.500004291535,2|0,0:0|0:0,0:0:0:0:
292,232,92503,2,0,L|216:144,1,112.500004291535,2|0,0:0|0:0,0:0:0:0:
272,104,92846,2,0,L|348:192,1,112.500004291535,2|0,0:0|0:0,0:0:0:0:
380,60,93188,1,2,0:0:0:0:
380,60,93360,1,0,0:0:0:0:
144,56,104503,6,0,B|160:56|160:56|168:40|168:40|176:56|176:56|184:40|184:40|192:56|192:56|200:40|200:40|208:56|208:56|216:40|216:40|224:56|224:56|232:40|232:40|240:56|240:56|248:40|248:40|256:56|256:56|264:40|264:40|272:56|272:56|280:40|280:40|288:56|288:56|296:40|296:40|304:56|304:56|312:40|312:40|320:56|320:56|328:40|328:40|336:56|336:56|344:40|344:40|352:56|352:56|368:56,1,450,2|4,0:0|0:0,0:0:0:0:
476,56,105875,1,2,0:0:0:0:
480,328,106903,1,4,0:0:0:0:
368,328,107246,6,0,B|352:328|352:328|344:344|344:344|336:328|336:328|328:344|328:344|320:328|320:328|312:344|312:344|304:328|304:328|296:344|296:344|288:328|288:328|280:344|280:344|272:328|272:328|264:344|264:344|256:328|256:328|248:344|248:344|240:328|240:328|232:344|232:344|224:328|224:328|216:344|216:344|208:328|208:328|200:344|200:344|192:328|192:328|184:344|184:344|176:328|176:328|168:344|168:344|160:328|160:328|144:328,1,450,2|4,0:0|0:0,0:0:0:0:
36,332,108617,1,2,0:0:0:0:
36,56,109646,1,4,0:0:0:0:
144,56,109989,6,0,B|160:56|160:56|168:40|168:40|176:56|176:56|184:40|184:40|192:56|192:56|200:40|200:40|208:56|208:56|216:40|216:40|224:56|224:56|232:40|232:40|240:56|240:56|248:40|248:40|256:56|256:56|264:40|264:40|272:56|272:56|280:40|280:40|288:56|288:56|296:40|296:40|304:56|304:56|312:40|312:40|320:56|320:56|328:40|328:40|336:56|336:56|344:40|344:40|352:56|352:56|368:56,1,450,2|4,0:0|0:0,0:0:0:0:
476,48,111360,1,2,0:0:0:0:
480,328,112389,1,4,0:0:0:0:
368,328,112732,6,0,B|352:328|352:328|344:344|344:344|336:328|336:328|328:344|328:344|320:328|320:328|312:344|312:344|304:328|304:328|296:344|296:344|288:328|288:328|280:344|280:344|272:328|272:328|264:344|264:344|256:328|256:328|248:344|248:344|240:328|240:328|232:344|232:344|224:328|224:328|216:344|216:344|208:328|208:328|200:344|200:344|192:328|192:328|184:344|184:344|176:328|176:328|168:344|168:344|160:328|160:328|144:328,1,450,2|4,0:0|0:0,0:0:0:0:
36,332,114103,1,2,0:0:0:0:
396,316,115132,5,2,0:0:0:0:
96,164,115646,1,2,0:0:0:0:
412,44,116160,1,2,0:0:0:0:
176,288,116675,1,2,0:0:0:0:
500,196,117189,1,2,0:0:0:0:
208,32,117703,1,2,0:0:0:0:
256,192,118218,12,8,120275,0:0:0:0:
476,296,120618,5,2,0:0:0:0:
140,252,121132,1,2,0:0:0:0:
420,64,121646,1,2,0:0:0:0:
268,364,122160,1,2,0:0:0:0:
48,108,122675,1,2,0:0:0:0:
376,192,123189,1,2,0:0:0:0:
256,192,123703,12,4,126103,0:0:0:0:
112,24,126446,5,8,0:0:0:0:
156,84,126618,1,0,0:0:0:0:
216,40,126789,1,8,0:0:0:0:
268,96,126960,1,0,0:0:0:0:
328,52,127132,1,8,0:0:0:0:
380,108,127303,1,0,0:0:0:0:
380,108,127475,1,8,0:0:0:0:
440,64,127646,1,0,0:0:0:0:
460,136,127818,5,8,0:0:0:0:
460,212,127989,1,0,0:0:0:0:
396,176,128160,1,8,0:0:0:0:
396,252,128332,1,0,0:0:0:0:
332,212,128503,1,8,0:0:0:0:
332,288,128675,1,0,0:0:0:0:
264,252,128846,1,8,0:0:0:0:
264,252,129018,1,0,0:0:0:0:
240,324,129189,5,8,0:0:0:0:
180,276,129361,1,0,0:0:0:0:
116,316,129532,1,8,0:0:0:0:
40,308,129703,1,0,0:0:0:0:
92,252,129875,1,8,0:0:0:0:
28,212,130046,1,0,0:0:0:0:
28,212,130218,1,8,0:0:0:0:
72,152,130389,1,0,0:0:0:0:
148,140,130560,5,8,0:0:0:0:
104,80,130732,1,0,0:0:0:0:
148,140,130903,1,8,0:0:0:0:
172,72,131075,1,0,0:0:0:0:
148,140,131246,1,8,0:0:0:0:
216,112,131418,1,0,0:0:0:0:
284,148,131589,2,0,B|308:164|308:204|268:236,1,75,8|0,0:0|0:0,0:0:0:0:
216,188,131932,5,8,0:0:0:0:
156,232,132103,1,0,0:0:0:0:
212,280,132275,1,8,0:0:0:0:
272,236,132446,1,0,0:0:0:0:
332,188,132618,1,8,0:0:0:0:
388,240,132789,1,0,0:0:0:0:
388,240,132960,1,8,0:0:0:0:
448,192,133132,1,0,0:0:0:0:
472,120,133303,6,0,B|472:40,1,75,8|0,0:0|0:0,0:0:0:0:
428,104,133646,2,0,B|428:16,1,75,8|0,0:0|0:0,0:0:0:0:
380,88,133989,2,0,B|380:8,1,75,8|0,0:0|0:0,0:0:0:0:
308,32,134332,1,8,0:0:0:0:
312,108,134503,1,0,0:0:0:0:
148,32,134675,5,8,0:0:0:0:
92,160,134846,1,0,0:0:0:0:
228,80,135018,1,8,0:0:0:0:
68,80,135189,1,0,0:0:0:0:
204,160,135360,1,8,0:0:0:0:
148,104,135532,1,0,0:0:0:0:
148,104,135703,1,8,0:0:0:0:
148,184,135875,1,0,0:0:0:0:
48,240,136046,5,8,0:0:0:0:
160,240,136217,1,0,0:0:0:0:
68,304,136389,1,8,0:0:0:0:
180,304,136560,1,0,0:0:0:0:
256,220,136732,1,8,0:0:0:0:
256,108,136903,1,0,0:0:0:0:
332,192,137075,1,8,0:0:0:0:
332,80,137246,1,0,0:0:0:0:
96,192,137418,5,8,0:0:0:0:
256,192,137760,1,8,0:0:0:0:
256,32,138103,1,8,0:0:0:0:
256,192,138446,1,8,0:0:0:0:
416,192,138789,1,8,0:0:0:0:
256,192,139132,1,8,0:0:0:0:
256,352,139475,1,8,0:0:0:0:
256,192,139818,1,8,0:0:0:0:
96,32,140160,5,8,0:0:0:0:
256,192,140503,1,8,0:0:0:0:
416,32,140846,1,8,0:0:0:0:
256,192,141189,1,8,0:0:0:0:
416,352,141532,1,8,0:0:0:0:
256,192,141875,1,8,0:0:0:0:
96,352,142218,1,8,0:0:0:0:
256,192,142560,1,8,0:0:0:0:
128,64,142903,5,4,0:0:0:0:
384,64,143246,1,8,0:0:0:0:
384,320,143589,1,8,0:0:0:0:
128,320,143932,1,8,0:0:0:0:
196,136,144275,6,0,L|104:64,3,112.500004291535,8|0|8|0,0:0|0:0|0:0|0:0,0:0:0:0:
84,232,144960,6,0,L|220:232,3,112.500004291535,8|0|8|0,0:0|0:0|0:0|0:0,0:0:0:0:
332,132,145646,6,0,L|292:256,3,112.500004291535,8|0|8|0,0:0|0:0|0:0|0:0,0:0:0:0:
172,128,146332,6,0,L|72:64,2,112.500004291535,8|0|8,0:0|0:0|0:0,0:0:0:0:
256,192,147018,12,4,148046,0:0:0:0:
56,144,148389,5,8,0:0:0:0:
104,64,148560,1,2,0:0:0:0:
136,64,148646,1,0,0:0:0:0:
168,64,148732,1,8,0:0:0:0:
208,144,148903,1,2,0:0:0:0:
240,144,148989,1,0,0:0:0:0:
272,144,149075,1,8,0:0:0:0:
312,64,149246,1,2,0:0:0:0:
440,144,149589,5,2,0:0:0:0:
464,232,149760,1,2,0:0:0:0:
360,200,150103,1,2,0:0:0:0:
384,288,150446,1,2,0:0:0:0:
280,320,150789,1,2,0:0:0:0:
208,352,150960,1,2,0:0:0:0:
136,320,151132,5,8,0:0:0:0:
48,280,151303,1,2,0:0:0:0:
48,248,151389,1,0,0:0:0:0:
48,216,151475,1,8,0:0:0:0:
136,184,151646,1,2,0:0:0:0:
136,152,151732,1,0,0:0:0:0:
136,120,151818,1,8,0:0:0:0:
48,88,151989,1,2,0:0:0:0:
224,48,152332,5,2,0:0:0:0:
288,80,152503,1,2,0:0:0:0:
472,192,152846,1,2,0:0:0:0:
288,304,153189,1,2,0:0:0:0:
288,192,153532,1,2,0:0:0:0:
224,232,153703,1,2,0:0:0:0:
104,336,153875,5,8,0:0:0:0:
32,288,154046,1,2,0:0:0:0:
56,264,154132,1,0,0:0:0:0:
80,240,154218,1,8,0:0:0:0:
176,224,154389,1,2,0:0:0:0:
152,200,154475,1,0,0:0:0:0:
128,176,154561,1,8,0:0:0:0:
64,120,154732,1,2,0:0:0:0:
152,48,155075,5,2,0:0:0:0:
224,48,155246,1,2,0:0:0:0:
344,48,155589,1,2,0:0:0:0:
464,48,155932,1,2,0:0:0:0:
400,160,156275,1,2,0:0:0:0:
400,232,156446,1,2,0:0:0:0:
400,336,156618,5,8,0:0:0:0:
352,288,156789,1,2,0:0:0:0:
328,264,156875,1,0,0:0:0:0:
304,240,156960,1,8,0:0:0:0:
248,192,157132,1,2,0:0:0:0:
224,168,157218,1,0,0:0:0:0:
200,144,157303,1,8,0:0:0:0:
152,96,157475,1,2,0:0:0:0:
40,96,157818,5,2,0:0:0:0:
40,168,157989,2,4,B|24:224|48:264|112:272,1,150
192,272,158675,1,2,0:0:0:0:
320,328,159018,1,2,0:0:0:0:
376,280,159189,1,2,0:0:0:0:
432,232,159360,5,8,0:0:0:0:
432,128,159532,1,2,0:0:0:0:
432,96,159618,1,0,0:0:0:0:
432,64,159703,1,8,0:0:0:0:
344,64,159875,1,2,0:0:0:0:
344,96,159960,1,0,0:0:0:0:
344,128,160046,1,8,0:0:0:0:
248,152,160218,1,2,0:0:0:0:
248,152,160389,1,8,0:0:0:0:
208,80,160560,1,2,0:0:0:0:
64,168,160732,5,8,0:0:0:0:
160,192,160903,1,2,0:0:0:0:
80,248,161075,1,8,0:0:0:0:
160,192,161246,1,2,0:0:0:0:
152,288,161418,1,8,0:0:0:0:
160,192,161589,1,2,0:0:0:0:
232,256,161760,1,8,0:0:0:0:
304,312,161932,1,2,0:0:0:0:
384,312,162103,5,8,0:0:0:0:
472,312,162275,1,2,0:0:0:0:
448,288,162360,1,0,0:0:0:0:
424,264,162446,1,8,0:0:0:0:
488,224,162618,1,2,0:0:0:0:
464,200,162703,1,0,0:0:0:0:
440,176,162789,1,8,0:0:0:0:
384,128,162960,1,2,0:0:0:0:
384,128,163132,1,8,0:0:0:0:
320,168,163303,1,2,0:0:0:0:
248,192,163475,5,8,0:0:0:0:
240,96,163646,1,2,0:0:0:0:
160,160,163818,1,8,0:0:0:0:
240,96,163989,1,2,0:0:0:0:
144,64,164160,1,8,0:0:0:0:
240,96,164332,1,2,0:0:0:0:
336,64,164503,1,8,0:0:0:0:
424,96,164675,1,2,0:0:0:0:
352,200,164846,5,8,0:0:0:0:
440,200,165018,2,0,B|464:256|440:280|400:280,1,112.500004291535,2|8,0:0|0:0,0:0:0:0:
360,360,165360,2,0,B|336:304|360:280|400:280,1,112.500004291535,2|8,0:0|0:0,0:0:0:0:
352,200,165703,1,2,0:0:0:0:
352,200,165875,1,8,0:0:0:0:
280,240,166046,1,2,0:0:0:0:
192,232,166218,5,8,0:0:0:0:
192,232,166389,1,2,0:0:0:0:
192,336,166560,1,8,0:0:0:0:
192,336,166732,1,2,0:0:0:0:
112,192,166903,1,8,0:0:0:0:
112,192,167075,1,2,0:0:0:0:
112,368,167246,1,8,0:0:0:0:
112,368,167418,1,2,0:0:0:0:
112,280,167589,5,8,0:0:0:0:
32,280,167760,2,0,B|32:168,1,112.500004291535,2|8,0:0|0:0,0:0:0:0:
32,56,168103,2,0,B|32:168,1,112.500004291535,2|8,0:0|0:0,0:0:0:0:
112,176,168446,1,2,0:0:0:0:
112,176,168618,1,8,0:0:0:0:
192,176,168789,1,2,0:0:0:0:
256,48,168960,5,8,0:0:0:0:
336,64,169132,1,2,0:0:0:0:
408,96,169303,1,8,0:0:0:0:
464,152,169475,1,2,0:0:0:0:
464,232,169646,1,8,0:0:0:0:
408,288,169818,1,2,0:0:0:0:
336,320,169989,1,8,0:0:0:0:
256,336,170160,1,2,0:0:0:0:
256,240,170332,5,8,0:0:0:0:
200,176,170503,1,0,0:0:0:0:
288,160,170675,1,8,0:0:0:0:
288,160,170846,1,0,0:0:0:0:
376,168,171018,2,0,B|416:176|432:208|424:264|376:256|320:232,1,150,8|8,0:0|0:0,0:0:0:0:
280,240,171532,5,0,0:0:0:0:
192,248,171703,1,8,0:0:0:0:
104,256,171875,1,0,0:0:0:0:
88,224,171960,1,0,0:0:0:0:
72,192,172046,1,8,0:0:0:0:
64,104,172218,2,0,B|48:64,2,37.5,0|0|8,0:0|0:0|0:0,0:0:0:0:
112,32,172560,2,0,B|168:56|120:104,1,75,0|8,0:0|0:0,0:0:0:0:
224,96,172903,5,0,0:0:0:0:
312,80,173075,2,0,B|400:56,2,75,8|0|8,0:0|0:0|0:0,0:0:0:0:
288,168,173589,1,0,0:0:0:0:
464,216,173760,1,8,0:0:0:0:
344,184,173932,1,0,0:0:0:0:
376,192,174018,1,0,0:0:0:0:
408,200,174103,1,8,0:0:0:0:
392,272,174275,5,0,0:0:0:0:
392,272,174360,1,0,0:0:0:0:
392,272,174446,1,8,0:0:0:0:
320,328,174618,1,0,0:0:0:0:
256,264,174789,1,8,0:0:0:0:
320,328,174960,1,0,0:0:0:0:
392,272,175132,1,8,0:0:0:0:
320,328,175303,1,0,0:0:0:0:
256,264,175475,1,8,0:0:0:0:
256,192,175818,5,8,0:0:0:0:
328,160,175989,1,0,0:0:0:0:
400,128,176160,1,8,0:0:0:0:
400,128,176332,1,0,0:0:0:0:
472,192,176503,1,8,0:0:0:0:
360,240,176675,1,0,0:0:0:0:
256,288,176846,1,8,0:0:0:0:
136,272,177018,5,0,0:0:0:0:
64,216,177189,1,8,0:0:0:0:
136,152,177361,1,0,0:0:0:0:
144,136,177447,1,0,0:0:0:0:
152,120,177532,1,8,0:0:0:0:
176,48,177704,1,0,0:0:0:0:
240,48,177875,1,8,0:0:0:0:
232,72,177961,1,0,0:0:0:0:
248,96,178047,1,0,0:0:0:0:
272,104,178132,1,0,0:0:0:0:
296,96,178218,1,8,0:0:0:0:
368,48,178390,5,0,0:0:0:0:
368,48,178475,1,0,0:0:0:0:
368,48,178561,1,8,0:0:0:0:
368,48,178732,1,0,0:0:0:0:
448,80,178904,2,0,B|480:48,2,37.5,8|0|0,0:0|0:0|0:0,0:0:0:0:
320,120,179247,1,8,0:0:0:0:
320,120,179418,1,0,0:0:0:0:
400,152,179590,1,8,0:0:0:0:
256,304,179932,5,8,0:0:0:0:
288,288,180018,1,0,0:0:0:0:
272,256,180103,1,0,0:0:0:0:
248,232,180189,1,0,0:0:0:0:
264,200,180275,1,8,0:0:0:0:
248,120,180446,1,0,0:0:0:0:
224,96,180532,1,0,0:0:0:0:
200,120,180618,1,8,0:0:0:0:
144,200,180789,1,0,0:0:0:0:
120,224,180875,1,0,0:0:0:0:
144,248,180960,1,8,0:0:0:0:
160,336,181132,2,0,B|192:352,2,37.5,0|0|8,0:0|0:0|0:0,0:0:0:0:
72,336,181475,5,0,0:0:0:0:
72,40,181646,1,2,0:0:0:0:
256,40,181989,1,2,0:0:0:0:
440,40,182332,1,2,0:0:0:0:
440,128,182503,5,0,0:0:0:0:
440,216,182675,1,8,0:0:0:0:
440,304,182846,1,0,0:0:0:0:
352,304,183018,1,8,0:0:0:0:
264,304,183189,1,0,0:0:0:0:
264,216,183360,1,8,0:0:0:0:
264,128,183532,1,0,0:0:0:0:
352,128,183703,1,8,0:0:0:0:
352,216,183875,5,0,0:0:0:0:
352,216,184046,2,0,B|336:168|280:168,2,75,8|0|8,0:0|0:0|0:0,0:0:0:0:
352,304,184560,1,0,0:0:0:0:
176,232,184732,1,8,0:0:0:0:
352,304,184903,1,0,0:0:0:0:
176,232,185075,1,8,0:0:0:0:
120,176,185246,5,0,0:0:0:0:
208,160,185418,1,8,0:0:0:0:
256,232,185589,1,0,0:0:0:0:
216,304,185760,1,8,0:0:0:0:
136,296,185932,1,0,0:0:0:0:
96,224,186103,1,8,0:0:0:0:
144,160,186275,1,0,0:0:0:0:
224,176,186446,1,8,0:0:0:0:
392,96,186789,6,0,B|336:160,1,75,8|0,0:0|0:0,0:0:0:0:
464,136,187132,2,0,B|360:256,1,150,8|8,0:0|0:0,0:0:0:0:
296,208,187646,1,0,0:0:0:0:
224,272,187818,1,8,0:0:0:0:
136,272,187989,1,0,0:0:0:0:
76,204,188160,1,8,0:0:0:0:
136,272,188332,1,0,0:0:0:0:
108,164,188503,1,8,0:0:0:0:
136,272,188675,1,0,0:0:0:0:
140,136,188846,1,8,0:0:0:0:
136,272,189018,1,0,0:0:0:0:
176,112,189189,1,8,0:0:0:0:
256,264,189532,5,4,0:0:0:0:
256,120,189875,1,4,0:0:0:0:
328,192,190218,1,4,0:0:0:0:
184,192,190560,1,4,0:0:0:0:
256,192,190903,12,4,191932,0:0:0:0:
376,56,192275,6,0,B|424:56|448:80|448:144,1,112.500004291535,8|2,0:0|0:0,0:0:0:0:
296,128,192618,2,0,B|248:128|224:104|224:40,1,112.500004291535,8|2,0:0|0:0,0:0:0:0:
296,56,192960,1,8,0:0:0:0:
376,128,193132,2,0,B|376:176|352:200|288:200,1,112.500004291535,2|8,0:0|0:0,0:0:0:0:
306,199,193475,1,2,0:0:0:0:
136,272,193646,6,0,B|32:200,1,112.500004291535,10|4,0:0|0:0,0:0:0:0:
376,272,193989,2,0,B|480:200,1,112.500004291535,10|4,0:0|0:0,0:0:0:0:
256,144,194332,2,0,B|256:32,1,112.500004291535,10|4,0:0|0:0,0:0:0:0:
256,216,194675,1,10,0:0:0:0:
256,288,194846,1,2,0:0:0:0:
120,120,195018,6,0,B|72:120|48:96|48:32,1,112.500004291535,8|2,0:0|0:0,0:0:0:0:
192,48,195360,2,0,B|240:48|264:72|264:136,1,112.500004291535,8|2,0:0|0:0,0:0:0:0:
192,120,195703,1,8,0:0:0:0:
192,192,195875,2,0,B|192:240|168:264|104:264,1,112.500004291535,2|8,0:0|0:0,0:0:0:0:
122,263,196218,1,2,0:0:0:0:
376,272,196389,6,0,B|480:200,1,112.500004291535,10|4,0:0|0:0,0:0:0:0:
424,152,196732,2,0,B|320:224,1,112.500004291535,2|4,0:0|0:0,0:0:0:0:
136,272,197075,2,0,B|32:200,1,112.500004291535,2|4,0:0|0:0,0:0:0:0:
88,152,197418,2,0,B|192:224,1,112.500004291535,2|2,0:0|0:0,0:0:0:0:
256,136,197760,5,8,0:0:0:0:
312,192,197932,1,2,0:0:0:0:
256,248,198103,1,8,0:0:0:0:
200,192,198275,1,2,0:0:0:0:
256,136,198446,1,8,0:0:0:0:
312,192,198618,2,0,B|328:272|252:248,1,112.500004291535,2|8,0:0|0:0,0:0:0:0:
200,192,198960,1,2,0:0:0:0:
64,128,199132,5,2,0:0:0:0:
64,128,199303,1,4,0:0:0:0:
176,64,199475,1,2,0:0:0:0:
176,64,199646,1,4,0:0:0:0:
336,64,199818,1,2,0:0:0:0:
336,64,199989,1,4,0:0:0:0:
448,128,200160,1,2,0:0:0:0:
448,128,200331,1,2,0:0:0:0:
256,248,200503,5,8,0:0:0:0:
200,192,200675,1,2,0:0:0:0:
256,136,200846,1,8,0:0:0:0:
312,192,201018,1,2,0:0:0:0:
256,248,201189,1,8,0:0:0:0:
200,192,201360,2,0,B|184:112|260:136,1,112.500004291535,2|8,0:0|0:0,0:0:0:0:
312,192,201703,1,2,0:0:0:0:
340,300,201875,6,0,P|316:200|388:112,2,225.000008583069,4|4|2,0:0|0:0|0:0,0:0:0:0:
176,320,202732,1,4,0:0:0:0:
64,256,202903,1,2,0:0:0:0:
64,256,203074,1,2,0:0:0:0:
256,72,203246,5,8,0:0:0:0:
256,312,203418,1,2,0:0:0:0:
176,112,203589,1,8,0:0:0:0:
336,272,203760,1,2,0:0:0:0:
136,192,203932,1,8,0:0:0:0:
376,192,204103,1,2,0:0:0:0:
376,192,204275,1,8,0:0:0:0:
336,112,204446,1,2,0:0:0:0:
448,48,204618,6,0,B|448:160,1,112.500004291535,2|4,0:0|0:0,0:0:0:0:
320,48,204960,2,0,B|320:160,1,112.500004291535,2|4,0:0|0:0,0:0:0:0:
192,48,205303,2,0,B|192:160,1,112.500004291535,2|4,0:0|0:0,0:0:0:0:
64,48,205646,1,2,0:0:0:0:
64,160,205818,1,2,0:0:0:0:
176,272,205989,5,8,0:0:0:0:
336,112,206160,1,2,0:0:0:0:
256,312,206332,1,8,0:0:0:0:
256,72,206503,1,2,0:0:0:0:
336,272,206675,1,8,0:0:0:0:
176,112,206846,1,2,0:0:0:0:
176,112,207018,1,8,0:0:0:0:
136,192,207189,1,2,0:0:0:0:
64,336,207360,6,0,B|64:224,1,112.500004291535,2|4,0:0|0:0,0:0:0:0:
192,336,207702,2,0,B|192:224,1,112.500004291535,2|4,0:0|0:0,0:0:0:0:
320,336,208045,2,0,B|320:224,1,112.500004291535,2|4,0:0|0:0,0:0:0:0:
448,336,208388,1,2,0:0:0:0:
448,224,208560,1,2,0:0:0:0:
256,312,208732,5,8,0:0:0:0:
256,72,208903,1,2,0:0:0:0:
376,192,209075,1,8,0:0:0:0:
136,192,209246,1,2,0:0:0:0:
176,272,209418,1,8,0:0:0:0:
336,112,209589,1,2,0:0:0:0:
336,272,209760,1,8,0:0:0:0:
176,112,209932,1,2,0:0:0:0:
256,192,210103,12,4,214218,0:0:0:0:
56,96,219703,5,8,0:0:0:0:
124,36,219875,1,0,0:0:0:0:
188,96,220046,2,0,L|120:156,2,75,8|0|8,0:0|0:0|0:0,0:0:0:0:
368,92,220732,1,8,0:0:0:0:
436,152,220903,5,0,0:0:0:0:
436,244,221075,1,8,0:0:0:0:
360,200,221246,1,0,0:0:0:0:
328,168,221332,1,0,0:0:0:0:
296,136,221418,1,8,0:0:0:0:
236,72,221589,2,0,L|208:52,4,18.75,0|0|0|0|8,0:0|0:0|0:0|0:0|0:0,0:0:0:0:
176,136,221932,2,0,L|120:204,1,75,0|8,0:0|0:0,0:0:0:0:
40,176,222275,5,0,0:0:0:0:
68,80,222446,2,0,L|152:80,2,75,8|0|8,0:0|0:0|0:0,0:0:0:0:
228,80,222961,1,0,0:0:0:0:
316,80,223132,1,8,0:0:0:0:
404,80,223303,1,0,0:0:0:0:
448,80,223389,1,0,0:0:0:0:
492,80,223475,1,8,0:0:0:0:
480,168,223646,5,0,0:0:0:0:
404,252,223818,1,8,0:0:0:0:
296,280,223989,1,0,0:0:0:0:
184,264,224161,1,8,0:0:0:0:
84,212,224332,2,0,P|96:176|144:148,3,75,0|8|0|8,0:0|0:0|0:0|0:0,0:0:0:0:
24,36,225189,5,8,0:0:0:0:
136,60,225361,1,0,0:0:0:0:
196,156,225532,1,8,0:0:0:0:
196,156,225703,1,0,0:0:0:0:
324,168,225875,1,8,0:0:0:0:
444,212,226046,1,0,0:0:0:0:
480,336,226218,1,8,0:0:0:0:
392,336,226389,5,0,0:0:0:0:
348,256,226561,1,8,0:0:0:0:
276,308,226732,1,0,0:0:0:0:
240,336,226818,1,0,0:0:0:0:
276,360,226903,1,8,0:0:0:0:
172,288,227075,1,0,0:0:0:0:
135,230,227246,1,8,0:0:0:0:
135,185,227332,1,0,0:0:0:0:
92,171,227418,1,0,0:0:0:0:
66,207,227503,1,0,0:0:0:0:
92,244,227589,1,8,0:0:0:0:
96,336,227761,6,0,L|52:332,2,37.5,0|0|8,0:0|0:0|0:0,0:0:0:0:
184,336,228103,1,0,0:0:0:0:
256,284,228275,2,0,L|272:260,4,18.75,8|0|0|0|0,0:0|0:0|0:0|0:0|0:0,0:0:0:0:
220,200,228618,1,8,0:0:0:0:
220,200,228789,1,0,0:0:0:0:
352,124,228961,1,8,0:0:0:0:
64,44,229303,5,8,0:0:0:0:
64,136,229475,2,0,L|64:204,2,37.5,0|0|8,0:0|0:0|0:0,0:0:0:0:
64,44,229818,1,0,0:0:0:0:
64,44,229989,1,8,0:0:0:0:
160,44,230161,2,0,L|232:44,2,37.5,0|0|8,0:0|0:0|0:0,0:0:0:0:
160,136,230503,5,0,0:0:0:0:
160,136,230675,2,0,L|244:136,1,75,8|0,0:0|0:0,0:0:0:0:
352,44,231018,1,8,0:0:0:0:
444,200,231361,1,8,0:0:0:0:
320,328,231703,1,8,0:0:0:0:
380,264,231875,1,0,0:0:0:0:
444,200,232046,1,8,0:0:0:0:
320,328,232389,1,8,0:0:0:0:
380,264,232561,2,0,L|396:252,4,18.75,0|0|0|0|8,0:0|0:0|0:0|0:0|0:0,0:0:0:0:
256,192,233075,1,8,0:0:0:0:
128,260,233246,1,0,0:0:0:0:
128,224,233332,1,0,0:0:0:0:
128,192,233418,5,8,0:0:0:0:
256,64,233761,1,8,0:0:0:0:
384,192,234103,1,8,0:0:0:0:
256,320,234446,1,8,0:0:0:0:
256,192,234789,12,2,235818,0:0:0:0:
256,48,235989,6,0,B|256:8,2,37.5,0|0|8,0:0|0:0|0:0,0:0:0:0:
256,48,236332,1,0,0:0:0:0:
340,80,236503,2,0,B|428:112,1,75,8|0,0:0|0:0,0:0:0:0:
264,136,236846,2,0,B|312:216,1,75,8|0,0:0|0:0,0:0:0:0:
180,112,237189,1,8,0:0:0:0:
96,336,237361,5,0,0:0:0:0:
44,236,237532,1,8,0:0:0:0:
200,304,237704,1,0,0:0:0:0:
164,200,237875,1,8,0:0:0:0:
312,304,238046,1,0,0:0:0:0:
348,200,238217,1,8,0:0:0:0:
416,336,238389,1,0,0:0:0:0:
468,236,238560,1,8,0:0:0:0:
296,192,238732,5,0,0:0:0:0:
296,192,238818,1,0,0:0:0:0:
296,192,238904,2,0,B|320:160|320:160|288:120,1,75,8|0,0:0|0:0,0:0:0:0:
216,192,239246,2,0,B|192:160|192:160|224:120,1,75,8|0,0:0|0:0,0:0:0:0:
232,112,239504,1,0,0:0:0:0:
256,88,239589,1,8,0:0:0:0:
256,296,239761,1,0,0:0:0:0:
256,88,239932,1,8,0:0:0:0:
384,84,240104,5,0,0:0:0:0:
384,172,240275,1,8,0:0:0:0:
384,260,240446,1,0,0:0:0:0:
384,172,240618,1,8,0:0:0:0:
384,84,240789,1,0,0:0:0:0:
292,88,240961,1,8,0:0:0:0:
204,92,241132,1,0,0:0:0:0:
292,88,241303,1,8,0:0:0:0:
408,40,241646,6,0,B|432:72|432:72|416:112,1,75,8|0,0:0|0:0,0:0:0:0:
420,136,241989,2,0,P|464:200|432:264,1,150,8|8,0:0|0:0,0:0:0:0:
352,236,242504,1,0,0:0:0:0:
280,292,242675,1,8,0:0:0:0:
196,320,242846,6,0,B|116:336,1,75,0|8,0:0|0:0,0:0:0:0:
148,248,243189,2,0,B|76:232,1,75,0|8,0:0|0:0,0:0:0:0:
128,160,243532,2,0,B|56:120,1,75,0|8,0:0|0:0,0:0:0:0:
132,68,243874,2,0,B|100:-4,1,75,0|8,0:0|0:0,0:0:0:0:
384,64,244389,5,4,0:0:0:0:
384,320,244732,1,4,0:0:0:0:
128,320,245075,1,4,0:0:0:0:
128,64,245418,1,4,0:0:0:0:
112,192,245761,5,8,0:0:0:0:
164,248,245932,1,0,0:0:0:0:
220,300,246104,1,8,0:0:0:0:
272,248,246275,1,0,0:0:0:0:
324,192,246446,1,8,0:0:0:0:
380,244,246618,1,0,0:0:0:0:
436,296,246789,1,8,0:0:0:0:
472,152,247132,6,0,P|456:112|416:104,1,75
392,184,247475,1,0,0:0:0:0:
264,60,247818,2,0,P|152:52|104:148,1,225.000008583069,8|8,0:0|0:0,0:0:0:0:
192,124,248332,1,0,0:0:0:0:
136,212,248503,1,8,0:0:0:0:
200,296,248675,1,0,0:0:0:0:
284,360,248846,1,8,0:0:0:0:
360,296,249018,2,0,P|420:276|440:232,2,112.500004291535,0|8|0,0:0|0:0|0:0,0:0:0:0:
439,234,249532,1,8,0:0:0:0:
440,144,249703,5,0,0:0:0:0:
368,196,249875,1,8,0:0:0:0:
300,256,250046,1,0,0:0:0:0:
236,196,250218,1,8,0:0:0:0:
236,108,250389,1,0,0:0:0:0:
304,48,250561,1,8,0:0:0:0:
368,112,250732,1,0,0:0:0:0:
368,196,250903,1,8,0:0:0:0:
404,280,251075,6,0,L|456:348,1,75,0|8,0:0|0:0,0:0:0:0:
336,328,251418,2,0,L|280:256,2,75,0|8|0,0:0|0:0|0:0,0:0:0:0:
224,336,251932,1,8,0:0:0:0:
112,324,252103,1,0,0:0:0:0:
20,256,252275,1,8,0:0:0:0:
80,40,252618,6,0,L|80:144,1,75,8|0,0:0|0:0,0:0:0:0:
80,204,252961,1,8,0:0:0:0:
216,92,253303,1,8,0:0:0:0:
312,152,253475,1,0,0:0:0:0:
260,252,253646,1,8,0:0:0:0:
188,308,253818,2,0,L|124:256,3,75,0|8|0|8,0:0|0:0|0:0|0:0,0:0:0:0:
68,196,254503,2,0,L|148:132,3,75,0|8|0|8,0:0|0:0|0:0|0:0,0:0:0:0:
256,192,255361,12,4,256389,0:0:0:0:
68,40,256732,5,8,0:0:0:0:
148,116,256903,1,0,0:0:0:0:
228,192,257075,1,8,0:0:0:0:
312,116,257246,1,0,0:0:0:0:
228,192,257418,1,8,0:0:0:0:
148,272,257589,1,0,0:0:0:0:
72,356,257761,1,8,0:0:0:0:
72,356,258103,5,8,0:0:0:0:
72,320,258189,1,0,0:0:0:0:
72,284,258275,1,0,0:0:0:0:
108,204,258446,2,0,L|8:204,1,75,8|0,0:0|0:0,0:0:0:0:
68,120,258789,1,8,0:0:0:0:
36,36,258961,2,0,L|112:36,2,75,0|8|0,0:0|0:0|0:0,0:0:0:0:
188,36,259475,5,8,0:0:0:0:
188,36,259646,1,0,0:0:0:0:
256,96,259818,1,8,0:0:0:0:
284,72,259903,1,0,0:0:0:0:
312,48,259989,2,0,L|388:48,1,75,0|8,0:0|0:0,0:0:0:0:
288,160,260332,1,0,0:0:0:0:
316,136,260417,1,0,0:0:0:0:
344,112,260503,2,0,L|420:112,1,75,8|0,0:0|0:0,0:0:0:0:
448,180,260846,5,8,0:0:0:0:
424,208,260932,1,0,0:0:0:0:
400,236,261018,1,0,0:0:0:0:
432,304,261189,2,0,L|380:372,1,75,8|0,0:0|0:0,0:0:0:0:
344,296,261532,1,8,0:0:0:0:
252,288,261703,2,0,L|308:224,2,75,0|8|0,0:0|0:0|0:0,0:0:0:0:
148,292,262218,5,8,0:0:0:0:
148,292,262389,1,0,0:0:0:0:
80,232,262561,1,8,0:0:0:0:
52,208,262646,1,0,0:0:0:0:
24,184,262732,2,0,L|68:108,1,75,0|8,0:0|0:0,0:0:0:0:
168,216,263075,1,0,0:0:0:0:
140,192,263160,1,0,0:0:0:0:
112,168,263246,2,0,L|156:92,1,75,8|0,0:0|0:0,0:0:0:0:
192,24,263589,5,8,0:0:0:0:
228,24,263675,1,0,0:0:0:0:
264,24,263761,1,0,0:0:0:0:
188,88,263932,2,0,L|268:88,1,75,8|0,0:0|0:0,0:0:0:0:
264,164,264275,1,8,0:0:0:0:
264,240,264446,2,0,L|184:240,2,75,0|8|0,0:0|0:0|0:0,0:0:0:0:
192,316,264961,5,8,0:0:0:0:
192,316,265132,1,0,0:0:0:0:
268,316,265303,1,8,0:0:0:0:
304,316,265389,1,0,0:0:0:0:
340,316,265475,2,0,L|420:316,1,75,0|8,0:0|0:0,0:0:0:0:
416,240,265818,1,0,0:0:0:0:
380,240,265903,1,0,0:0:0:0:
344,240,265989,2,0,L|260:240,1,75,8|0,0:0|0:0,0:0:0:0:
120,244,266332,5,8,0:0:0:0:
100,212,266418,1,0,0:0:0:0:
116,180,266503,1,0,0:0:0:0:
152,176,266589,1,0,0:0:0:0:
184,192,266675,2,0,L|248:248,1,75,8|0,0:0|0:0,0:0:0:0:
392,140,267018,1,8,0:0:0:0:
412,172,267104,1,0,0:0:0:0:
396,204,267189,1,0,0:0:0:0:
360,208,267275,1,0,0:0:0:0:
328,192,267361,2,0,L|264:136,1,75,8|0,0:0|0:0,0:0:0:0:
256,192,267703,12,2,268732,0:0:0:0:
256,28,268903,5,2,0:0:0:0:
72,28,269075,5,8,0:0:0:0:
72,64,269161,1,0,0:0:0:0:
72,100,269247,1,0,0:0:0:0:
108,180,269418,2,0,L|8:180,1,75,8|0,0:0|0:0,0:0:0:0:
68,264,269761,1,8,0:0:0:0:
36,348,269933,2,0,L|112:348,2,75,0|8|0,0:0|0:0|0:0,0:0:0:0:
188,348,270447,5,8,0:0:0:0:
188,348,270618,1,0,0:0:0:0:
256,288,270790,1,8,0:0:0:0:
284,312,270875,1,0,0:0:0:0:
312,336,270961,2,0,L|388:336,1,75,0|8,0:0|0:0,0:0:0:0:
288,224,271304,1,0,0:0:0:0:
316,248,271389,1,0,0:0:0:0:
344,272,271475,2,0,L|420:272,1,75,8|0,0:0|0:0,0:0:0:0:
448,204,271818,5,8,0:0:0:0:
424,176,271904,1,0,0:0:0:0:
400,148,271990,1,0,0:0:0:0:
432,80,272161,2,0,L|380:12,1,75,8|0,0:0|0:0,0:0:0:0:
344,88,272504,1,8,0:0:0:0:
252,96,272675,2,0,L|308:160,2,75,0|8|0,0:0|0:0|0:0,0:0:0:0:
148,92,273190,5,8,0:0:0:0:
148,92,273361,1,0,0:0:0:0:
80,152,273533,1,8,0:0:0:0:
52,176,273618,1,0,0:0:0:0:
24,200,273704,2,0,L|68:276,1,75,0|8,0:0|0:0,0:0:0:0:
168,168,274047,1,0,0:0:0:0:
140,192,274132,1,0,0:0:0:0:
112,216,274218,2,0,L|156:292,1,75,8|0,0:0|0:0,0:0:0:0:
240,288,274561,5,10,0:0:0:0:
328,272,274732,1,8,0:0:0:0:
408,232,274903,1,10,0:0:0:0:
460,160,275075,1,8,0:0:0:0:
436,72,275246,1,10,0:0:0:0:
352,40,275418,1,8,0:0:0:0:
264,32,275589,1,10,0:0:0:0:
308,108,275761,1,8,0:0:0:0:
356,184,275932,5,10,0:0:0:0:
416,252,276103,1,8,0:0:0:0:
348,312,276275,1,10,0:0:0:0:
260,296,276446,1,8,0:0:0:0:
196,232,276618,1,10,0:0:0:0:
132,292,276789,1,8,0:0:0:0:
48,256,276961,1,10,0:0:0:0:
36,168,277132,1,8,0:0:0:0:
28,92,277303,5,10,0:0:0:0:
64,76,277389,1,8,0:0:0:0:
100,64,277475,1,8,0:0:0:0:
136,52,277561,1,8,0:0:0:0:
172,40,277646,1,10,0:0:0:0:
204,56,277732,1,8,0:0:0:0:
232,80,277818,1,8,0:0:0:0:
256,108,277903,1,8,0:0:0:0:
284,132,277989,1,10,0:0:0:0:
316,112,278075,1,8,0:0:0:0:
348,92,278161,1,10,0:0:0:0:
384,100,278246,1,8,0:0:0:0:
420,112,278332,1,10,0:0:0:0:
452,132,278418,1,8,0:0:0:0:
480,160,278503,1,10,0:0:0:0:
500,192,278589,1,8,0:0:0:0:
256,192,278675,12,4,280046,0:0:0:0:
