osu file format v9

[General]
AudioFilename: dj project - inca o noapte.mp3
AudioLeadIn: 0
PreviewTime: 62987
Countdown: 1
SampleSet: Normal
StackLeniency: 0.7
Mode: 0
LetterboxInBreaks: 0

[Editor]
Bookmarks: 21737,43768,131658,151112
DistanceSpacing: 1
BeatDivisor: 4
GridSize: 4

[Metadata]
Title:Inca o Noapte
Artist:DJ Project
Creator:Tony
Version:Mediu
Source:Best of Romanian Songs 2006
Tags:Povestea mea my story romana one more night [Te][Amo]

[Difficulty]
HPDrainRate:4
CircleSize:4
OverallDifficulty:4
ApproachRate:4
SliderMultiplier:1.35
SliderTickRate:2

[Events]
//Background and Video events
Video,500,"DJ Project - Inca O Noapte.flv"
0,0,"bg.JPG"
//Break Periods
2,78187,91667
//Storyboard Layer 0 (Background)
//Storyboard Layer 1 (Fail)
//Storyboard Layer 2 (Pass)
//Storyboard Layer 3 (Foreground)
Sprite,Foreground,Centre,"[Te][Amo].png",320,57 S,0,0,,0.525 F,0,0,212752,1 F,0,212752,213455,1,0
//Storyboard Sound Samples
//Background Colour Transformations
3,100,163,162,255

[TimingPoints]
2987.11497757967,468.75,4,1,0,40,1,0
47987,-100,4,2,0,50,0,0
59237,-100,4,2,0,20,0,0
62987,-100,4,2,0,50,0,0
63455,-100,4,1,0,40,0,0
66737,-100,4,2,0,50,0,0
66971,-100,4,1,0,40,0,0
70487,-100,4,2,0,50,0,0
70604,-100,4,1,0,40,0,0
72362,-100,4,2,0,50,0,0
72830,-100,4,1,0,40,0,0
74237,-100,4,2,0,50,0,0
74705,-100,4,1,0,40,0,0
75174,-100,4,2,0,50,0,0
75643,-100,4,1,0,40,0,0
76112,-100,4,2,0,50,0,0
77987,-100,4,1,0,40,0,0
119237,-100,4,1,0,30,0,0
120643,-100,4,1,0,40,0,0
121112,-100,4,2,0,50,0,0
121580,-100,4,1,0,40,0,0
122049,-100,4,2,0,50,0,0
149237,-100,4,2,0,30,0,0
152987,-100,4,1,0,40,0,1
160487,-100,4,2,0,50,0,1
160721,-100,4,1,0,40,0,1
162362,-100,4,2,0,50,0,1
162596,-100,4,1,0,40,0,1
164237,-100,4,2,0,50,0,1
164354,-100,4,1,0,40,0,1
165174,-100,4,2,0,50,0,1
165291,-100,4,1,0,40,0,1
165643,-100,4,2,0,50,0,1
165760,-100,4,1,0,40,0,1
166112,-100,4,2,0,50,0,0
167987,-100,4,2,0,50,0,0
168221,-100,4,1,0,40,0,0
181112,-100,4,2,0,50,0,0
182987,-100,4,1,0,40,0,1
196112,-100,4,2,0,50,0,0
197987,-100,4,1,0,40,0,1
209237,-100,4,2,0,50,0,0
212752,-100,4,1,0,20,0,0

[Colours]
Combo1 : 0,64,0
Combo2 : 103,21,134
Combo3 : 3,3,141
Combo4 : 143,3,3
Combo5 : 117,70,0

[HitObjects]
256,192,16112,12,4,17987
128,192,18455,5,8
256,156,18924,1,0
384,192,19393,1,8
308,304,19862,2,0,B|292:268|256:256|220:268|204:304,2,135,0|8|0
444,312,21268,1,8
384,192,21737,5,0
444,72,22205,1,8
308,84,22674,2,0,B|292:48|256:36|220:48|204:84,1,135,0|8
108,180,23612,2,0,B|124:216|160:228|196:216|212:180,1,135,0|8
256,308,24549,1,0
300,180,25018,6,0,B|316:216|352:228|388:216|404:180,2,135,8|4|8
188,104,26424,1,0
324,104,26893,1,8
212,180,27362,2,0,B|160:228|188:304,1,135,4|8
324,303,28299,2,0,B|352:228|300:180,1,135,0|8
184,116,29237,6,0,B|144:80|84:80|44:120|44:184,1,202.5,4|0
72,248,30174,2,0,B|112:284|172:284|212:244|212:180,1,202.5
252,124,31112,1,4
360,204,31580,1,8
324,336,32049,1,0
188,336,32518,1,8
152,204,32987,6,0,B|80:176|80:100,1,135,4|8
204,48,33924,2,0,B|232:64|256:92|256:92|280:64|308:48,1,135,0|8
431,100,34862,2,0,B|432:176|360:204,1,135,0|8
256,292,35799,1,0
120,292,36268,1,8
212,192,36737,6,0,B|212:146|212:146|212:100|223:78|257:66|291:78|303:100|303:146|303:146|303:192,1,270,4|0
392,292,38143,1,8
256,292,38612,1,0
120,292,39080,1,8
40,184,39549,2,0,B|56:136|108:112|108:112|96:80,1,135,0|8
212,152,40487,5,4
256,24,40955,1,8
300,152,41424,1,0
415,80,41893,2,0,B|404:112|404:112|456:136|472:184,1,135,8|0
364,264,42830,2,0,B|336:340|256:312,1,135,8|0
132,260,43768,1,8
132,124,44237,5,4
132,124,44705,2,0,B|160:48|240:75,1,135,8|0
360,140,45643,1,8
256,192,46112,12,0,47518
144,192,47987,6,0,B|164:128|220:84,1,135,4|0
288,84,48690,2,0,B|344:128|364:192,1,135,2|0
312,320,49627,2,0,B|283:277|227:277|198:320,3,135,2|0|2|0
132,320,51268,1,2
164,196,51737,6,0,B|176:128|176:128|224:84,1,135,4|0
287,83,52440,2,0,B|336:128|336:128|348:196,1,135,2|0
468,260,53377,1,2
356,336,53846,1,0
256,244,54315,1,2
128,292,54783,1,0
128,292,55018,1,2
88,160,55487,6,0,B|124:164|156:144|172:104|164:72,1,135,4|0
256,172,56424,2,0,B|256:100,2,67.5,2|0|0
347,72,57362,2,0,B|340:104|356:144|388:164|424:160,1,135,2|0
340,268,58299,2,0,B|372:276|396:304,2,67.5,2|0|0
256,192,59237,12,2,62049
256,192,62987,5,4
132,144,63455,2,0,B|132:76|132:76|164:68|188:40,1,135,8|0
324,40,64393,2,0,B|348:68|380:76|380:76|380:144,1,135,8|0
364,280,65330,1,8
256,360,65799,1,0
148,280,66268,1,8
188,152,66737,6,0,B|324:152,2,135,4|8|0
68,92,68143,2,0,B|120:44|120:44|184:44,1,135,8|0
327,44,69080,2,0,B|392:44|392:44|444:92,2,135,8|0|8
400,160,70487,5,4
328,272,70955,1,8
320,136,71424,1,0
404,240,71893,1,8
272,208,72362,1,4
204,324,72830,6,0,B|200:284|176:260|176:260|112:260,1,135,8|0
111,124,73768,2,0,B|176:124|176:124|200:100|204:60,1,135,8|4
339,60,74705,1,8
312,192,75174,5,4
339,324,75643,1,8
400,204,76112,1,4
280,264,76580,1,4
412,288,77049,1,4
312,192,77518,1,4
340,324,77987,1,4
140,192,92987,6,0,B|188:64,1,135,4|8
324,65,93924,2,0,B|372:192,1,135,0|8
356,328,94862,1,0
256,240,95330,1,8
156,328,95799,1,0
144,192,96268,2,0,B|188:140|256:119|256:119|324:140|368:192,1,270,8|8
452,84,97674,5,0
324,44,98143,1,8
188,44,98612,1,0
60,84,99080,1,8
144,192,99549,1,0
144,192,100018,5,8
252,272,100487,1,4
116,272,100955,1,8
228,196,101424,1,0
184,324,101893,1,8
256,64,102830,5,8
388,96,103299,2,0,B|448:120|400:180|460:200,1,135,0|8
376,308,104237,2,0,B|316:284|364:224|304:204,1,135,4|8
256,332,105174,1,0
207,204,105643,2,0,B|148:224|196:284|136:308,1,135,8|0
52,199,106580,2,0,B|112:180|64:120|124:96,1,135,8|0
256,64,107518,1,8
256,64,107987,5,4
372,128,108455,2,0,B|440:140|456:192|444:252|376:260,1,202.5,8|0
308,259,109393,1,8
256,136,109862,1,0
204,259,110330,1,8
140,256,110565,2,0,B|72:244|56:192|68:132|136:124,1,202.5,0|8
256,60,111737,5,4
368,136,112205,2,0,B|432:192|372:252,1,135,8|0
256,320,113143,1,8
139,251,113612,2,0,B|80:192|144:136,1,135,0|8
256,212,114549,1,0
256,76,115018,1,8
124,52,115487,6,0,B|60:68|60:68|28:128,1,135,4|8
92,248,116424,2,0,B|156:232|156:232|188:172,1,135,0|8
323,171,117362,2,0,B|356:232|356:232|420:248,1,135,0|8
316,336,118299,2,0,B|256:304|256:304|196:336,1,135,0|8
168,204,119237,6,0,B|192:160|248:144|248:144|292:128|312:72|256:32|200:72|220:128|264:144|264:144|320:160|343:204,1,405,4|8
376,332,121112,2,0,B|328:284|256:276,1,135,4|8
136,332,122049,2,0,B|184:284|256:276,1,135,4|4
208,148,122987,6,0,B|220:108|256:92|292:108|308:148,1,135,4|2
368,176,123690,2,0,B|380:216|416:232|452:216|468:176,2,135,0|0|2
256,252,125096,1,0
144,176,125565,1,2
136,312,126033,1,0
136,312,126268,1,2
40,216,126737,6,0,B|32:144|76:88,1,135,4|0
128,44,127440,2,0,B|198:35|256:79,1,135,2|0
256,212,128377,1,2
360,300,128846,1,0
452,200,129315,6,0,B|464:128|392:88,1,135,2|0
328,104,130018,2,0,B|320:172|256:212,1,135,2|4
77,290,131190,6,0,B|53:226,1,67.5,0|2
53,158,131658,2,0,B|76:94,1,67.5,2|0
208,128,132362,2,0,B|180:192|180:192|208:252,1,135,2|0
256,296,133065,1,0
304,251,133299,2,0,B|332:192|332:192|304:128,1,135,2|2
256,192,134237,12,0,137518
348,172,137987,6,0,B|320:104|244:100,1,135,4|2
164,212,138924,2,0,B|192:280|268:284,1,135,0|2
404,296,139862,1,0
348,172,140330,1,2
464,240,140799,1,0
332,252,141268,1,2
432,164,141737,6,0,B|424:112|376:84|336:88,1,135,4|2
256,196,142674,1,0
176,88,143143,2,0,B|136:84|88:112|80:164,1,135,2|0
128,292,144080,2,0,B|188:248|164:172,1,135,2|0
256,72,145018,1,2
347,172,145487,6,0,B|324:248|384:292,1,135,4|2
256,332,146424,2,0,B|256:264,2,67.5,0|0|2
128,292,147362,2,0,B|88:240|88:240|116:216|120:180,1,135,4|2
80,52,148299,2,0,B|36:100|36:176,1,135,0|2
148,104,149237,6,0,B|168:48|228:40|256:68|256:68|284:40|344:48|364:104,1,270,2|2
148,264,151112,2,0,B|168:320|228:328|256:300|256:300|284:328|344:320|364:264,1,270,2|2
488,60,152987,5,4
456,192,153455,1,0
360,100,153924,2,0,B|345:55|315:26|256:11|197:26|167:55|152:100,1,270
56,192,155330,1,0
152,284,155799,2,0,B|166:328|196:357|255:372|314:357|344:328|359:284,1,270
456,192,157205,5,0
364,96,157674,2,0,B|344:40|284:32|256:60|256:60|228:32|168:40|148:96,1,270
188,228,159080,1,0
324,228,159549,1,0
256,344,160018,1,0
128,300,160487,6,0,B|76:240|108:176,1,135,4|0
189,68,161424,2,0,B|160:24|100:40,2,101.25
192,136,162362,1,4
256,252,162830,1,0
320,136,163299,2,0,B|350:180|410:164,2,101.25
316,68,164237,5,4
444,104,164705,1,0
440,240,165174,1,4
352,340,165643,1,4
304,216,166112,1,4
208,216,167987,6,0,B|208:284|208:284|184:348,1,135,4|8
327,346,168924,2,0,B|304:284|304:284|304:216,1,135,0|8
200,132,169862,2,0,B|256:96|256:96|312:132,1,135,0|8
448,152,170799,1,0
448,287,171268,1,8
316,324,171737,6,0,B|280:320|256:296|256:296|232:320|196:324,1,135,4|8
64,287,172674,1,0
64,152,173143,1,8
184,216,173612,2,0,B|220:160,2,67.5,0|0|8
316,236,174549,2,0,B|280:292,2,67.5,0|0|8
420,324,175487,5,4
460,196,175955,1,8
388,80,176424,1,0
256,116,176893,1,8
124,80,177362,1,0
52,196,177831,1,8
136,300,178299,6,0,B|216:284|188:196,1,135,0|8
323,197,179237,2,0,B|296:284|376:300,1,135,0|8
408,164,180174,2,0,B|376:92|296:112,2,135,0|8|4
375,300,181580,1,4
256,360,182049,1,4
136,300,182518,1,4
189,173,182987,6,0,B|325:173,1,135,4|8
459,173,183924,2,0,B|406:172|406:172|404:128|368:104,1,135,0|8
256,28,184862,1,0
144,103,185330,2,0,B|108:128|106:172|106:172|54:173,1,135,8|0
148,268,186268,1,8
148,268,186737,6,0,B|209:291|209:291|190:357,1,135,4|8
321,357,187674,2,0,B|302:291|302:291|364:268,1,135,0|8
320,140,188612,2,0,B|256:160|256:160|192:140,2,135,0|8|0
452,164,190018,1,8
384,48,190487,6,0,B|320:24|256:68|256:68|192:24|128:48,1,270,4|0
60,164,191893,1,8
84,296,192362,2,0,B|152:288|188:220,1,135,0|8
323,219,193299,2,0,B|359:287|427:295,1,135,0|8
440,160,194237,5,4
324,92,194705,1,8
188,92,195174,1,0
72,160,195643,1,8
72,296,196112,5,4
72,296,196580,2,0,B|143:304|187:240,1,135,4|4
324,240,197518,2,0,B|368:304|440:296,1,135,4|4
444,160,198455,5,8
312,140,198924,2,0,B|256:168|256:168|208:232|256:296,2,202.5,0|0|8
396,36,200799,1,0
444,160,201268,1,8
372,276,201737,5,4
256,344,202205,2,0,B|215:328|215:328|188:288|215:244,2,135,8|0|8
304,220,203612,2,0,B|331:174|304:134|304:134|263:118,2,135,0|8|0
256,344,205018,1,8
124,320,205487,6,0,B|91:254|124:189|124:189|156:123|124:58,1,270,4|0
256,80,206893,1,8
388,60,207362,2,0,B|355:125|388:190|388:190|420:256|388:321,1,270
256,344,208768,1,8
160,248,209237,6,0,B|92:213|104:137,1,135,4|0
204,48,210174,2,0,B|308:48,2,101.25,2|2|0
256,172,211346,6,0,B|256:272,1,101.25,2|0
352,248,212049,2,0,B|402:221|394:164,2,101.25,2|2|0
