osu file format v9

[General]
AudioFilename: dj project - inca o noapte.mp3
AudioLeadIn: 0
PreviewTime: 62987
Countdown: 1
SampleSet: Normal
StackLeniency: 0.7
Mode: 0
LetterboxInBreaks: 0

[Editor]
Bookmarks: 21737,96737
DistanceSpacing: 1
BeatDivisor: 4
GridSize: 4

[Metadata]
Title:Inca o Noapte
Artist:DJ Project
Creator:Tony
Version:Facil
Source:Best of Romanian Songs 2006
Tags:Povestea mea my story romana one more night [Te][Amo]

[Difficulty]
HPDrainRate:2
CircleSize:3
OverallDifficulty:2
ApproachRate:3
SliderMultiplier:1.15
SliderTickRate:2

[Events]
//Background and Video events
Video,500,"DJ Project - Inca O Noapte.flv"
0,0,"bg.JPG"
//Break Periods
2,78187,89672
//Storyboard Layer 0 (Background)
//Storyboard Layer 1 (Fail)
//Storyboard Layer 2 (Pass)
//Storyboard Layer 3 (Foreground)
Sprite,Foreground,Centre,"Tony.png",320,57 S,0,0,,0.525 F,0,0,212752,1 F,0,212752,213455,1,0
//Storyboard Sound Samples
//Background Colour Transformations
3,100,163,162,255

[TimingPoints]
2987.11497757967,468.75,4,1,0,40,1,0
47987,-100,4,2,0,50,0,0
63455,-100,4,1,0,40,0,0
66737,-100,4,2,0,50,0,0
67205,-100,4,1,0,40,0,0
70487,-100,4,2,0,50,0,0
70545,-100,4,1,0,40,0,0
72362,-100,4,2,0,50,0,0
72420,-100,4,1,0,40,0,0
74237,-100,4,2,0,50,0,0
74471,-100,4,1,0,40,0,0
75174,-100,4,2,0,50,0,0
75408,-100,4,1,0,40,0,0
76112,-100,4,2,0,50,0,0
77987,-100,4,1,0,40,0,0
119237,-100,4,1,0,30,0,0
120643,-100,4,1,0,40,0,0
121112,-100,4,2,0,50,0,0
152987,-100,4,2,0,50,0,1
153221,-100,4,1,0,40,0,1
160487,-100,4,2,0,50,0,1
160721,-100,4,1,0,40,0,1
162362,-100,4,2,0,50,0,1
162596,-100,4,1,0,40,0,1
164237,-100,4,2,0,50,0,1
164354,-100,4,1,0,40,0,1
165174,-100,4,2,0,50,0,1
165291,-100,4,1,0,40,0,1
165643,-100,4,2,0,50,0,1
165760,-100,4,1,0,40,0,1
166112,-100,4,2,0,50,0,0
167987,-100,4,1,0,40,0,0
181112,-100,4,2,0,50,0,0
181580,-100,4,1,0,40,0,0
182049,-100,4,2,0,50,0,0
182987,-100,4,1,0,40,0,1
196112,-100,4,2,0,50,0,0
197987,-100,4,1,0,40,0,1
209237,-100,4,2,0,50,0,0
212752,-100,4,1,0,20,0,0

[Colours]
Combo1 : 0,64,0
Combo2 : 103,21,134
Combo3 : 3,3,141
Combo4 : 143,3,3
Combo5 : 117,70,0

[HitObjects]
256,192,16112,12,4,17987
152,88,18924,5,0
256,136,19393,1,8
360,88,19862,1,0
312,312,20799,2,0,B|196:312,2,115,0|8|0
348,204,22205,5,8
256,136,22674,1,0
164,204,23143,2,2,B|120:103|172:23|256:-4|340:23|392:103|348:204,1,460,2|8
364,320,25487,5,0
256,276,25955,1,8
148,320,26424,1,0
108,92,27362,2,0,B|140:40|200:32,1,115,0|8
316,31,28299,2,0,B|377:39|409:91,1,115,0|8
352,192,29237,5,0
256,128,29705,1,8
160,192,30174,1,0
312,364,31112,2,0,B|256:344|200:364,2,115,0|8|0
256,264,32518,1,8
356,204,32987,6,0,B|404:308,2,115,4|8|0
256,148,34393,1,8
156,204,34862,2,0,B|108:308,2,115,0|8|0
256,264,36268,1,8
356,204,36737,5,0
256,148,37206,1,8
156,204,37674,1,0
176,88,38143,2,2,B|256:32|336:88,2,172.5,2|2|2
68,128,40018,5,8
156,204,40487,1,0
204,308,40955,2,0,B|256:284|256:284|308:308,1,115,8|0
356,204,41893,1,8
444,128,42362,1,0
208,100,43299,5,0
256,204,43768,1,8
304,100,44237,1,0
314,328,45174,2,0,B|198:328,2,115,0|8|0
352,100,47049,1,0
256,164,47518,1,8
160,100,47987,6,0,B|99:97|55:140,1,115,4|0
56,196,48690,2,0,B|99:238|160:236,1,115,2|0
198,344,49627,2,0,B|314:344,2,115,2|0|2
256,244,51033,2,0,B|256:184,1,57.5,0|2
352,120,51737,6,0,B|412:117|456:160,1,115,4|0
456,216,52440,2,0,B|412:258|351:256,1,115,2|0
314,364,53377,2,0,B|198:364,2,115,2|0|2
256,244,54783,2,0,B|256:184,1,57.5,0|2
144,168,55487,6,0,B|140:100|200:76,1,115,4|0
312,76,56424,2,0,B|372:100|368:168,1,115,2|0
336,276,57362,2,0,B|256:308|256:308|176:276,2,172.5,2|2|0
368,167,59237,6,0,B|424:148,2,57.5,2|2|0
256,140,60174,2,0,B|256:196,2,57.5,2|2|0
144,167,61112,2,0,B|88:148,2,57.5,2|2|0
196,268,62049,1,2
316,268,62518,1,0
368,168,62987,6,0,B|428:145|426:80,1,115,4|8
312,92,63924,2,0,B|256:72|200:92,1,115,0|8
85,79,64862,2,0,B|83:145|144:168,1,115,0|8
256,184,65799,1,0
256,300,66268,1,8
352,236,66737,6,0,B|405:220|405:220|462:229,1,115,4|8
468,116,67674,2,0,B|414:131|414:131|357:122,1,115,0|8
256,69,68612,2,0,B|256:184,1,115,0|8
156,122,69549,2,0,B|97:131|97:131|44:116,1,115,0|8
96,220,70487,6,0,B|88:276|88:276|108:340|176:332,2,172.5,4|0|8
212,232,72362,2,0,B|268:240|268:240|332:220|323:151,2,172.5,4|0|8
96,220,74237,5,4
108,104,74705,1,8
224,116,75174,1,4
212,232,75643,1,8
160,336,76112,6,0,B|220:340|220:340|276:328,1,115,4|4
384,304,77049,2,4,B|388:244|388:244|376:188,1,115
348,80,77987,1,4
256,192,91112,12,4,92987
200,64,93924,6,0,B|256:40|312:64,2,115,0|8|0
332,252,95799,1,0
256,336,96268,1,8
180,252,96737,1,0
256,168,97205,6,0,B|256:52,1,115,8|0
356,112,98143,2,0,B|472:112,1,115,8|0
412,212,99080,2,0,B|412:328,2,115,8|0|8
302,249,100487,6,2,B|309:279|294:310|255:325|217:310|202:279|209:249,2,172.5,2|2|8
316,136,102362,1,0
196,136,102830,1,8
256,36,103299,1,0
372,36,103768,1,8
428,136,104237,6,2,B|452:172|452:172|484:224|460:300,2,172.5,2|0|8
376,240,106112,2,0,B|340:264|340:264|288:296|212:272,2,172.5,0|0|8
320,140,107987,5,4
224,80,108455,1,8
324,28,108924,1,0
320,140,109393,1,8
216,192,109862,6,0,B|176:236|112:224,1,115,0|8
20,152,110799,2,0,B|60:108|124:120,1,115,0|8
236,96,111737,6,0,B|280:84|280:84|352:68|392:124,2,172.5,0|0|8
312,184,113612,2,0,B|268:196|268:196|196:212|156:156,2,172.5,0|0|8
364,288,115487,5,0
256,324,115955,1,8
148,284,116424,1,0
200,60,117362,2,0,B|256:40|312:60,2,115,0|8|0
256,160,118768,5,8
157,219,119237,2,2,B|147:291|184:336|256:363|328:336|364:291|355:219,1,345,2|8
356,104,121112,5,4
256,160,121580,1,4
156,104,122049,1,4
256,48,122518,1,4
356,104,122987,6,0,B|420:88|460:136,1,115,4|0
459,193,123690,2,0,B|419:241|355:225,1,115,2|0
272,300,124627,2,0,B|312:348|376:332,2,115,2|0|2
256,188,126033,2,0,B|256:132,1,57.5,0|2
148,92,126737,6,0,B|84:76|44:124,1,115,4|0
44,181,127440,2,0,B|84:229|148:213,1,115,2|0
224,300,128377,2,0,B|184:348|120:332,2,115,2|0|2
256,188,129783,2,0,B|256:130,1,57.5,0|2
152,84,130487,5,4
256,36,130955,1,0
360,84,131424,1,2
310,305,132362,2,0,B|258:337|202:305,2,115,2|0|2
148,144,134237,6,0,B|92:132,2,57.5,2|2|0
256,184,135174,2,0,B|256:240,2,57.5,2|2|0
364,144,136112,2,0,B|420:132,2,57.5,2|2|0
256,100,137049,2,0,B|256:44,2,57.5,2|2|0
144,144,137987,5,4
164,256,138455,1,2
256,324,138924,1,0
348,256,139393,1,2
368,144,139861,1,0
312,44,140330,6,0,B|256:20|200:44,1,115,2|0
144,144,141268,2,0,B|200:168|256:144,2,115,2|0|2
44,196,142674,2,0,B|20:140|44:84,2,115,0|2|0
140,256,144080,1,2
200,352,144549,1,0
312,352,145018,1,2
372,256,145487,6,0,B|416:256|416:256|488:256|512:184,2,172.5,4|0|0
256,256,147362,2,0,B|212:256|212:256|140:256|116:328,2,172.5,4|0|0
316,156,149237,6,0,B|372:156,2,57.5,2|2|0
316,40,150174,2,0,B|373:40,2,57.5,2|2|0
220,100,151112,2,0,B|220:44,2,57.5,2|2|0
104,100,152049,2,0,B|104:44,2,57.5,2|2|0
116,216,152987,6,0,B|137:276|197:288,1,115,4|8
313,288,153924,2,0,B|374:276|396:216,1,115,0|0
396,100,154862,2,0,B|374:39|314:27,1,115,0|8
198,27,155799,2,0,B|137:39|115:99,1,115,0|0
196,180,156737,5,0
196,296,157205,1,8
312,296,157674,1,0
312,180,158143,1,0
428,180,158612,6,0,B|428:64,1,115,0|8
312,64,159549,2,0,B|196:64,1,115
100,124,160487,5,4
156,224,160955,2,0,B|40:224,2,115,8|0|0
256,284,162362,5,4
356,224,162830,2,0,B|472:224,2,115,8|0|0
316,116,164237,5,4
196,116,164705,1,8
156,224,165174,1,4
256,284,165643,1,4
356,224,166112,1,4
256,192,166346,12,4,167987
199,91,168924,6,0,B|315:91,2,115,0|8|0
168,320,170799,1,0
256,244,171268,1,8
344,320,171737,1,0
364,92,172674,6,0,B|384:148|364:204,2,115,0|8|0
256,128,174080,1,8
148,88,174549,2,0,B|127:144|147:200,1,115,0|8
172,312,175487,6,0,B|256:348|340:312,2,172.5,0|0|8
172,196,177362,2,0,B|256:160|340:196,2,172.5,0|0|8
100,108,179237,5,0
196,44,179705,1,8
316,44,180174,1,0
412,108,180643,1,8
376,216,181112,5,4
432,312,181580,1,8
316,312,182049,2,4,B|200:312,1,115
136,216,182987,6,0,B|76:236|76:236|36:272|52:336,2,172.5,4|0|8
200,120,184862,2,0,B|256:96|312:120,1,115,0|8
368,220,185799,2,0,B|312:244|256:220,1,115,0|8
136,216,186737,6,0,B|76:236|76:236|36:272|52:336,2,172.5,0|0|8
200,312,188612,1,0
312,312,189080,1,8
256,212,189549,1,0
196,116,190018,1,8
316,116,190487,6,2,B|376:136|376:136|416:172|400:236,2,172.5,2|0|8
256,212,192362,2,0,B|236:272|236:272|200:312|136:296,2,172.5,0|0|8
144,196,194237,6,0,B|80:204|40:160,1,115,0|8
96,60,195174,2,0,B|160:52|200:96,1,115,0|8
316,96,196112,6,0,B|356:52|420:60,1,115,4|4
472,160,197049,2,4,B|432:204|368:196,1,115
344,308,197987,6,0,B|284:288|284:288|244:252|260:188,2,172.5,4|0|8
448,360,199862,2,0,B|472:304|448:248,1,115,0|8
504,148,200799,2,0,B|448:124|392:148,1,115,0|8
364,36,201737,6,0,B|304:56|304:56|264:92|280:156,2,172.5,0|0|8
392,148,203612,1,0
336,248,204080,1,8
220,248,204549,1,0
164,148,205018,1,8
144,36,205487,6,2,B|84:56|84:56|44:92|60:156,2,172.5,0|0|8
164,148,207362,2,0,B|224:128|224:128|264:92|248:28,2,172.5,0|0|8
60,196,209237,6,0,B|52:260|96:300,1,115,4|0
204,340,210174,2,0,B|212:276|168:236,1,115,2|0
284,236,211112,6,0,B|324:280|388:272,1,115,2|0
448,172,212049,2,0,B|388:100|292:120,1,172.5,2|0
