osu file format v9

[General]
AudioFilename: dj project - inca o noapte.mp3
AudioLeadIn: 0
PreviewTime: 62987
Countdown: 1
SampleSet: Normal
StackLeniency: 0.7
Mode: 0
LetterboxInBreaks: 0

[Editor]
Bookmarks: 21737,96737
DistanceSpacing: 0.7
BeatDivisor: 4
GridSize: 4

[Metadata]
Title:Inca o Noapte
Artist:DJ Project
Creator:Tony
Version:Dificil
Source:Best of Romanian Songs 2006
Tags:Povestea mea my story romana one more night [Te][Amo]

[Difficulty]
HPDrainRate:7
CircleSize:4
OverallDifficulty:7
ApproachRate:7
SliderMultiplier:1.7
SliderTickRate:2

[Events]
//Background and Video events
Video,500,"DJ Project - Inca O Noapte.flv"
0,0,"bg.JPG"
//Break Periods
2,78187,90212
//Storyboard Layer 0 (Background)
//Storyboard Layer 1 (Fail)
//Storyboard Layer 2 (Pass)
//Storyboard Layer 3 (Foreground)
Sprite,Foreground,Centre,"Tony.png",320,57 S,0,0,,0.525 F,0,0,212752,1 F,0,212752,213455,1,0
//Storyboard Sound Samples
//Background Colour Transformations
3,100,163,162,255

[TimingPoints]
2987.11497757967,468.75,4,1,0,40,1,0
47987,-100,4,2,0,50,0,0
63455,-100,4,1,0,40,0,0
66737,-100,4,2,0,50,0,0
67205,-100,4,1,0,40,0,0
70487,-100,4,2,0,50,0,0
70545,-100,4,1,0,40,0,0
72362,-100,4,2,0,50,0,0
72420,-100,4,1,0,40,0,0
74237,-100,4,2,0,50,0,0
74471,-100,4,1,0,40,0,0
75174,-100,4,2,0,50,0,0
75408,-100,4,1,0,40,0,0
76112,-100,4,2,0,50,0,0
77987,-100,4,1,0,40,0,0
119237,-100,4,1,0,30,0,0
120643,-100,4,1,0,40,0,0
121112,-100,4,2,0,50,0,0
152987,-100,4,2,0,50,0,1
153221,-100,4,1,0,40,0,1
160487,-100,4,2,0,50,0,1
160721,-100,4,1,0,40,0,1
162362,-100,4,2,0,50,0,1
162596,-100,4,1,0,40,0,1
164237,-100,4,2,0,50,0,1
164354,-100,4,1,0,40,0,1
165174,-100,4,2,0,50,0,1
165291,-100,4,1,0,40,0,1
165643,-100,4,2,0,50,0,1
165760,-100,4,1,0,40,0,1
166112,-100,4,2,0,50,0,0
182987,-100,4,1,0,40,0,1
196112,-100,4,2,0,50,0,0
197987,-100,4,1,0,40,0,1
209237,-100,4,2,0,50,0,0
212752,-100,4,1,0,20,0,0

[Colours]
Combo1 : 0,64,0
Combo2 : 103,21,134
Combo3 : 3,3,141
Combo4 : 143,3,3
Combo5 : 117,70,0

[HitObjects]
256,192,16112,12,0,17518
316,128,17752,5,0
336,228,17987,1,6
256,288,18221,1,0
176,228,18455,1,8
196,128,18690,2,0,B|116:76|37:128,2,170,2|0|0
256,44,19862,5,2
316,128,20096,1,0
260,212,20330,1,8
260,212,20565,2,0,B|340:264|419:212,2,170,2|0|0
156,216,21737,1,2
148,220,21854,1,0
140,224,21971,1,0
40,220,22205,6,0,B|32:268|72:296,1,85,8|0
164,332,22674,1,2
260,296,22908,1,0
348,332,23143,1,8
442,294,23377,2,0,B|480:268|472:220,1,85
464,120,23846,6,0,B|412:80|344:100,2,127.5
392,192,24783,1,0
390,200,24901,1,0
388,208,25018,1,8
296,160,25252,2,0,B|256:184|216:160,1,85,0|2
256,252,25721,2,0,B|184:256|142:205,2,127.5,0|0|0
296,344,26658,6,0,B|256:320|216:344,2,85,0|8|0
396,316,27362,1,2
448,228,27596,2,0,B|498:269|494:341,2,127.5,0|0|0
440,223,28416,1,0
431,221,28533,1,0
332,196,28768,5,8
256,264,29002,1,0
180,196,29237,1,2
204,96,29471,1,0
308,96,29705,1,8
332,196,29940,6,0,B|352:284,1,85,0|0
256,264,30408,2,0,B|256:352,2,85,0|8|0
180,196,31112,2,0,B|160:284,2,85,2|0|8
256,124,31815,1,0
208,36,32049,2,0,B|168:56|124:40,1,85,0|0
304,36,32518,2,0,B|344:56|388:40,1,85,8|0
360,256,32987,5,6
308,344,33221,1,0
204,344,33455,1,8
148,260,33690,2,0,B|108:268|108:268|64:260,1,85,2|0
16,172,34158,2,0,B|56:164|56:164|100:172,1,85,0|8
200,184,34627,1,0
208,181,34744,1,0
216,180,34862,1,2
216,80,35096,6,0,B|256:56|296:80,1,85,0|8
368,152,35565,2,0,B|392:192|368:232,1,85,2|0
340,328,36033,1,0
340,328,36268,2,0,B|260:368|176:328,1,170,8|2
103,256,36971,6,0,B|69:284|79:331,2,85,0|8|2
104,152,37674,1,0
204,180,37908,1,0
308,180,38143,1,8
408,152,38377,1,0
410,256,38612,2,0,B|443:285|433:333,2,85,2|0|8
408,152,39315,5,2
352,68,39549,1,0
256,108,39783,1,0
160,68,40018,1,8
132,168,40252,2,0,B|144:208|184:232,1,85,0|2
216,328,40721,2,0,B|256:340|300:328,2,85,0|8|2
256,236,41424,6,0,B|256:68,2,170,0|8|2
256,340,42596,1,0
256,340,42713,1,0
256,340,42830,1,8
156,328,43065,1,2
64,308,43299,2,0,B|40:268|48:228,1,85,0|0
64,124,43768,2,0,B|104:100|145:108,1,85,8|0
128,208,44237,5,2
216,152,44471,1,0
256,60,44705,1,8
296,152,44940,1,2
384,208,45174,1,0
440,292,45408,6,0,B|404:312|356:300,1,85,0|8
256,280,45877,1,0
156,300,46112,2,0,B|108:312|72:292,1,85,2|0
128,208,46580,5,8
164,112,46815,1,2
256,72,47049,1,0
348,112,47283,2,0,B|372:100|388:84,2,42.5,0|0|8
384,208,47752,1,0
464,272,47987,6,0,B|384:332|308:272,1,170,4|0
204,272,48690,2,0,B|124:332|48:272,2,170,2|0|2
335,111,50096,2,0,B|255:171|179:111,2,170,0|2|0
256,44,51268,1,2
256,44,51737,6,0,B|256:212,1,170,4|0
336,276,52440,2,0,B|256:336|180:276,1,170,2|0
16,156,53377,2,0,B|96:96|172:156,1,170,2|0
495,155,54315,2,0,B|416:96|340:155,1,170,2|0
256,216,55018,1,2
256,216,55487,6,0,B|256:36,1,170,4|0
172,108,56190,1,0
72,108,56424,2,0,B|72:192,2,85,2|0|0
176,284,57362,6,0,B|256:344|332:284,1,170,2|0
344,184,58065,1,0
308,88,58299,1,2
208,88,58533,1,0
168,184,58768,1,0
64,360,59237,6,0,B|20:288,2,85,2|2|0
492,288,60174,2,0,B|448:360,2,85,2|2|0
256,192,61112,12,4,62987
256,64,63455,5,8
416,192,63924,1,0
256,320,64393,1,8
96,192,64862,1,0
256,64,65330,2,0,B|256:232,2,170,8|0|8
356,84,66502,1,0
456,64,66737,5,4
456,268,67205,1,8
256,312,67674,1,0
56,268,68143,1,8
56,64,68612,1,0
256,88,69080,5,8
256,88,69549,2,0,B|296:106|296:106|323:181|256:208,1,170,0|8
256,312,70252,1,0
344,260,70487,6,0,B|411:239|428:260|444:280|512:260,1,170,4|8
168,260,71424,2,0,B|100:239|83:260|67:280|0:260,1,170,0|8
176,152,72362,6,0,B|256:100|336:152,1,170,4|8
176,24,73299,2,0,B|256:76|336:24,1,170,0|8
444,196,74237,5,4
448,296,74471,1,0
356,252,74705,1,8
152,252,75174,1,4
60,296,75408,1,0
64,196,75643,1,8
214,53,76112,6,4,B|199:108|256:136|312:108|298:53,3,170
256,252,77987,1,4
256,192,91112,12,0,92518
168,96,92752,5,0
256,48,92987,1,6
344,96,93221,1,0
256,144,93455,1,8
256,248,93690,2,0,B|288:286|277:335|239:368|190:357,2,170,2|0|0
156,264,94862,5,2
80,332,95096,1,0
52,232,95330,1,8
128,164,95565,2,0,B|160:125|149:76|111:43|62:54,2,170,2|0|0
256,68,96737,5,2
348,116,96971,1,0
428,52,97205,2,0,B|464:80|464:124,1,85,8|0
396,200,97674,1,2
396,200,97908,1,0
476,264,98143,2,0,B|448:300|404:300,1,85,8|0
300,312,98612,5,0
220,252,98846,2,0,B|164:209|164:141,2,127.5
268,164,99783,1,0
268,164,99901,1,0
268,164,100018,1,8
232,68,100252,1,0
332,84,100487,5,2
332,83,100721,2,0,B|402:99|448:47,2,127.5
268,164,101658,1,0
268,164,101776,1,0
268,164,101893,1,8
168,140,102127,1,0
88,204,102362,5,2
88,204,102596,2,0,B|56:256|72:328,2,127.5
80,104,103533,1,0
164,44,103768,2,0,B|212:48|240:80,1,85,8|0
336,44,104237,6,0,B|400:104|392:200,1,170,2|8
228,320,105174,2,0,B|164:260|172:164,1,170,2|8
252,104,105877,5,0
252,104,105994,1,0
252,104,106112,1,0
288,200,106346,2,0,B|336:324,2,127.5
344,116,107283,1,0
388,208,107518,1,8
444,124,107752,1,0
500,336,107987,6,0,B|416:332,1,85,6|0
312,328,108455,1,8
208,324,108690,2,0,B|128:320|128:320|88:296|100:236,1,170,2|0
68,144,109393,1,8
168,160,109627,6,0,B|212:168,2,42.5,0|0|2
132,64,110096,1,0
132,64,110330,1,8
232,76,110565,2,0,B|300:92|300:92|346:120|326:178,1,170,2|0
316,280,111268,1,8
412,248,111502,1,0
440,148,111737,5,2
446,142,111854,1,0
449,134,111971,1,0
400,44,112205,1,8
400,44,112440,1,2
312,92,112674,2,0,B|264:100|232:76,1,85,0|0
136,40,113143,6,0,B|120:133|180:197,1,170,8|2
164,300,113846,2,0,B|236:304|276:252,2,127.5
84,236,114783,1,0
84,236,114901,1,0
84,236,115018,1,8
36,148,115252,1,0
76,52,115487,5,2
76,52,115721,2,0,B|132:32|132:32|192:24|216:44,2,127.5
36,148,116658,2,0,B|-4:160,2,42.5,0|0|8
136,124,117127,1,0
184,212,117362,5,2
256,284,117596,1,0
328,212,117830,1,8
256,140,118065,1,2
337,47,118299,2,0,B|376:124,1,85,0|0
174,47,118768,2,0,B|136:124,1,85,8|0
132,228,119237,6,2,B|148:300|216:348|296:348|364:300|380:228,1,340
256,68,120643,1,8
256,68,121112,6,0,B|256:236,1,170,4|4
80,340,122049,2,4,B|80:168,1,170
440,68,122987,6,0,B|480:148|440:232,1,170,4|0
372,308,123690,2,0,B|332:228|372:144,1,170,2|0
192,48,124627,2,0,B|124:27|107:48|91:68|24:48,1,170,2|0
25,253,125565,2,0,B|93:274|110:253|126:233|193:253,1,170,2|0
200,148,126268,1,2
200,148,126737,6,0,B|368:148,1,170,4|0
436,228,127440,2,0,B|476:148|436:64,1,170,2|0
232,64,128377,2,0,B|64:64,1,170,2|0
62,268,129315,2,0,B|230:268,1,170,2|0
232,164,130018,1,2
232,164,130487,6,0,B|300:185|317:164|333:144|400:164,1,170,4|0
400,264,131190,1,2
308,304,131424,1,0
208,304,131658,1,2
112,264,131893,2,0,B|72:184|112:100,2,170,0|2|0
188,196,133065,5,2
204,96,133299,1,0
308,96,133533,1,2
324,196,133768,1,0
475,332,134237,6,0,B|464:248,2,85,2|2|0
48,248,135174,2,0,B|36:332,2,85,2|2|0
36,51,136112,6,0,B|48:136,2,85,2|2|0
464,136,137049,2,0,B|475:51,2,85,2|2|0
48,136,137987,6,0,B|128:76|204:136,1,170,6|0
308,136,138690,2,0,B|388:196|464:136,2,170,2|0|2
178,295,140096,2,0,B|258:235|334:295,2,170,0|2|0
256,364,141268,1,2
256,364,141737,6,4,B|256:196,1,170,4|0
176,132,142440,2,0,B|256:72|332:132,1,170,2|0
496,252,143377,2,0,B|416:312|340:252,1,170,2|0
16,252,144315,2,0,B|96:312|172:252,1,170,2|0
256,192,145018,1,2
256,192,145487,6,0,B|256:372,1,170,4|0
340,300,146190,1,0
440,300,146424,2,0,B|440:216,2,85,2|0|0
336,124,147362,6,0,B|256:64|180:124,1,170,2|0
168,224,148065,1,0
204,320,148299,1,2
304,320,148533,1,0
344,224,148768,1,0
448,48,149237,6,0,B|492:120,2,85,2|2|0
20,120,150174,2,0,B|64:48,2,85,2|2|0
192,272,151112,5,2
256,192,151346,1,2
320,272,151580,1,0
296,68,152049,2,0,B|212:68,2,85,2|2|0
444,208,152987,5,4
416,304,153221,1,0
320,272,153455,1,8
352,176,153690,1,0
160,176,153924,5,0
192,268,154158,1,0
96,300,154392,1,8
64,204,154627,1,0
104,72,154862,5,0
204,96,155096,1,0
308,96,155330,1,8
408,72,155565,1,0
384,244,155799,5,0
308,176,156033,1,0
204,176,156268,1,8
128,244,156502,1,0
256,360,156737,5,0
204,272,156971,1,0
308,272,157206,1,8
256,360,157440,1,0
408,352,157674,5,0
500,308,157908,1,0
480,208,158143,1,8
384,244,158377,1,0
256,144,158612,5,0
308,56,158846,1,0
204,56,159081,1,8
256,144,159315,1,0
128,244,159549,5,0
32,208,159783,1,0
12,308,160018,1,8
104,352,160252,1,0
256,284,160487,5,4
356,284,160721,2,0,B|440:284,2,85,0|8|0
356,180,161424,2,0,B|356:92,1,85
256,64,161893,2,0,B|256:149,1,85,8|0
256,284,162362,5,4
156,284,162596,2,0,B|72:284,2,85,0|8|0
156,180,163299,2,0,B|156:96,1,85
256,64,163768,2,0,B|256:148,1,85,8|0
260,292,164237,5,4
282,311,164355,1,0
311,317,164472,1,0
340,310,164589,1,0
362,290,164706,1,8
386,307,164823,1,0
415,313,164940,1,0
444,306,165057,1,0
466,286,165174,5,4
476,258,165291,1,0
472,228,165408,1,0
454,204,165526,1,0
428,191,165643,1,4
400,188,165760,1,0
374,174,165877,1,0
357,149,165994,1,0
354,119,166112,1,4
256,192,166229,12,0,167518
204,144,167987,5,4
304,144,168221,2,0,B|440:144,1,127.5,2|0
316,244,168924,2,0,B|180:244,2,127.5,2|2|0
420,244,169862,5,2
364,328,170096,2,0,B|236:328,1,127.5,0|0
124,220,170799,2,0,B|88:160|124:96,2,127.5,2|2|0
200,156,171737,5,2
200,156,171971,2,0,B|220:180|256:192|292:180|312:156,1,127.5,0|0
312,304,172674,2,0,B|292:280|256:268|220:280|200:304,2,127.5,2|2|0
360,216,173612,5,2
360,216,173846,2,0,B|488:216,1,127.5,0|0
368,124,174549,2,0,B|388:100|424:88|460:100|480:124,2,127.5,2|2|0
280,172,175487,5,2
180,172,175721,2,0,B|136:156|120:172|104:188|56:172,1,127.5
152,292,176424,2,0,B|132:316|96:328|60:316|40:292,2,127.5,2|2|0
256,296,177362,5,2
360,292,177596,2,0,B|380:316|416:328|452:316|472:292,1,127.5
364,184,178299,2,0,B|344:160|308:148|272:160|252:184,2,127.5,2|2|0
364,80,179237,5,2
264,80,179471,2,0,B|193:94|167:161,1,127.5,0|0
214,307,180174,2,0,B|284:292|310:225,2,127.5,2|2|0
144,236,181112,5,4
156,32,181580,1,4
356,32,182049,1,4
368,236,182518,1,4
312,320,182752,1,0
256,236,182987,6,0,B|256:148,1,85,4|0
154,151,183455,2,0,B|154:239,1,85,8|0
64,192,183924,1,0
64,192,184158,1,0
80,92,184393,6,0,B|104:52|152:52,1,85,8|0
252,52,184862,2,0,B|300:52|324:92,1,85
376,176,185330,1,8
272,176,185565,1,0
324,264,185799,2,0,B|300:304|252:304,1,85
245,306,186151,1,0
236,306,186268,1,8
80,92,186737,5,4
56,192,186971,1,0
156,216,187205,1,8
184,116,187440,1,0
328,116,187674,5,0
356,216,187909,1,0
456,192,188143,1,8
432,92,188377,1,0
256,56,188612,6,0,B|256:140,1,85
256,244,189080,2,0,B|256:328,2,85,8|0|0
152,248,189783,1,0
143,248,189901,1,0
134,248,190018,1,8
40,208,190252,1,0
128,156,190487,6,2,B|149:71|254:18|360:71|381:156,1,340,6|2
300,220,191658,1,0
256,200,191776,1,0
212,220,191893,1,8
204,320,192127,1,0
308,320,192362,5,0
392,264,192596,2,0,B|448:224|432:152,1,127.5,2|0
120,264,193299,2,0,B|64:224|80:152,2,127.5,2|2|2
256,108,194237,5,0
336,48,194471,2,0,B|372:108|336:168,1,127.5,2|0
176,48,195174,2,0,B|140:108|176:168,2,127.5,2|2|2
256,252,196112,5,4
60,300,196580,1,4
256,352,197049,1,4
452,300,197518,1,4
354,277,197752,1,0
256,252,197987,6,0,B|256:164,1,85,4|0
156,168,198455,2,0,B|68:168,1,85,8|0
12,84,198924,1,0
112,84,199158,1,0
212,84,199393,2,0,B|296:84,1,85,8|0
348,172,199862,5,0
344,272,200096,1,0
256,324,200330,1,8
168,272,200565,1,0
164,172,200799,1,0
256,220,201033,1,0
256,220,201151,1,0
256,220,201268,1,8
324,44,201737,6,0,B|368:32|408:44,1,85
456,132,202205,2,0,B|412:144|372:132,1,85,8|0
188,44,202674,6,0,B|144:32|104:44,1,85
56,132,203142,2,0,B|100:144|140:132,1,85,8|0
172,292,203612,6,0,B|212:264|212:220,1,85
308,184,204080,2,0,B|301:140|257:119,2,85,8|0|0
292,284,204783,1,0
385,242,205018,1,8
385,242,205135,1,0
385,242,205252,1,0
382,140,205487,6,2,B|361:55|256:2|150:55|129:140,1,340,6|2
216,192,206658,1,0
256,156,206776,1,0
296,192,206893,1,8
308,292,207127,1,0
204,292,207362,5,0
116,340,207596,2,0,B|68:296|84:224,1,127.5,2|0
396,340,208299,2,0,B|444:296|428:224,2,127.5,2|2|2
256,108,209237,5,4
336,48,209471,2,0,B|372:108|336:168,1,127.5,2|0
176,48,210174,2,0,B|140:108|176:168,2,127.5,2|2|2
192,252,211346,6,0,B|320:252,1,127.5,2|0
192,340,212049,2,0,B|320:340,2,127.5,2|2|0
