osu file format v12

[General]
AudioFilename: NEW 2013 Pop Megamix (25 Songs) - DJ Penetration [Mashup].mp3
AudioLeadIn: 0
PreviewTime: 177537
Countdown: 0
SampleSet: Soft
StackLeniency: 0.7
Mode: 0
LetterboxInBreaks: 0
WidescreenStoryboard: 1

[Editor]
Bookmarks: 31334,38834,46334,53834,61334,65084,72584,80084,87584,95084,102584,110084,117584,125084,140084,155084,162584,170084,185084,192115,192584,200084,207584,226802,237584,245084,252584,259615
DistanceSpacing: 1.5
BeatDivisor: 4
GridSize: 4

[Metadata]
Title:2013 Pop Megamix (Mashup)
TitleUnicode:2013 Pop Megamix (Mashup)
Artist:DJ Penetration
ArtistUnicode:DJ Penetration
Creator:Lally
Version:Collab Insane
Source:
Tags:I'm all yours jay sean pitbull seek bromance tim berg turn me on david guetta nicki minaj just dance lady gaga akon colby o'donis psy gangnam style tonight enrique iglesias ludacris rihanna you da one party rock anthem lmfao lauren bennett goonrock where have been blow ke$ha sexy and know it till the world ends britney spears love like song selena gomez scene part katy perry give everything afrojack nayer ne-yo spectrum zedd matthew koma titanium this one direction what makes beautiful luvin' madonna m.i.a. die young starships Xinely Garven Stefan TheNutritiousGuy HeatKai heatwave95 Darksonic Kodora Saten Saten-san No_Gu Sekai-nyan Sekai -Sekai- Roxas Dark_Ai -Bakari- Andrea osuplayer111 [Luanny] [Luanny PhNyx] Gabe Scorpiour Irreversible Gero Byakugan249 Chewin Amamiya Yuko Skystar alacat Nemis Leader BounceBabe collab
BeatmapID:317549
BeatmapSetID:124596

[Difficulty]
HPDrainRate:7
CircleSize:5
OverallDifficulty:8
ApproachRate:8
SliderMultiplier:2
SliderTickRate:1

[Events]
//Background and Video events
0,0,"o3o.jpg",0,0
//Break Periods
2,140284,154334
2,207784,226052
//Storyboard Layer 0 (Background)
//Storyboard Layer 1 (Fail)
//Storyboard Layer 2 (Pass)
//Storyboard Layer 3 (Foreground)
Sprite,Foreground,Centre,"SB\Names\Lally.png",320,240 M,0,34849,35084,320,520,320,300 F,0,35084,,1 M,0,35084,38365,320,300 M,0,38365,38599,320,300,320,520
Sprite,Foreground,Centre,"SB\Names\Xinely.png",320,240 M,0,38365,38599,320,-42,320,180 M,0,38599,45865,320,180 M,0,45865,46099,320,180,320,-42
Sprite,Foreground,Centre,"SB\Names\Garven.png",320,240 M,0,46099,46334,320,520,320,300 M,0,46334,53365,320,300 M,0,53365,53599,320,300 M,0,53599,53834,320,300,320,520
Sprite,Foreground,Centre,"SB\Names\Stefan.png",320,240 M,0,53599,53834,320,-42,320,180 M,0,53834,60865,320,180 M,0,60865,61099,320,180,320,-42
Sprite,Foreground,Centre,"SB\Names\HeatKai.png",320,240 M,0,61099,61334,320,520,320,300 M,0,61334,64615,320,300 M,0,64615,64849,320,300,320,520
Sprite,Foreground,Centre,"SB\Names\Darksonic.png",320,240 M,0,64849,65084,320,-42,320,180 M,0,65084,72115,320,180 M,0,72115,72349,320,180,320,-42
Sprite,Foreground,Centre,"SB\Names\Kodora.png",320,240 M,0,72349,72584,320,520,320,300 M,0,72584,79615,320,300 M,0,79615,79849,320,300,329,519
Sprite,Foreground,Centre,"SB\Names\Saten.png",320,240 M,0,79849,80084,320,-42,320,180 M,0,80084,87115,320,180 M,0,87115,87349,320,180,320,-42
Sprite,Foreground,Centre,"SB\Names\No_Gu.png",320,240 M,0,87349,87584,320,520,320,300 M,0,87584,94615,320,300 M,0,94615,94849,320,300,320,520
Sprite,Foreground,Centre,"SB\Names\Sekai.png",320,240 M,0,94849,95084,320,-42,320,180 M,0,95084,102115,320,180 M,0,102115,102349,320,180,320,-42
Sprite,Foreground,Centre,"SB\Names\Roxas.png",320,240 M,0,102349,102584,320,520,320,300 M,0,102584,109615,320,300 M,0,109615,109849,320,300,320,520
Sprite,Foreground,Centre,"SB\Names\Dark_Ai.png",320,240 M,0,109849,110084,320,-42,320,180 M,0,110084,117115,320,180 M,0,117115,117349,320,180,320,-42
Sprite,Foreground,Centre,"SB\Names\Bakari.png",320,240 M,0,117349,117584,320,520,320,300 M,0,117584,124615,320,300 M,0,124615,124849,320,300,320,520
Sprite,Foreground,Centre,"SB\Names\Andrea.png",320,240 M,0,124849,125084,320,-42,320,180 M,0,125084,139615,320,180 M,0,139615,139849,320,180,320,-42
Sprite,Foreground,Centre,"SB\Names\Luanny.png",320,240 M,0,155084,155318,320,520,320,300 M,0,155318,162115,320,300 M,0,162115,162349,320,300,320,520
Sprite,Foreground,Centre,"SB\Names\Gabe.png",320,240 M,0,162349,162584,320,-42,320,180 M,0,162584,169615,320,180 M,0,169615,169849,320,180,320,-42
Sprite,Foreground,Centre,"SB\Names\Scorp.png",320,240 M,0,169849,170084,320,520,320,300 M,0,170084,184615,320,300 M,0,184615,184849,320,300,320,520
Sprite,Foreground,Centre,"SB\Names\Irre.png",320,240 M,0,184849,185084,320,-42,320,180 M,0,185084,192115,320,180 M,0,192115,192349,320,180,320,-42
Sprite,Foreground,Centre,"SB\Names\Gero.png",320,240 M,0,192349,192584,320,520,320,300 M,0,192584,199615,320,300 M,0,199615,199849,320,300,320,520
Sprite,Foreground,Centre,"SB\Names\Byakugan.png",320,240 M,0,199849,200084,320,-42,320,180 M,0,200084,207115,320,180 M,0,207115,207349,320,180,320,-42
Sprite,Foreground,Centre,"SB\Names\Chewin.png",320,240 M,0,226802,227037,320,520,320,300 M,0,227037,237115,320,300 M,0,237115,237349,320,300,320,520
Sprite,Foreground,Centre,"SB\Names\Yuko.png",320,240 M,0,237349,237584,320,-42,320,180 M,0,237584,244615,320,180 M,0,244615,244849,320,180,320,-42
Sprite,Foreground,Centre,"SB\Names\alacat.png",320,240 M,0,244849,245084,320,520,320,300 M,0,245084,252115,320,300 M,0,252115,252349,320,300,320,520
Sprite,Foreground,Centre,"SB\Names\Nemis.png",320,240 M,0,252349,252584,320,520,320,430 F,0,252584,259380,1
//Storyboard Sound Samples
//Background Colour Transformations
3,100,163,162,255

[TimingPoints]
31334,468.75,4,1,1,70,1,0
34615,-100,4,2,3,70,0,0
35084,-100,4,1,1,70,0,0
38834,-100,4,2,3,70,0,0
38951,-100,4,1,1,70,0,0
40709,-100,4,2,3,70,0,0
40826,-100,4,1,1,70,0,0
42584,-100,4,2,1,70,0,0
42701,-100,4,1,1,70,0,0
46334,-100,4,2,1,70,0,0
46451,-100,4,1,1,70,0,0
48209,-100,4,2,1,70,0,0
48326,-100,4,1,1,70,0,0
52662,-100,4,2,2,70,0,0
53834,-100,4,2,3,70,0,0
53951,-100,4,1,1,70,0,0
55709,-100,4,2,3,70,0,0
55826,-100,4,1,1,70,0,0
58521,-100,4,2,2,70,0,0
58638,-100,4,1,1,70,0,0
65084,-100,4,2,1,70,0,0
65201,-100,4,2,2,70,0,0
80084,-100,4,1,2,70,0,0
95084,-100,4,2,3,70,0,0
110084,-100,4,2,1,70,0,0
113482,-100,4,2,3,70,0,0
125201,-100,4,2,1,70,0,0
139146,-100,4,2,3,70,0,0
139263,-100,4,2,1,70,0,0
155084,-100,4,1,2,70,0,0
164693,-100,4,1,2,80,0,0
165044,-100,4,1,2,60,0,0
165396,-100,4,1,2,40,0,0
165865,-100,4,1,2,60,0,0
166099,-100,4,1,2,80,0,0
166334,-100,4,1,2,90,0,0
168443,-100,4,1,2,80,0,0
168794,-100,4,1,2,60,0,0
169146,-100,4,1,2,40,0,0
169615,-100,4,1,2,60,0,0
169849,-100,4,1,2,80,0,0
170084,-100,4,1,2,50,0,0
177584,-100,4,2,1,90,0,1
180396,-83.3333333333333,4,2,1,90,0,1
180982,-100,4,2,1,90,0,1
184615,-83.3333333333333,4,2,1,90,0,1
192115,-100,4,2,1,80,0,0
192584,-77.5193798449612,4,2,1,90,0,1
200084,-83.3333333333333,4,2,1,90,0,1
207584,-100,4,1,2,70,0,0
230084,-100,4,1,2,90,0,1
244146,-100,4,1,2,80,0,0
245084,-100,4,1,2,90,0,1
258209,-100,4,1,2,70,0,0

[Colours]
Combo1 : 220,154,196
Combo2 : 253,100,72
Combo3 : 234,189,9
Combo4 : 133,234,57
Combo5 : 109,228,172
Combo6 : 100,189,215
Combo7 : 104,85,213
Combo8 : 186,88,207

[HitObjects]
256,192,31334,12,0,34615,0:0:0:0:
144,304,35084,6,0,P|192:280|208:212,1,100,4|0,0:0|0:0,0:0:0:0:
252,160,35552,2,0,P|273:115|318:95,1,100,8|0,0:0|0:0,0:0:0:0:
380,160,36021,2,0,P|358:204|313:224,1,100,0|0,0:0|0:0,0:0:0:0:
228,244,36490,2,0,P|268:292|360:304,1,150,8|0,0:0|0:0,0:0:0:0:
351,306,36959,6,0,P|264:352|148:304,1,200,0|8,0:0|0:0,0:0:0:0:
72,260,37662,1,0,0:0:0:0:
256,96,38130,1,0,0:0:0:0:
351,306,38599,1,0,0:0:0:0:
204,332,38834,6,0,P|152:336|104:296,1,100,4|0,0:0|0:0,0:0:0:0:
80,288,39185,1,0,0:0:0:0:
60,252,39302,2,0,P|80:200|52:148,1,100,8|0,0:0|0:0,0:0:0:0:
124,32,39771,1,0,0:0:0:0:
272,64,40005,1,0,0:0:0:0:
216,200,40240,1,8,0:0:0:0:
260,324,40474,1,0,0:0:0:0:
292,344,40591,1,0,0:0:0:0:
332,344,40709,6,0,P|380:348|432:316,1,100,4|0,0:0|0:0,0:0:0:0:
460,232,41177,2,0,L|512:236,2,50,8|0|0,0:0|0:0|0:0,0:0:0:0:
364,40,41646,2,0,P|328:72|276:84,1,100,0|0,0:0|0:0,0:0:0:0:
244,88,41998,1,0,0:0:0:0:
204,88,42115,2,0,P|155:99|118:132,1,100,8|0,0:0|0:0,0:0:0:0:
184,344,42584,6,0,P|217:279|189:212,1,150,4|0,0:0|0:0,0:0:0:0:
164,184,43052,2,0,P|115:188|67:160,1,100,8|0,0:0|0:0,0:0:0:0:
204,88,43521,1,0,0:0:0:0:
240,76,43638,1,0,0:0:0:0:
280,72,43755,1,0,0:0:0:0:
316,88,43873,1,0,0:0:0:0:
348,112,43990,2,0,P|360:160|336:216,1,100,8|0,0:0|0:0,0:0:0:0:
164,296,44459,6,0,P|204:316|272:312,1,100,0|0,0:0|0:0,0:0:0:0:
296,308,44810,1,0,0:0:0:0:
332,292,44927,1,8,0:0:0:0:
480,212,45162,1,0,0:0:0:0:
500,172,45279,1,0,0:0:0:0:
496,128,45396,2,0,P|444:68|356:72,1,150,0|0,0:0|0:0,0:0:0:0:
340,88,45865,1,8,0:0:0:0:
176,188,46099,1,0,0:0:0:0:
308,336,46334,5,4,0:0:0:0:
424,160,46568,1,0,0:0:0:0:
392,360,46802,1,8,0:0:0:0:
296,184,47037,1,0,0:0:0:0:
152,32,47271,2,0,P|105:116|151:200,1,200,0|8,0:0|0:0,0:0:0:0:
272,232,47974,1,0,0:0:0:0:
204,336,48209,5,4,0:0:0:0:
104,160,48443,1,0,0:0:0:0:
120,360,48677,1,8,0:0:0:0:
216,184,48912,1,0,0:0:0:0:
360,32,49146,2,0,P|416:112|400:176,1,150,0|0,0:0|0:0,0:0:0:0:
400,192,49615,1,8,0:0:0:0:
384,224,49732,1,0,0:0:0:0:
360,248,49849,1,0,0:0:0:0:
184,232,50084,6,0,L|96:280,1,100,4|0,2:0|0:0,0:0:0:0:
328,152,50552,2,0,L|416:104,1,100,8|0,0:0|0:0,0:0:0:0:
176,88,51021,1,0,0:0:0:0:
256,192,51255,1,0,0:0:0:0:
336,296,51490,1,8,0:0:0:0:
368,24,51959,6,0,L|312:112,1,100,0|0,0:0|0:0,0:0:0:0:
197,108,52427,2,0,L|144:24,1,100,8|2,0:0|0:0,0:0:0:0:
104,320,53130,1,2,0:0:0:0:
408,320,53599,1,2,0:0:0:0:
380,236,53834,6,0,P|340:268|321:313,1,100,4|0,0:0|0:0,0:0:0:0:
190,312,54302,2,0,P|170:266|132:236,1,100,8|0,0:0|0:0,0:0:0:0:
176,156,54771,1,0,0:0:0:0:
256,68,55005,1,0,0:0:0:0:
336,156,55240,1,8,0:0:0:0:
256,244,55474,1,0,0:0:0:0:
172,276,55709,6,0,P|256:324|339:277,1,200,4|8,0:0|0:0,0:0:0:0:
256,192,56412,1,0,0:0:0:0:
172,107,56646,2,0,P|255:59|339:107,1,200,0|8,0:0|0:0,0:0:0:0:
372,192,57349,1,0,0:0:0:0:
332,272,57584,6,0,L|256:336,1,100,4|0,2:0|0:0,0:0:0:0:
116,256,58052,1,8,0:0:0:0:
172,108,58287,1,0,0:0:0:0:
331,106,58521,2,0,B|437:130|478:292|317:294|229:160|386:103|466:178,1,400,2|4,0:0|2:0,0:0:0:0:
484,264,59693,5,0,0:0:0:0:
408,312,59927,1,8,0:0:0:0:
320,292,60162,2,0,B|248:244|264:160|264:160|224:184|224:184|172:160|132:200,1,300,0|8,0:0|0:0,0:0:0:0:
68,260,61099,1,0,0:0:0:0:
156,284,61334,6,0,P|172:332|228:356,1,100,4|0,0:0|0:0,0:0:0:0:
302,355,61802,2,0,P|344:330|359:283,1,100,8|0,0:0|0:0,0:0:0:0:
302,213,62271,1,0,0:0:0:0:
302,213,62388,1,0,0:0:0:0:
211,213,62623,1,0,0:0:0:0:
211,213,62740,1,8,0:0:0:0:
176,132,62974,6,0,P|156:82|132:40,1,100,0|4,0:0|2:0,0:0:0:0:
256,68,63443,1,0,0:0:0:0:
378,42,63677,2,0,P|353:85|336:132,1,100,8|0,0:0|0:0,0:0:0:0:
380,212,64146,1,0,0:0:0:0:
360,252,64263,1,0,0:0:0:0:
132,212,64498,1,0,0:0:0:0:
152,252,64615,1,8,0:0:0:0:
277,212,64849,6,0,P|254:176|233:213,1,100,0|4,0:0|0:0,0:0:0:0:
300,288,65318,6,0,P|336:320|385:317,1,100,0|8,0:0|0:0,0:0:0:0:
336,176,65787,2,0,P|299:143|250:146,1,100,0|10,0:0|0:0,0:0:0:0:
180,92,66255,1,0,0:0:0:0:
168,180,66490,2,0,L|124:280,1,100,8|0,0:0|0:0,0:0:0:0:
284,316,66959,5,10,0:0:0:0:
372,296,67193,1,0,0:0:0:0:
304,236,67427,1,8,0:0:0:0:
436,355,67662,2,0,P|455:310|448:261,1,100,0|10,0:0|0:0,0:0:0:0:
396,112,68130,1,0,0:0:0:0:
312,144,68365,2,0,L|228:88,1,100,8|0,0:0|0:0,0:0:0:0:
156,36,68834,6,0,P|104:88|100:168,1,150,10|0,0:0|0:0,0:0:0:0:
127,195,69302,2,0,P|171:219|195:262,1,100,8|0,0:0|0:0,0:0:0:0:
224,348,69771,1,10,0:0:0:0:
304,304,70005,2,0,P|347:280|370:236,1,100,0|8,0:0|0:0,0:0:0:0:
284,216,70474,1,0,0:0:0:0:
412,316,70709,6,0,P|434:272|437:222,1,100,10|0,0:0|0:0,0:0:0:0:
404,140,71177,1,8,0:0:0:0:
280,76,71412,1,0,0:0:0:0:
284,216,71646,1,8,0:0:0:0:
196,352,71880,1,0,0:0:0:0:
120,304,72115,2,0,L|65:220,1,100,8|0,0:0|0:0,0:0:0:0:
96,136,72584,6,0,P|152:160|200:160,1,100,4|0,0:1|0:0,0:0:0:0:
288,144,73052,1,8,0:0:0:0:
368,80,73287,1,0,0:0:0:0:
288,144,73521,2,0,P|288:248|384:312,1,200,8|8,0:0|0:0,0:0:0:0:
448,256,74224,1,0,0:0:0:0:
240,360,74459,6,0,L|136:368,1,100,10|0,0:0|0:0,0:0:0:0:
72,296,74927,2,0,L|176:288,1,100,8|0,0:0|0:0,0:0:0:0:
304,192,75396,6,0,L|408:184,1,100,8|0,0:0|0:0,0:0:0:0:
304,192,76099,6,0,L|408:184,1,100,8|0,0:0|0:0,0:0:0:0:
304,192,76802,6,0,L|408:184,1,100,8|0,0:0|0:0,0:0:0:0:
176,96,77505,5,8,0:0:0:0:
168,88,77740,1,0,0:0:0:0:
392,192,78209,5,8,0:0:0:0:
400,200,78443,1,0,0:0:0:0:
192,296,78912,5,8,0:0:0:0:
184,304,79146,1,0,0:0:0:0:
72,104,79615,5,2,0:0:0:0:
89,79,79732,1,2,0:0:0:0:
117,70,79849,1,2,0:0:0:0:
146,71,79966,1,2,0:0:0:0:
172,84,80084,6,0,P|232:128|304:112,1,150,4|0,0:0|0:0,0:0:0:0:
301,113,80552,2,0,P|344:152|356:192,1,100,2|2,0:0|0:0,0:0:0:0:
256,304,81021,1,0,0:0:0:0:
220,308,81138,1,0,0:0:0:0:
188,296,81255,2,0,P|132:272|92:276,1,100,2|2,0:0|0:0,0:0:0:0:
64,128,81724,6,0,L|104:96,1,50,0|0,0:0|0:0,0:0:0:0:
103,96,81959,2,0,P|144:136|184:148,1,100,4|0,0:0|0:0,0:0:0:0:
256,28,82427,1,2,0:0:0:0:
256,28,82544,2,0,P|316:68|332:140,1,150,0|2,0:0|0:0,0:0:0:0:
256,276,83130,2,0,L|208:264,2,50,0|0|2,0:0|0:0|0:0,0:0:0:0:
380,192,83599,5,2,0:0:0:0:
380,192,83716,1,0,0:0:0:0:
380,192,83834,2,0,P|368:144|332:108,1,100,4|0,0:0|0:0,0:0:0:0:
300,176,84185,2,0,P|252:152|224:116,1,100,2|0,0:0|0:0,0:0:0:0:
256,48,84537,2,0,P|200:48|160:72,1,100,2|0,0:0|0:0,0:0:0:0:
148,88,84888,1,0,0:0:0:0:
124,96,85005,2,0,P|80:76|48:36,1,100,2|2,0:0|0:0,0:0:0:0:
8,192,85474,6,0,L|24:240,1,50,0|0,0:0|0:0,0:0:0:0:
23,239,85709,2,0,P|80:232|116:204,1,100,4|0,0:0|0:0,0:0:0:0:
256,156,86177,1,2,0:0:0:0:
276,172,86294,1,0,0:0:0:0:
300,184,86412,2,0,P|350:168|384:136,1,100,0|0,0:0|0:0,0:0:0:0:
280,28,86880,2,0,L|232:40,2,50,0|0|2,0:0|0:0|0:0,0:0:0:0:
384,136,87349,1,2,0:0:0:0:
240,264,87584,6,0,L|136:256,1,100,4|0,0:0|0:0,0:0:0:0:
88,216,87935,1,0,0:0:0:0:
88,216,88052,2,0,P|80:168|96:120,1,100,2|2,0:0|0:0,0:0:0:0:
184,48,88521,1,0,0:0:0:0:
184,48,88638,1,0,0:0:0:0:
184,48,88755,1,2,0:0:0:0:
288,96,88990,2,0,L|392:88,1,100,2|0,0:0|0:0,0:0:0:0:
208,248,89459,6,0,P|184:208|192:152,1,100,4|0,0:0|0:0,0:0:0:0:
280,272,89927,1,2,0:0:0:0:
272,304,90044,1,0,0:0:0:0:
248,328,90162,2,0,P|200:336|152:312,1,100,0|2,0:0|0:0,0:0:0:0:
48,232,90630,1,0,0:0:0:0:
48,232,90748,1,0,0:0:0:0:
48,232,90865,2,0,L|56:128,1,100,2|2,0:0|0:0,0:0:0:0:
208,80,91334,6,0,L|200:184,1,100,4|0,0:0|0:0,0:0:0:0:
232,240,91685,1,0,0:0:0:0:
232,240,91802,2,0,P|288:256|344:224,1,100,2|2,0:0|0:0,0:0:0:0:
432,112,92271,1,0,0:0:0:0:
432,112,92388,1,0,0:0:0:0:
432,112,92505,2,0,P|376:96|320:128,1,100,2|2,0:0|0:0,0:0:0:0:
168,200,92974,1,0,0:0:0:0:
168,200,93091,1,0,0:0:0:0:
168,200,93209,6,0,L|176:304,1,100,4|0,0:0|0:0,0:0:0:0:
40,192,93677,1,2,0:0:0:0:
40,192,93794,1,0,0:0:0:0:
40,192,93912,6,0,L|48:88,1,100,2|0,0:0|0:0,0:0:0:0:
248,200,94380,2,0,L|256:304,1,100,0|2,0:0|0:0,0:0:0:0:
48,368,94849,1,2,0:0:0:0:
128,340,95084,6,0,P|144:260|108:180,1,150,4|0,0:1|0:0,0:0:0:0:
116,172,95552,2,0,P|148:128|196:116,1,100,8|0,0:0|0:0,0:0:0:0:
344,76,96021,1,2,0:0:0:0:
364,92,96138,1,0,0:0:0:0:
368,116,96255,1,0,0:0:0:0:
364,140,96373,1,0,0:0:0:0:
344,156,96490,1,8,0:0:0:0:
304,268,96724,1,4,0:0:0:0:
344,156,96959,5,4,0:0:0:0:
228,184,97193,1,0,0:0:0:0:
304,268,97427,1,8,0:0:0:0:
188,296,97662,2,0,P|144:344|108:352,1,100,0|2,0:0|0:0,0:0:0:0:
228,184,98130,2,0,P|232:128|264:96,1,100,2|8,0:0|0:0,0:0:0:0:
344,156,98599,5,0,0:0:0:0:
360,168,98716,1,0,0:0:0:0:
368,188,98834,1,4,0:0:0:0:
228,184,99068,2,0,L|128:184,1,100,0|8,0:0|0:0,0:0:0:0:
88,276,99537,1,0,0:0:0:0:
32,192,99771,2,0,P|24:140|60:84,2,100,2|0|8,0:0|0:0|0:0,0:0:0:0:
88,276,100474,1,4,0:0:0:0:
188,292,100709,6,0,P|244:312|296:304,1,100,4|0,0:0|0:0,0:0:0:0:
300,296,101060,1,0,0:0:0:0:
312,280,101177,2,0,P|312:224|348:180,1,100,8|2,0:0|0:0,0:0:0:0:
344,172,101529,1,0,0:0:0:0:
344,152,101646,2,0,P|344:100|312:56,1,100,2|2,0:0|0:0,0:0:0:0:
172,64,102115,5,0,0:0:0:0:
104,164,102349,1,0,0:0:0:0:
232,164,102584,1,4,0:0:0:0:
344,172,102818,6,0,P|397:173|445:152,1,100,0|8,0:0|0:0,0:0:0:0:
288,217,103287,2,0,P|336:238|388:238,1,100,0|2,0:0|0:0,0:0:0:0:
232,164,103755,1,0,0:0:0:0:
120,119,103990,1,8,0:0:0:0:
36,205,104224,1,4,0:0:0:0:
70,320,104459,6,0,L|172:335,1,100,4|0,0:0|0:0,0:0:0:0:
354,259,104927,2,0,L|255:244,1,100,8|0,0:0|0:0,0:0:0:0:
120,119,105396,2,0,P|123:56|165:18,1,100,2|0,0:0|0:0,0:0:0:0:
281,155,105865,2,0,P|278:218|236:256,2,100,8|0|4,0:0|0:0|0:0,0:0:0:0:
229,46,106568,5,0,0:0:0:0:
158,142,106802,1,8,0:0:0:0:
281,155,107037,1,0,0:0:0:0:
395,119,107271,2,0,L|507:131,1,100,2|0,0:0|0:0,0:0:0:0:
282,155,107740,2,0,L|170:143,1,100,8|6,0:0|0:0,0:0:0:0:
367,233,108209,5,6,0:0:0:0:
371,235,108443,1,6,0:0:0:0:
173,261,108677,5,6,0:0:0:0:
169,263,108912,1,6,0:0:0:0:
310,374,109146,5,6,0:0:0:0:
310,374,109849,6,0,L|320:316,1,50,0|0,0:0|0:0,0:0:0:0:
336,280,110084,6,0,P|364:240|412:220,1,100,4|0,0:0|0:0,0:0:0:0:
428,220,110435,1,0,0:0:0:0:
448,224,110552,2,0,P|404:204|376:160,1,100,8|0,0:0|0:0,0:0:0:0:
376,152,111021,2,0,P|328:160|276:148,1,100,2|0,0:0|0:0,0:0:0:0:
192,100,111490,1,8,0:0:0:0:
260,232,111724,1,0,0:0:0:0:
96,116,111959,5,2,0:0:0:0:
96,116,112193,1,0,0:0:0:0:
60,208,112427,1,8,0:0:0:0:
28,248,112544,1,0,0:0:0:0:
24,300,112662,1,0,0:0:0:0:
60,208,112896,6,0,P|136:212|184:156,1,150,2|0,0:0|0:0,0:0:0:0:
192,136,113365,2,0,P|224:96|272:84,1,100,8|4,0:0|0:0,0:0:0:0:
320,248,113834,2,0,P|288:288|240:300,1,100,4|0,0:0|0:0,0:0:0:0:
269,83,114302,1,8,0:0:0:0:
269,83,114419,1,0,0:0:0:0:
269,83,114537,1,0,0:0:0:0:
344,152,114771,5,2,0:0:0:0:
224,60,115005,1,0,0:0:0:0:
408,120,115240,1,8,0:0:0:0:
168,104,115474,6,0,P|120:128|100:172,1,100,4|4,0:0|0:0,0:0:0:0:
184,192,115943,2,0,P|160:240|168:284,1,100,0|8,0:0|0:0,0:0:0:0:
248,252,116412,2,0,P|280:292|328:300,1,100,0|2,0:0|0:0,0:0:0:0:
332,200,116880,2,0,P|300:160|252:152,1,100,0|8,0:0|0:0,0:0:0:0:
200,248,117349,1,4,0:0:0:0:
100,292,117584,6,0,P|80:256|104:192,1,100,4|0,0:0|0:0,0:0:0:0:
184,184,118052,2,0,P|220:196|280:184,1,100,8|0,0:0|0:0,0:0:0:0:
332,112,118521,2,0,L|320:8,1,100,2|0,0:0|0:0,0:0:0:0:
424,108,118990,2,0,P|416:148|320:196,1,150,8|0,0:0|0:0,0:0:0:0:
284,184,119459,6,0,P|244:160|180:172,1,100,4|0,0:0|0:0,0:0:0:0:
156,188,119810,2,0,P|128:196|100:196,1,50,0|8,0:0|0:0,0:0:0:0:
88,182,120396,2,0,B|78:253|78:253|92:310|92:310|84:382,2,200,2|8|4,0:0|0:0|0:0,0:0:0:0:
48,76,121568,5,0,0:0:0:0:
68,80,121685,1,0,0:0:0:0:
88,84,121802,1,8,0:0:0:0:
172,48,122037,1,0,0:0:0:0:
320,148,122271,1,2,0:0:0:0:
408,172,122505,6,0,P|412:132|380:80,1,100,0|8,0:0|0:0,0:0:0:0:
332,228,122974,2,0,P|376:264|432:264,1,100,4|4,0:0|0:0,0:0:0:0:
320,148,123443,2,0,P|272:160|244:212,1,100,0|8,0:0|0:0,0:0:0:0:
260,288,123912,1,0,0:0:0:0:
136,208,124146,2,0,P|92:204|44:232,1,100,2|0,0:0|0:0,0:0:0:0:
112,292,124615,1,8,0:0:0:0:
132,292,124732,1,0,0:0:0:0:
152,288,124849,1,4,0:0:0:0:
212,220,125084,5,4,0:0:0:0:
256,140,125318,1,0,0:0:0:0:
256,140,125435,1,0,0:0:0:0:
256,140,125552,2,0,L|256:40,2,100,8|0|2,0:0|0:0|0:0,0:0:0:0:
308,212,126255,1,0,0:0:0:0:
396,232,126490,6,0,P|397:183|368:144,1,100,8|0,0:0|0:0,0:0:0:0:
244,268,126959,2,0,P|283:298|333:296,1,100,2|0,0:0|0:0,0:0:0:0:
160,292,127427,2,0,P|120:262|71:263,1,100,8|0,0:0|0:0,0:0:0:0:
100,180,127896,2,0,L|172:104,1,100,2|0,0:0|0:0,0:0:0:0:
256,136,128365,1,8,0:0:0:0:
412,180,128599,6,0,L|343:107,1,100,0|6,0:0|0:0,0:0:0:0:
256,136,129068,2,0,L|256:192,1,50,0|0,0:0|0:0,0:0:0:0:
256,232,129302,1,8,0:0:0:0:
312,304,129537,2,0,B|364:304|364:304|364:304|408:332,1,100,0|2,0:0|0:0,0:0:0:0:
200,304,130005,2,0,B|148:304|148:304|148:304|104:332,1,100,0|8,0:0|0:0,0:0:0:0:
256,232,130474,2,0,L|256:132,1,100,0|2,0:0|0:0,0:0:0:0:
256,40,130943,5,0,0:0:0:0:
280,40,131060,1,0,0:0:0:0:
304,40,131177,2,0,P|360:40|392:68,1,100,8|0,0:0|0:0,0:0:0:0:
424,152,131646,2,0,P|368:152|336:124,1,100,2|0,0:0|0:0,0:0:0:0:
256,168,132115,1,8,0:0:0:0:
175,124,132349,6,0,P|136:154|88:152,1,100,0|6,0:0|0:0,0:0:0:0:
256,40,132818,1,0,0:0:0:0:
232,40,132935,1,0,0:0:0:0:
208,40,133052,2,0,P|152:40|120:68,1,100,8|0,0:0|0:0,0:0:0:0:
88,152,133521,1,2,0:0:0:0:
88,240,133755,6,0,P|124:276|172:280,1,100,0|8,0:0|0:0,0:0:0:0:
256,244,134224,1,0,0:0:0:0:
424,240,134459,2,0,P|388:276|340:280,1,100,2|0,0:0|0:0,0:0:0:0:
341,280,134810,1,0,0:0:0:0:
341,280,134927,1,8,0:0:0:0:
344,192,135162,2,0,P|344:136|368:100,1,100,0|6,0:0|0:0,0:0:0:0:
168,192,135630,2,0,P|168:136|144:100,1,100,0|8,0:0|0:0,0:0:0:0:
256,40,136099,2,0,L|256:148,1,100,0|4,0:0|0:0,0:0:0:0:
256,192,136568,12,4,139146,0:0:0:0:
256,192,139615,5,2,0:0:0:0:
256,192,140084,1,4,0:0:0:0:
68,224,155084,6,0,P|128:200|164:216,1,100,4|2,0:0|0:0,0:0:0:0:
212,264,155436,2,0,L|324:256,1,100,2|0,0:0|0:0,0:0:0:0:
368,112,155787,2,0,L|256:120,1,100,2|8,0:0|0:0,0:0:0:0:
196,144,156138,2,0,P|199:86|280:44,2,150,0|2|2,0:0|0:0|0:0,0:0:0:0:
196,144,156959,5,4,0:0:0:0:
296,256,157193,1,2,0:0:0:0:
356,120,157427,2,0,L|356:68,2,50,2|0|2,0:0|0:0|0:0,0:0:0:0:
356,296,157896,2,0,P|308:328|230:283,1,150,8|0,0:0|0:0,0:0:0:0:
224,272,158365,1,2,0:0:0:0:
224,252,158482,1,0,0:0:0:0:
228,232,158599,1,2,0:0:0:0:
320,112,158834,6,0,P|372:116|404:152,1,100,4|0,0:0|0:0,0:0:0:0:
368,216,159185,2,0,P|316:212|284:176,1,100,2|0,0:0|0:0,0:0:0:0:
244,116,159537,2,0,P|209:81|161:78,1,100,2|8,0:0|0:0,0:0:0:0:
128,144,159888,2,0,P|162:178|210:181,1,100,0|2,0:0|0:0,0:0:0:0:
244,116,160240,2,0,P|260:64|348:40,1,150,2|2,0:0|0:0,0:0:0:0:
368,52,160709,6,0,P|394:97|380:160,1,100,4|0,0:0|0:0,0:0:0:0:
256,211,161177,1,2,0:0:0:0:
256,211,161294,1,0,0:0:0:0:
256,211,161412,1,2,0:0:0:0:
188,344,161646,2,0,P|264:361|338:336,1,150,8|0,0:0|0:0,0:0:0:0:
347,315,162115,1,2,0:0:0:0:
444,211,162349,1,2,0:0:0:0:
307,186,162584,5,4,0:0:0:0:
460,44,162935,1,2,0:0:0:0:
460,44,163052,1,8,0:0:0:0:
334,62,163287,1,2,0:0:0:0:
418,247,163638,1,2,0:0:0:0:
418,247,163755,1,2,0:0:0:0:
511,159,163990,1,8,0:0:0:0:
256,160,164341,6,0,L|256:128|256:4,2,150,2|2|2,0:0|0:0|0:0,0:0:0:0:
320,319,165396,2,0,P|255:352|191:319,1,150,8|2,0:0|0:0,0:0:0:0:
140,364,165865,1,2,0:0:0:0:
256,288,166099,1,2,0:0:0:0:
372,364,166334,5,4,0:0:0:0:
256,208,166685,1,0,0:0:0:0:
256,208,166802,1,8,0:0:0:0:
256,76,167037,1,2,0:0:0:0:
68,132,167388,1,2,0:0:0:0:
68,132,167505,1,0,0:0:0:0:
68,264,167740,1,8,0:0:0:0:
256,208,168091,6,0,L|256:252|256:360,2,150,2|2|2,0:0|0:0|0:0,0:0:0:0:
191,64,169146,2,0,P|255:31|320:64,1,150,8|0,0:0|0:0,0:0:0:0:
328,128,169615,5,2,0:0:0:0:
184,128,169849,1,2,0:0:0:0:
256,192,170084,12,4,177115,0:0:0:0:
256,297,177584,5,6,0:0:0:0:
118,181,177818,2,0,P|166:169|214:179,2,100,2|8|0,0:0|0:0|0:0,0:0:0:0:
300,234,178521,2,0,L|359:251,1,50,2|0,0:0|0:0,0:0:0:0:
246,100,178873,2,0,L|187:83,1,50,0|8,0:0|0:0,0:0:0:0:
396,117,179224,1,0,0:0:0:0:
397,126,179341,1,0,0:0:0:0:
399,134,179459,2,0,P|356:160|307:156,1,100,2|2,0:0|0:0,0:0:0:0:
165,100,179927,2,0,P|117:90|68:101,1,100,8|0,0:0|0:0,0:0:0:0:
26,276,180396,2,0,B|66:277|103:255|103:255|136:276|136:276|173:270|173:270|207:280|277:273,1,239.999992675781,2|8,0:0|0:0,0:0:0:0:
418,327,181099,5,0,0:0:0:0:
432,331,181216,1,0,0:0:0:0:
445,334,181334,2,0,P|409:270|420:197,1,150,2|0,0:0|0:0,0:0:0:0:
400,79,181802,2,0,P|394:127|362:165,1,100,8|0,0:0|0:0,0:0:0:0:
219,40,182271,1,2,0:0:0:0:
194,36,182388,1,0,0:0:0:0:
57,128,182623,1,0,0:0:0:0:
84,140,182740,2,0,P|157:153|231:141,1,150,8|0,0:0|0:0,0:0:0:0:
303,95,183209,5,2,0:0:0:0:
183,256,183443,1,0,0:0:0:0:
183,256,183560,1,2,0:0:0:0:
382,278,183795,1,0,0:0:0:0:
382,278,183912,1,0,0:0:0:0:
291,206,184146,2,0,L|224:168,1,50,2|0,0:0|0:0,0:0:0:0:
158,203,184380,2,0,L|225:241,1,50,0|0,0:0|0:0,0:0:0:0:
88,220,184615,6,0,P|31:209|19:101,1,179.999994506836,10|0,0:0|0:0,0:0:0:0:
88,96,185084,5,6,0:0:0:0:
168,48,185318,1,2,0:0:0:0:
256,96,185552,1,8,0:0:0:0:
344,48,185787,1,0,0:0:0:0:
424,96,186021,2,0,P|440:160|420:224,2,119.999996337891,2|0|8,0:0|0:0|0:0,0:0:0:0:
344,144,186724,5,0,0:0:0:0:
268,208,186959,2,0,L|136:212,1,119.999996337891,4|0,0:0|0:0,0:0:0:0:
56,312,187427,2,0,L|175:308,1,119.999996337891,8|0,0:0|0:0,0:0:0:0:
312,336,187896,6,0,B|315:296|363:280|363:280|351:224|351:224|407:228|435:177,1,239.999992675781,2|8,0:0|0:0,0:0:0:0:
400,68,188599,1,0,0:0:0:0:
312,132,188834,6,0,L|129:148,2,179.999994506836,2|2|0,0:0|0:0|0:0,0:0:0:0:
412,176,189771,1,2,0:0:0:0:
256,268,190240,1,8,0:0:0:0:
100,176,190709,5,2,0:0:0:0:
144,64,190943,1,0,0:0:0:0:
256,152,191177,1,8,0:0:0:0:
368,64,191412,1,0,0:0:0:0:
412,176,191646,2,0,P|425:263|386:343,1,179.999994506836,2|0,0:0|0:0,0:0:0:0:
364,360,192115,6,0,P|284:316|173:335,1,200,8|4,0:0|0:0,0:0:0:0:
124,270,192818,5,2,0:0:0:0:
136,257,192935,1,0,0:0:0:0:
148,244,193052,2,0,P|148:184|100:136,1,129.000001968384,8|0,0:0|0:0,0:0:0:0:
152,48,193521,2,0,B|184:56|204:36|204:36|236:48|256:85|256:85|276:48|308:36|308:36|328:56|360:48,1,258.000003936768,2|8,0:0|0:0,0:0:0:0:
410,137,194224,1,0,0:0:0:0:
470,220,194459,6,0,P|470:281|424:327,1,129.000001968384,2|0,0:0|0:0,0:0:0:0:
368,245,194927,2,0,P|366:183|409:137,1,129.000001968384,8|0,0:0|0:0,0:0:0:0:
470,220,195396,2,0,L|291:134,1,193.500002952576,2|0,0:0|0:0,0:0:0:0:
277,128,195865,1,8,0:0:0:0:
179,93,196099,1,0,0:0:0:0:
85,66,196334,6,0,B|85:127|85:127|46:184,1,129.000001968384,2|0,0:0|0:0,0:0:0:0:
109,316,196802,2,0,B|109:255|109:255|148:199,1,129.000001968384,8|0,0:0|0:0,0:0:0:0:
288,269,197271,2,0,P|256:362|224:269,1,258.000003936768,2|8,0:0|0:0,0:0:0:0:
364,199,197974,1,0,0:0:0:0:
460,162,198209,5,2,0:0:0:0:
448,59,198443,1,2,0:0:0:0:
448,59,198560,1,0,0:0:0:0:
448,59,198677,2,0,B|402:23|402:23|331:23,1,129.000001968384,8|0,0:0|0:0,0:0:0:0:
364,120,199146,2,0,B|336:99|280:99|256:151|256:151|232:99|176:99|148:120,1,258.000003936768,2|8,0:0|0:0,0:0:0:0:
158,189,199849,1,0,0:0:0:0:
353,306,200084,6,0,P|373:250|352:196,1,119.999996337891,6|2,0:0|0:0,0:0:0:0:
158,189,200552,2,0,P|138:245|160:300,1,119.999996337891,8|0,0:0|0:0,0:0:0:0:
256,248,201021,1,2,0:0:0:0:
352,196,201255,1,0,0:0:0:0:
296,97,201490,2,0,P|198:68|79:129,1,239.999992675781,8|2,0:0|0:0,0:0:0:0:
61,225,202193,5,0,0:0:0:0:
132,306,202427,1,8,0:0:0:0:
238,332,202662,1,0,0:0:0:0:
335,286,202896,2,0,P|384:225|382:168,1,119.999996337891,2|0,0:0|0:0,0:0:0:0:
210,61,203365,2,0,P|161:122|163:179,1,119.999996337891,8|0,0:0|0:0,0:0:0:0:
170,268,203834,6,0,P|239:326|339:326,1,179.999994506836,2|0,0:0|0:0,0:0:0:0:
369,298,204302,1,8,0:0:0:0:
441,217,204537,1,0,0:0:0:0:
418,111,204771,2,0,P|349:53|249:53,1,179.999994506836,2|0,0:0|0:0,0:0:0:0:
210,61,205240,2,0,P|174:123|175:188,1,119.999996337891,8|0,0:0|0:0,0:0:0:0:
243,253,205709,6,0,L|369:253,1,119.999996337891,2|0,0:0|0:0,0:0:0:0:
171,171,206177,2,0,L|42:171,1,119.999996337891,8|2,0:0|0:0,0:0:0:0:
243,85,206646,2,0,P|338:74|429:84,2,179.999994506836,2|2|2,0:0|0:0|0:0,0:0:0:0:
171,171,207584,1,2,0:0:0:0:
256,192,226802,12,0,229615,0:0:0:0:
68,80,230084,6,0,P|60:144|80:204,1,100,4|0,0:0|0:0,0:0:0:0:
76,188,230435,1,0,0:0:0:0:
76,188,230552,2,0,L|208:177,1,100,8|0,0:0|0:0,0:0:0:0:
428,56,231021,1,2,0:0:0:0:
436,64,231138,2,0,L|284:76,1,150,0|8,0:0|0:0,0:0:0:0:
193,178,231724,1,2,0:0:0:0:
424,320,231959,6,0,P|432:264|416:212,1,100,2|0,0:0|0:0,0:0:0:0:
412,212,232310,1,2,0:0:0:0:
412,212,232427,2,0,L|310:217,1,100,8|2,0:0|0:0,0:0:0:0:
60,324,232896,6,0,B|160:352|160:352|236:336,1,150,2|0,0:0|0:0,0:0:0:0:
220,352,233365,2,0,L|212:228,1,100,8|2,0:0|0:0,0:0:0:0:
96,60,233834,6,0,P|80:136|96:212,1,150,2|0,0:0|0:0,0:0:0:0:
72,176,234302,2,0,L|236:192,1,150,8|0,0:0|0:0,0:0:0:0:
244,176,234771,1,2,0:0:0:0:
392,52,235005,1,0,0:0:0:0:
464,172,235240,2,0,P|448:232|456:276,1,100,8|2,0:0|0:0,0:0:0:0:
460,304,235591,1,0,0:0:0:0:
464,340,235709,6,0,B|436:352|436:352|344:332,1,100,2|0,0:0|0:0,0:0:0:0:
344,312,236060,1,0,0:0:0:0:
344,312,236177,2,0,P|284:300|236:320,1,100,8|0,0:0|0:0,0:0:0:0:
240,328,236529,1,0,0:0:0:0:
240,328,236646,2,0,L|232:224,1,100,2|0,0:0|0:0,0:0:0:0:
104,152,237115,6,0,L|111:251,1,100,8|2,0:0|0:0,0:0:0:0:
92,64,237584,5,2,0:0:0:0:
172,104,237935,1,2,0:0:0:0:
256,68,238287,1,2,0:0:0:0:
340,104,238638,1,2,0:0:0:0:
416,56,238990,2,0,B|444:100|444:100|428:172,1,100,8|2,0:0|0:0,0:0:0:0:
412,168,239341,1,0,0:0:0:0:
384,172,239459,6,0,L|408:336,1,150,2|0,0:0|0:0,0:0:0:0:
405,320,239927,1,8,0:0:0:0:
272,360,240162,1,0,0:0:0:0:
272,360,240279,1,0,0:0:0:0:
272,360,240396,1,2,0:0:0:0:
100,272,240748,1,0,0:0:0:0:
100,272,240865,1,8,0:0:0:0:
196,240,241099,1,2,0:0:0:0:
116,180,241334,6,0,B|104:80|104:80|124:32,3,150,2|2|2|2,0:0|0:0|0:0|0:0,0:0:0:0:
272,36,242740,1,8,0:0:0:0:
320,124,242974,1,2,0:0:0:0:
404,68,243209,6,0,B|448:84|448:84|476:212,1,150,2|2,0:0|0:0,0:0:0:0:
424,244,243677,2,0,B|420:312|420:312|448:340,1,100,8|0,0:0|0:0,0:0:0:0:
468,352,244029,1,0,0:0:0:0:
496,364,244146,2,0,L|344:360,1,150,2|0,0:0|0:0,0:0:0:0:
280,312,244615,2,0,L|224:324,3,50,2|0|2|0,0:0|0:0|0:0|0:0,0:0:0:0:
156,292,245084,6,0,P|132:232|144:148,1,150,6|0,0:0|0:0,0:0:0:0:
212,108,245552,1,8,0:0:0:0:
56,152,245787,1,0,0:0:0:0:
252,180,246021,2,0,L|352:164,1,100,2|0,0:0|0:0,0:0:0:0:
496,232,246490,1,8,0:0:0:0:
428,120,246724,1,2,0:0:0:0:
308,252,246959,6,0,P|236:264|172:220,1,150,2|0,0:0|0:0,0:0:0:0:
152,148,247427,1,8,0:0:0:0:
188,344,247662,1,0,0:0:0:0:
360,160,247896,2,0,P|460:152|496:236,1,200,2|8,0:0|0:0,0:0:0:0:
308,328,248599,2,0,L|296:280,1,50,2|0,0:0|0:0,0:0:0:0:
236,224,248834,2,0,L|256:124,1,100,2|0,0:0|0:0,0:0:0:0:
56,60,249302,6,0,P|101:40|149:49,1,100,8|0,0:0|0:0,0:0:0:0:
112,152,249771,1,2,0:0:0:0:
116,156,249888,2,0,L|96:254,1,100,0|0,0:0|0:0,0:0:0:0:
84,332,250240,2,0,P|136:316|184:320,1,100,8|0,0:0|0:0,0:0:0:0:
216,336,250591,1,2,0:0:0:0:
252,356,250709,6,0,L|352:340,1,100,2|0,0:0|0:0,0:0:0:0:
444,208,251177,2,0,L|496:220,2,50,8|0|0,0:0|0:0|0:0,0:0:0:0:
280,232,251646,5,2,0:0:0:0:
280,232,251763,1,0,0:0:0:0:
96,64,251998,5,0,0:0:0:0:
96,64,252115,2,0,P|84:116|80:164,1,100,8|2,0:0|0:0,0:0:0:0:
64,280,252584,6,0,P|120:272|216:264,1,150,2|0,0:0|0:0,0:0:0:0:
232,256,253052,1,8,0:0:0:0:
248,248,253169,1,0,0:0:0:0:
264,240,253287,2,0,P|264:304|240:360,1,100,0|2,0:0|0:0,0:0:0:0:
144,200,253638,2,0,P|144:112|168:48,1,150,0|8,0:0|0:0,0:0:0:0:
312,64,254224,1,2,0:0:0:0:
328,72,254341,1,0,0:0:0:0:
344,80,254459,5,2,0:0:0:0:
456,64,254693,1,0,0:0:0:0:
472,176,254927,1,8,0:0:0:0:
360,192,255162,1,0,0:0:0:0:
408,128,255396,1,2,0:0:0:0:
408,128,255513,2,0,P|400:200|392:264,1,100,0|0,0:0|0:0,0:0:0:0:
248,272,255865,2,0,P|256:200|264:136,1,100,8|2,0:0|0:0,0:0:0:0:
128,48,256334,6,0,L|112:136|96:224,1,150,2|0,0:0|0:0,0:0:0:0:
88,216,256802,1,8,0:0:0:0:
192,320,257037,1,0,0:0:0:0:
304,144,257271,1,2,0:0:0:0:
304,144,257388,2,0,P|240:152|192:160,1,100,0|0,0:0|0:0,0:0:0:0:
256,264,257740,2,0,P|320:256|368:248,1,100,8|0,0:0|0:0,0:0:0:0:
368,264,258091,1,0,0:0:0:0:
384,280,258209,6,0,B|328:264|312:320|312:368|384:384|416:360|416:312|416:312|440:168|440:168|496:184|504:240|484:280,1,500,0|0,0:0|0:0,0:0:0:0:
